<?xml version="1.0" encoding="UTF-8"?>
<svg xmlns="http://www.w3.org/2000/svg" xmlns:xlink="http://www.w3.org/1999/xlink" version="1.2" >
<font id="NanumSquare Regular">
<font-face  font-family="NanumSquare" units-per-em="1000" ascent="850" descent="-255" font-style="normal" font-weight="400" font-stretch="normal" cap-height="695" x-height="513" underline-position="-75" underline-thickness="50" />
<missing-glyph  horiz-adv-x="910" d="M855 -143 L55 -143 L55 757 L855 757 L855 -143 Z M455 278 L120 -107 L790 -107 L455 278 Z M95 -76 L429 308 L95 692 L95 -76 Z M454 337 L788 721 L121 721 L454 337 Z M815 693 L481 307 L815 -77 L815 693 Z " />
<glyph glyph-name="&amp;#x0;" horiz-adv-x="250" d="" />
<glyph glyph-name="&amp;#x1;" unicode="&#x1;" horiz-adv-x="250" d="" />
<glyph glyph-name="&amp;#x2;" unicode="&#x2;" horiz-adv-x="250" d="" />
<glyph glyph-name="&amp;#x3;" unicode="&#x3;" horiz-adv-x="250" d="" />
<glyph glyph-name="&amp;#x4;" unicode="&#x4;" horiz-adv-x="250" d="" />
<glyph glyph-name="&amp;#x5;" unicode="&#x5;" horiz-adv-x="250" d="" />
<glyph glyph-name="&amp;#x6;" unicode="&#x6;" horiz-adv-x="250" d="" />
<glyph glyph-name="&amp;#x7;" unicode="&#x7;" horiz-adv-x="250" d="" />
<glyph glyph-name="&amp;#x8;" unicode="&#x8;" horiz-adv-x="250" d="" />
<glyph glyph-name="&amp;#x9;" unicode="&#x9;" horiz-adv-x="250" d="" />
<glyph glyph-name="&amp;#xa;" unicode="&#xa;" horiz-adv-x="250" d="" />
<glyph glyph-name="&amp;#xb;" unicode="&#xb;" horiz-adv-x="250" d="" />
<glyph glyph-name="&amp;#xc;" unicode="&#xc;" horiz-adv-x="250" d="" />
<glyph glyph-name="&amp;#xd;" unicode="&#xd;" horiz-adv-x="250" d="" />
<glyph glyph-name="&amp;#xe;" unicode="&#xe;" horiz-adv-x="250" d="" />
<glyph glyph-name="&amp;#xf;" unicode="&#xf;" horiz-adv-x="250" d="" />
<glyph glyph-name="&amp;#x10;" unicode="&#x10;" horiz-adv-x="250" d="" />
<glyph glyph-name="&amp;#x11;" unicode="&#x11;" horiz-adv-x="250" d="" />
<glyph glyph-name="&amp;#x12;" unicode="&#x12;" horiz-adv-x="250" d="" />
<glyph glyph-name="&amp;#x13;" unicode="&#x13;" horiz-adv-x="250" d="" />
<glyph glyph-name="&amp;#x14;" unicode="&#x14;" horiz-adv-x="250" d="" />
<glyph glyph-name="&amp;#x15;" unicode="&#x15;" horiz-adv-x="250" d="" />
<glyph glyph-name="&amp;#x16;" unicode="&#x16;" horiz-adv-x="250" d="" />
<glyph glyph-name="&amp;#x17;" unicode="&#x17;" horiz-adv-x="250" d="" />
<glyph glyph-name="&amp;#x18;" unicode="&#x18;" horiz-adv-x="250" d="" />
<glyph glyph-name="&amp;#x19;" unicode="&#x19;" horiz-adv-x="250" d="" />
<glyph glyph-name="&amp;#x1a;" unicode="&#x1a;" horiz-adv-x="250" d="" />
<glyph glyph-name="&amp;#x1b;" unicode="&#x1b;" horiz-adv-x="250" d="" />
<glyph glyph-name="&amp;#x1c;" unicode="&#x1c;" horiz-adv-x="250" d="" />
<glyph glyph-name="&amp;#x1d;" unicode="&#x1d;" horiz-adv-x="250" d="" />
<glyph glyph-name="&amp;#x1e;" unicode="&#x1e;" horiz-adv-x="250" d="" />
<glyph glyph-name="&amp;#x1f;" unicode="&#x1f;" horiz-adv-x="250" d="" />
<glyph glyph-name="&amp;#x20;" unicode="&#x20;" horiz-adv-x="250" d="" />
<glyph glyph-name="&amp;#xa0;" unicode="&#xa0;" horiz-adv-x="250" d="" />
<glyph glyph-name="exclam" unicode="&#x21;" horiz-adv-x="280" d="M92 44 L188 44 L188 -54 L92 -54 L92 44 Z M111 148 L99 714 L181 714 L169 148 L111 148 Z " />
<glyph glyph-name="quotedbl" unicode="&#x22;" horiz-adv-x="373" d="M86 488 L76 730 L154 730 L144 488 L86 488 Z M229 488 L219 730 L297 730 L287 488 L229 488 Z " />
<glyph glyph-name="numbersign" unicode="&#x23;" horiz-adv-x="585" d="M521 255 L521 194 L403 194 L372 -26 L315 -26 L346 194 L204 194 L174 -26 L116 -26 L147 194 L38 194 L38 255 L155 255 L178 419 L69 419 L69 480 L187 480 L217 695 L274 695 L244 480 L385 480 L415 695 L473 695 L442 480 L552 480 L552 419 L434 419 L411 255 L521 255 Z M377 419 L235 419 L212 255 L354 255 L377 419 Z " />
<glyph glyph-name="dollar" unicode="&#x24;" horiz-adv-x="604" d="M277 -18 Q212 -15 155.5 6 Q99 27 55 61 L91 116 Q139 81 185.5 63.5 Q232 46 277 43 L277 313 Q219 326 179 343.5 Q139 361 114.5 383 Q90 405 79 432 Q68 459 68 491 L68 513 Q68 590 125 635.5 Q182 681 277 687 L277 751 L332 751 L332 687 Q392 683 438.5 666 Q485 649 519 626 L485 576 Q456 596 417.5 608.5 Q379 621 332 625 L332 369 Q393 354 434 336 Q475 318 500.5 295.5 Q526 273 537 245.5 Q548 218 548 183 L548 161 Q548 125 533.5 94 Q519 63 491 39.5 Q463 16 423 1.5 Q383 -13 332 -17 L332 -93 L277 -93 L277 -18 Z M479 181 Q479 201 472.5 218 Q466 235 449.5 250 Q433 265 404.5 277.5 Q376 290 332 301 L332 44 Q402 52 440.5 84 Q479 116 479 161 L479 181 Z M137 494 Q137 474 144 458 Q151 442 167 428.5 Q183 415 210 403.5 Q237 392 277 382 L277 625 Q216 620 176.5 590.5 Q137 561 137 511 L137 494 Z " />
<glyph glyph-name="percent" unicode="&#x25;" horiz-adv-x="869" d="M187 -25 L618 695 L681 695 L251 -25 L187 -25 Z M644 343 Q717 343 758 299.5 Q799 256 799 177 L799 132 Q799 53 758 9.5 Q717 -34 644 -34 Q571 -34 530 9.5 Q489 53 489 132 L489 177 Q489 256 530 299.5 Q571 343 644 343 Z M644 17 Q688 17 714.5 44 Q741 71 741 134 L741 175 Q741 238 714.5 265 Q688 292 644 292 Q600 292 573.5 265 Q547 238 547 175 L547 134 Q547 71 573.5 44 Q600 17 644 17 Z M225 703 Q298 703 339 659.5 Q380 616 380 537 L380 492 Q380 413 339 369.5 Q298 326 225 326 Q152 326 111 369.5 Q70 413 70 492 L70 537 Q70 616 111 659.5 Q152 703 225 703 Z M225 377 Q269 377 295.5 404 Q322 431 322 494 L322 535 Q322 598 295.5 625 Q269 652 225 652 Q181 652 154.5 625 Q128 598 128 535 L128 494 Q128 431 154.5 404 Q181 377 225 377 Z " />
<glyph glyph-name="ampersand" unicode="&#x26;" horiz-adv-x="664" d="M607 347 Q607 273 589 211.5 Q571 150 537 101 L645 -26 L565 -26 L497 54 Q452 6 392.5 -15.5 Q333 -37 273 -37 L267 -37 Q222 -37 180 -25 Q138 -13 106 9.5 Q74 32 55 65 Q36 98 36 140 L36 164 Q36 198 46 226 Q56 254 78 278.5 Q100 303 135.5 327 Q171 351 223 377 L204 400 Q192 415 178 431.5 Q164 448 152 467 Q140 486 132.5 507 Q125 528 125 551 L125 569 Q125 593 136 617.5 Q147 642 169 661.5 Q191 681 223.5 693.5 Q256 706 298 706 Q338 706 370 693.5 Q402 681 424.5 661.5 Q447 642 459 617.5 Q471 593 471 569 L471 550 Q471 526 463.5 503 Q456 480 438 456.5 Q420 433 390.5 409 Q361 385 317 360 L495 150 Q518 188 530 238 Q542 288 542 347 L607 347 Z M271 23 Q328 23 375.5 43 Q423 63 458 101 L263 330 Q222 308 192 289 Q162 270 142 250.5 Q122 231 112.5 209.5 Q103 188 103 160 L103 143 Q103 119 115.5 97 Q128 75 150.5 58.5 Q173 42 204 32.5 Q235 23 271 23 Z M190 554 Q190 536 198.5 517 Q207 498 220 479 Q233 460 248.5 441 Q264 422 278 405 Q319 427 344.5 447 Q370 467 383.5 485.5 Q397 504 401.5 521 Q406 538 406 554 L406 565 Q406 583 397.5 598 Q389 613 374 624 Q359 635 339.5 641.5 Q320 648 298 648 Q276 648 256.5 641.5 Q237 635 222 624 Q207 613 198.5 598 Q190 583 190 565 L190 554 Z " />
<glyph glyph-name="quotesingle" unicode="&#x27;" horiz-adv-x="230" d="M86 488 L76 730 L154 730 L144 488 L86 488 Z " />
<glyph glyph-name="parenleft" unicode="&#x28;" horiz-adv-x="313" d="M151 274 Q151 160 181 48 Q211 -64 288 -170 L224 -170 Q149 -81 113 32 Q77 145 77 279 L77 319 Q77 453 113 565 Q149 677 224 766 L288 766 Q214 666 182.5 555.5 Q151 445 151 324 L151 274 Z " />
<glyph glyph-name="parenright" unicode="&#x29;" horiz-adv-x="313" d="M162 324 Q162 445 130.5 555.5 Q99 666 25 766 L89 766 Q164 677 200 565 Q236 453 236 319 L236 279 Q236 145 200 32 Q164 -81 89 -170 L25 -170 Q102 -64 132 48 Q162 160 162 274 L162 324 Z " />
<glyph glyph-name="asterisk" unicode="&#x2a;" horiz-adv-x="459" d="M76 408 L45 465 L187 534 L45 602 L76 659 L203 576 L197 729 L263 729 L256 576 L384 659 L414 602 L272 534 L414 465 L384 408 L256 491 L263 339 L197 339 L204 491 L76 408 Z " />
<glyph glyph-name="plus" unicode="&#x2b;" horiz-adv-x="600" d="M333 568 L333 351 L546 351 L546 287 L333 287 L333 56 L267 56 L267 287 L54 287 L54 351 L267 351 L267 568 L333 568 Z " />
<glyph glyph-name="comma" unicode="&#x2c;" horiz-adv-x="245" d="M89 50 L177 50 L105 -175 L47 -175 L89 50 Z " />
<glyph glyph-name="hyphen" unicode="&#x2d;" horiz-adv-x="412" d="M50 366 L362 366 L362 302 L50 302 L50 366 Z " />
<glyph glyph-name="period" unicode="&#x2e;" horiz-adv-x="245" d="M72 45 L173 45 L173 -55 L72 -55 L72 45 Z " />
<glyph glyph-name="slash" unicode="&#x2f;" horiz-adv-x="389" d="M379 759 L77 -125 L10 -125 L311 759 L379 759 Z " />
<glyph glyph-name="zero" unicode="0" horiz-adv-x="600" d="M545 279 Q545 126 487 44.5 Q429 -37 299 -37 Q171 -37 113 45 Q55 127 55 279 L55 391 Q55 542 114 624 Q173 706 299 706 Q427 706 486 624.5 Q545 543 545 391 L545 279 Z M473 392 Q473 526 429.5 584.5 Q386 643 299 643 Q216 643 171.5 584 Q127 525 127 392 L127 278 Q127 144 171.5 85 Q216 26 299 26 Q385 26 429 84.5 Q473 143 473 278 L473 392 Z " />
<glyph glyph-name="one" unicode="1" horiz-adv-x="600" d="M311 -26 L311 607 L137 501 L105 557 L328 695 L381 695 L381 -26 L311 -26 Z " />
<glyph glyph-name="two" unicode="2" horiz-adv-x="600" d="M346 349 Q376 384 394 409 Q412 434 421.5 453.5 Q431 473 434.5 488 Q438 503 438 517 L438 525 Q438 579 402.5 610.5 Q367 642 301 642 Q253 642 211 619 Q169 596 134 533 L78 568 Q91 591 110 615.5 Q129 640 156 660 Q183 680 218.5 693 Q254 706 299 706 Q347 706 386 693 Q425 680 452 656.5 Q479 633 494 599.5 Q509 566 509 526 L509 516 Q509 487 499 459.5 Q489 432 472.5 406 Q456 380 434 354 Q412 328 389 301 L165 38 L535 38 L535 -26 L77 -26 L77 34 L346 349 Z " />
<glyph glyph-name="three" unicode="3" horiz-adv-x="600" d="M84 594 Q97 616 116 636 Q135 656 160.5 671.5 Q186 687 218.5 696.5 Q251 706 292 706 Q341 706 380.5 693 Q420 680 447.5 656.5 Q475 633 490 599.5 Q505 566 505 526 L505 516 Q505 495 499 471.5 Q493 448 479 426 Q465 404 441 385 Q417 366 381 354 Q456 341 494.5 295 Q533 249 533 186 L533 171 Q533 132 520 95 Q507 58 478.5 28.5 Q450 -1 403.5 -19 Q357 -37 291 -37 Q228 -37 169.5 -17.5 Q111 2 60 43 L95 99 Q148 61 194.5 44 Q241 27 291 27 Q338 27 371 40 Q404 53 424.5 73.5 Q445 94 454.5 119.5 Q464 145 464 170 L464 183 Q464 224 447.5 250.5 Q431 277 406.5 292.5 Q382 308 352.5 314 Q323 320 297 320 L216 320 L216 380 L300 380 Q334 380 359 392.5 Q384 405 400.5 425 Q417 445 425.5 469.5 Q434 494 434 517 L434 525 Q434 579 396.5 610.5 Q359 642 293 642 Q250 642 210 624.5 Q170 607 139 558 L84 594 Z " />
<glyph glyph-name="four" unicode="4" horiz-adv-x="600" d="M470 425 L470 198 L576 198 L576 134 L470 134 L470 -26 L400 -26 L400 134 L39 134 L39 198 L389 695 L469 695 L120 198 L400 198 L400 425 L470 425 Z " />
<glyph glyph-name="five" unicode="5" horiz-adv-x="600" d="M475 191 Q475 278 432.5 317.5 Q390 357 312 357 Q266 357 230 340 Q194 323 170 300 L104 300 L127 695 L498 695 L498 631 L189 631 L178 369 Q202 392 243 406 Q284 420 329 420 Q382 420 422.5 402.5 Q463 385 490 355 Q517 325 530.5 283.5 Q544 242 544 194 L544 179 Q544 140 531 101.5 Q518 63 489.5 32.5 Q461 2 414 -17.5 Q367 -37 300 -37 Q226 -37 170 -15.5 Q114 6 66 43 L102 100 Q154 60 201.5 43.5 Q249 27 300 27 Q348 27 381.5 41.5 Q415 56 436 78 Q457 100 466 126.5 Q475 153 475 178 L475 191 Z " />
<glyph glyph-name="six" unicode="6" horiz-adv-x="600" d="M483 600 Q449 620 410.5 631.5 Q372 643 330 643 Q279 643 244 622.5 Q209 602 186 563 Q163 524 151 467.5 Q139 411 135 339 Q143 355 158.5 373 Q174 391 196.5 406 Q219 421 249 430.5 Q279 440 317 440 Q363 440 404.5 425 Q446 410 477.5 381.5 Q509 353 527.5 311.5 Q546 270 546 217 L546 193 Q546 140 528 97.5 Q510 55 478.5 25 Q447 -5 403.5 -21 Q360 -37 310 -37 Q259 -37 214.5 -19.5 Q170 -2 137 34 Q104 70 85 125.5 Q66 181 66 256 L66 280 Q66 396 84.5 477 Q103 558 137 609 Q171 660 220 683 Q269 706 331 706 Q380 706 427.5 693 Q475 680 516 657 L483 600 Z M142 207 Q142 166 154 133 Q166 100 188 76 Q210 52 240.5 39 Q271 26 308 26 Q345 26 376 37.5 Q407 49 429.5 70.5 Q452 92 464.5 123.5 Q477 155 477 196 L477 211 Q477 251 463 282.5 Q449 314 426 335.5 Q403 357 372.5 368 Q342 379 309 379 Q277 379 247 367 Q217 355 194 334 Q171 313 156.5 283.5 Q142 254 142 220 L142 207 Z " />
<glyph glyph-name="seven" unicode="7" horiz-adv-x="600" d="M253 -26 L174 -26 L467 631 L62 631 L62 695 L545 695 L545 641 L253 -26 Z " />
<glyph glyph-name="eight" unicode="8" horiz-adv-x="600" d="M159 511 Q159 482 169 456 Q179 430 197.5 411 Q216 392 242 381 Q268 370 300 370 Q332 370 358 381 Q384 392 402.5 411 Q421 430 431 456 Q441 482 441 511 L441 523 Q441 579 402.5 611.5 Q364 644 300 644 Q235 644 197 611.5 Q159 579 159 523 L159 511 Z M139 159 Q139 131 150 107 Q161 83 182 65 Q203 47 232.5 36.5 Q262 26 300 26 Q338 26 368 36.5 Q398 47 418.5 65 Q439 83 450 107 Q461 131 461 159 L461 171 Q461 203 449 229 Q437 255 416 274 Q395 293 365.5 303 Q336 313 300 313 Q265 313 235.5 303 Q206 293 184.5 274.5 Q163 256 151 230 Q139 204 139 171 L139 159 Z M68 174 Q68 234 104.5 279.5 Q141 325 200 343 Q148 367 119.5 410 Q91 453 91 510 L91 526 Q91 565 106.5 598 Q122 631 150 655 Q178 679 216.5 692.5 Q255 706 300 706 Q345 706 383.5 692.5 Q422 679 450 655 Q478 631 493.5 598 Q509 565 509 526 L509 510 Q509 453 480.5 410 Q452 367 399 343 Q428 334 452.5 318 Q477 302 494.5 279.5 Q512 257 522 230.5 Q532 204 532 174 L532 157 Q532 114 515.5 78 Q499 42 468.5 16.5 Q438 -9 395 -23 Q352 -37 300 -37 Q248 -37 205 -23 Q162 -9 131.5 16.5 Q101 42 84.5 78 Q68 114 68 157 L68 174 Z " />
<glyph glyph-name="nine" unicode="9" horiz-adv-x="600" d="M115 71 Q149 51 188 39 Q227 27 270 27 Q325 27 362 47.5 Q399 68 421 107 Q443 146 453 202 Q463 258 465 328 Q457 312 442 294 Q427 276 404.5 260.5 Q382 245 351.5 234.5 Q321 224 283 224 Q237 224 195.5 239.5 Q154 255 122.5 284 Q91 313 72.5 354.5 Q54 396 54 449 L54 473 Q54 526 72 569 Q90 612 121.5 642.5 Q153 673 196.5 689.5 Q240 706 290 706 Q340 706 384.5 688.5 Q429 671 462 634.5 Q495 598 514.5 542.5 Q534 487 534 412 L534 382 Q534 263 517.5 182.5 Q501 102 468 53 Q435 4 385 -16.5 Q335 -37 268 -37 Q219 -37 173 -24 Q127 -11 86 12 L115 71 Z M458 459 Q458 499 446 533 Q434 567 412 591.5 Q390 616 359.5 629.5 Q329 643 292 643 Q255 643 224 631 Q193 619 170.5 597 Q148 575 135.5 542.5 Q123 510 123 470 L123 455 Q123 414 137 382.5 Q151 351 174 329.5 Q197 308 227.5 296.5 Q258 285 291 285 Q322 285 352.5 297 Q383 309 406 331 Q429 353 443.5 382 Q458 411 458 446 L458 459 Z " />
<glyph glyph-name="colon" unicode="&#x3a;" horiz-adv-x="305" d="M102 125 L203 125 L203 25 L102 25 L102 125 Z M102 567 L203 567 L203 467 L102 467 L102 567 Z " />
<glyph glyph-name="semicolon" unicode="&#x3b;" horiz-adv-x="305" d="M102 567 L203 567 L203 467 L102 467 L102 567 Z M119 130 L207 130 L135 -95 L77 -95 L119 130 Z " />
<glyph glyph-name="less" unicode="&#x3c;" horiz-adv-x="600" d="M145 317 L535 114 L535 41 L65 291 L65 350 L535 600 L535 528 L145 323 L145 317 Z " />
<glyph glyph-name="equal" unicode="&#x3d;" horiz-adv-x="600" d="M74 458 L526 458 L526 393 L74 393 L74 458 Z M74 247 L526 247 L526 182 L74 182 L74 247 Z " />
<glyph glyph-name="greater" unicode="&#x3e;" horiz-adv-x="600" d="M455 323 L65 528 L65 600 L535 350 L535 291 L65 41 L65 114 L455 317 L455 323 Z " />
<glyph glyph-name="question" unicode="&#x3f;" horiz-adv-x="520" d="M188 44 L284 44 L284 -54 L188 -54 L188 44 Z M202 141 L202 188 Q202 213 206.5 232.5 Q211 252 222.5 271 Q234 290 252.5 310.5 Q271 331 299 358 Q317 375 333.5 391 Q350 407 363.5 424.5 Q377 442 385 462.5 Q393 483 393 509 L393 525 Q393 579 356.5 610.5 Q320 642 257 642 Q206 642 164 621.5 Q122 601 91 566 L46 612 Q59 628 79 645 Q99 662 125.5 675.5 Q152 689 184.5 697.5 Q217 706 255 706 Q355 706 410 657 Q465 608 465 526 L465 509 Q465 472 453.5 444 Q442 416 423.5 392.5 Q405 369 382 348 Q359 327 336 305 Q319 289 307 275.5 Q295 262 286.5 248.5 Q278 235 274 219.5 Q270 204 270 185 L270 141 L202 141 Z " />
<glyph glyph-name="at" unicode="&#x40;" horiz-adv-x="983" d="M753 45 Q733 45 713 50 Q693 55 675 65.5 Q657 76 643 92 Q629 108 622 131 L621 131 Q612 107 594 91 Q576 75 555 65 Q534 55 512.5 51 Q491 47 473 47 Q380 47 334.5 99 Q289 151 289 242 L289 318 Q289 410 336.5 461.5 Q384 513 472 513 Q523 513 555.5 494.5 Q588 476 605 449 L605 507 L676 507 L676 186 Q676 144 699 125.5 Q722 107 754 107 Q779 107 799.5 117.5 Q820 128 835 150.5 Q850 173 858.5 209.5 Q867 246 867 297 L867 308 Q867 393 842.5 461 Q818 529 770 576.5 Q722 624 649.5 649.5 Q577 675 481 675 Q399 675 331.5 649 Q264 623 216 574.5 Q168 526 142 455.5 Q116 385 116 296 L116 279 Q116 186 141.5 113 Q167 40 216 -10.5 Q265 -61 337 -87.5 Q409 -114 501 -114 Q578 -114 650.5 -98 Q723 -82 786 -49 L814 -106 Q751 -140 672.5 -158.5 Q594 -177 504 -177 Q399 -177 315 -145.5 Q231 -114 172 -55 Q113 4 81.5 88.5 Q50 173 50 278 L50 297 Q50 392 80 473 Q110 554 165.5 612.5 Q221 671 301 704 Q381 737 481 737 Q591 737 675.5 705.5 Q760 674 817 618 Q874 562 903.5 483.5 Q933 405 933 311 L933 298 Q933 256 925 211 Q917 166 896.5 129.5 Q876 93 841 69 Q806 45 753 45 Z M362 254 Q362 181 392 148 Q422 115 480 115 Q535 115 569 145.5 Q603 176 603 237 L603 337 Q603 357 594.5 376.5 Q586 396 570.5 411.5 Q555 427 532 436.5 Q509 446 480 446 Q422 446 392 412 Q362 378 362 306 L362 254 Z " />
<glyph glyph-name="A" unicode="A" horiz-adv-x="658" d="M636 -26 L561 -26 L481 198 L176 198 L94 -26 L22 -26 L290 695 L369 695 L636 -26 Z M198 259 L459 259 L389 454 Q382 472 376 489 Q370 506 363 526.5 Q356 547 348 572.5 Q340 598 329 633 Q319 598 311 572.5 Q303 547 296 526.5 Q289 506 283 489 Q277 472 270 454 L198 259 Z " />
<glyph glyph-name="B" unicode="B" horiz-adv-x="615" d="M83 695 L313 695 Q542 695 542 519 L542 498 Q542 474 536 451.5 Q530 429 516.5 410 Q503 391 480.5 376.5 Q458 362 426 354 Q492 344 533.5 304 Q575 264 575 189 L575 164 Q575 75 518.5 24.5 Q462 -26 344 -26 L83 -26 L83 695 Z M152 36 L338 36 Q423 36 463.5 68.5 Q504 101 504 165 L504 187 Q504 220 495 245 Q486 270 464 287 Q442 304 406 312.5 Q370 321 316 321 L152 321 L152 36 Z M152 634 L152 380 L315 380 Q390 380 431 406 Q472 432 472 500 L472 518 Q472 582 432.5 608 Q393 634 308 634 L152 634 Z " />
<glyph glyph-name="C" unicode="C" horiz-adv-x="630" d="M342 706 Q414 706 469.5 687.5 Q525 669 570 634 L534 579 Q485 614 441 627 Q397 640 342 640 Q292 640 253.5 621.5 Q215 603 189 569.5 Q163 536 149.5 489.5 Q136 443 136 386 L136 294 Q136 160 192.5 95 Q249 30 349 30 Q417 30 464.5 51.5 Q512 73 547 104 L588 49 Q548 13 491 -12 Q434 -37 348 -37 Q208 -37 136.5 50 Q65 137 65 294 L65 383 Q65 537 137.5 621.5 Q210 706 342 706 Z " />
<glyph glyph-name="D" unicode="D" horiz-adv-x="668" d="M308 695 Q445 695 522.5 615.5 Q600 536 600 386 L600 283 Q600 133 522.5 53.5 Q445 -26 308 -26 L83 -26 L83 695 L308 695 Z M153 36 L309 36 Q357 36 398 51 Q439 66 468 97.5 Q497 129 513.5 176 Q530 223 530 288 L530 381 Q530 445 513.5 492.5 Q497 540 468 571.5 Q439 603 398 618 Q357 633 309 633 L153 633 L153 36 Z " />
<glyph glyph-name="E" unicode="E" horiz-adv-x="588" d="M517 695 L517 633 L153 633 L153 375 L496 375 L496 313 L153 313 L153 36 L524 36 L524 -26 L83 -26 L83 695 L517 695 Z " />
<glyph glyph-name="F" unicode="F" horiz-adv-x="561" d="M83 -26 L83 695 L511 695 L511 633 L153 633 L153 357 L490 357 L490 295 L153 295 L153 -26 L83 -26 Z " />
<glyph glyph-name="G" unicode="G" horiz-adv-x="656" d="M345 706 Q421 706 477 687.5 Q533 669 578 634 L542 579 Q493 614 447.5 627 Q402 640 345 640 Q293 640 254 621.5 Q215 603 188.5 569.5 Q162 536 149 489.5 Q136 443 136 386 L136 294 Q136 30 359 30 Q381 30 404.5 32 Q428 34 450.5 38.5 Q473 43 493 50 Q513 57 528 66 L528 294 L358 294 L358 356 L596 356 L596 27 Q549 -7 488.5 -22 Q428 -37 356 -37 Q207 -37 136 50 Q65 137 65 294 L65 383 Q65 537 136.5 621.5 Q208 706 345 706 Z " />
<glyph glyph-name="H" unicode="H" horiz-adv-x="677" d="M524 315 L153 315 L153 -26 L83 -26 L83 695 L153 695 L153 385 L524 385 L524 695 L594 695 L594 -26 L524 -26 L524 315 Z " />
<glyph glyph-name="I" unicode="I" horiz-adv-x="236" d="M83 695 L153 695 L153 -26 L83 -26 L83 695 Z " />
<glyph glyph-name="J" unicode="J" horiz-adv-x="453" d="M303 695 L373 695 L373 165 Q373 105 358 66 Q343 27 317.5 4 Q292 -19 259 -28 Q226 -37 189 -37 Q144 -37 99.5 -25 Q55 -13 20 18 L54 75 Q86 49 118 39 Q150 29 185 29 Q249 29 276 63 Q303 97 303 172 L303 695 Z " />
<glyph glyph-name="K" unicode="K" horiz-adv-x="644" d="M295 387 L614 -26 L524 -26 L245 336 L153 241 L153 -26 L83 -26 L83 695 L153 695 L153 331 L501 695 L595 695 L295 387 Z " />
<glyph glyph-name="L" unicode="L" horiz-adv-x="534" d="M153 695 L153 36 L514 36 L514 -26 L83 -26 L83 695 L153 695 Z " />
<glyph glyph-name="M" unicode="M" horiz-adv-x="824" d="M188 502 Q182 515 177 524.5 Q172 534 168 544 Q164 554 160 565.5 Q156 577 152 593 L152 -26 L83 -26 L83 695 L169 695 L413 167 L658 695 L741 695 L741 -26 L672 -26 L672 593 Q669 577 665.5 565.5 Q662 554 658 544 Q654 534 649 524.5 Q644 515 638 502 L445 94 L379 94 L188 502 Z " />
<glyph glyph-name="N" unicode="N" horiz-adv-x="681" d="M83 695 L166 695 L497 131 Q506 116 513 101.5 Q520 87 531 64 L531 695 L598 695 L598 -26 L515 -26 L183 540 Q174 556 167 569 Q160 582 150 605 L150 -26 L83 -26 L83 695 Z " />
<glyph glyph-name="O" unicode="O" horiz-adv-x="692" d="M346 706 Q413 706 465 683.5 Q517 661 553 619 Q589 577 608 517.5 Q627 458 627 384 L627 285 Q627 211 608 151.5 Q589 92 553 50 Q517 8 465 -14.5 Q413 -37 346 -37 Q279 -37 227 -14.5 Q175 8 139 50 Q103 92 84 151.5 Q65 211 65 285 L65 384 Q65 458 83.5 517.5 Q102 577 138 619 Q174 661 226.5 683.5 Q279 706 346 706 Z M346 26 Q443 26 499.5 93.5 Q556 161 556 291 L556 378 Q556 508 499.5 575.5 Q443 643 346 643 Q249 643 192.5 575.5 Q136 508 136 378 L136 291 Q136 161 192.5 93.5 Q249 26 346 26 Z " />
<glyph glyph-name="P" unicode="P" horiz-adv-x="598" d="M83 695 L327 695 Q384 695 427.5 679.5 Q471 664 500 636.5 Q529 609 543.5 571 Q558 533 558 489 L558 468 Q558 424 542.5 386 Q527 348 497.5 319.5 Q468 291 425 275 Q382 259 327 259 L153 259 L153 -26 L83 -26 L83 695 Z M153 632 L153 322 L310 322 Q403 322 445 362 Q487 402 487 470 L487 488 Q487 552 446.5 592 Q406 632 321 632 L153 632 Z " />
<glyph glyph-name="Q" unicode="Q" horiz-adv-x="692" d="M346 706 Q413 706 465 683.5 Q517 661 553 619 Q589 577 608 517.5 Q627 458 627 384 L627 285 Q627 139 558 55 L642 -29 L597 -76 L510 11 Q442 -37 346 -37 Q279 -37 227 -14.5 Q175 8 139 50 Q103 92 84 151.5 Q65 211 65 285 L65 384 Q65 458 83.5 517.5 Q102 577 138 619 Q174 661 226.5 683.5 Q279 706 346 706 Z M346 26 Q413 26 461 59 L368 153 L413 200 L508 105 Q531 138 544 184.5 Q557 231 557 291 L557 378 Q557 507 499.5 575 Q442 643 346 643 Q250 643 192.5 575 Q135 507 135 378 L135 291 Q135 162 192.5 94 Q250 26 346 26 Z " />
<glyph glyph-name="R" unicode="R" horiz-adv-x="630" d="M360 286 Q353 285 346.5 285 Q340 285 333 285 L153 285 L153 -26 L83 -26 L83 695 L332 695 Q386 695 428 680.5 Q470 666 499.5 639.5 Q529 613 544 577 Q559 541 559 499 L559 484 Q559 418 524 370.5 Q489 323 429 301 L574 -26 L499 -26 L360 286 Z M153 632 L153 348 L311 348 Q405 348 446.5 384.5 Q488 421 488 487 L488 497 Q488 560 447.5 596 Q407 632 322 632 L153 632 Z " />
<glyph glyph-name="S" unicode="S" horiz-adv-x="606" d="M302 28 Q344 28 377.5 38 Q411 48 434.5 65.5 Q458 83 470 105.5 Q482 128 482 152 L482 173 Q482 198 474 218 Q466 238 445 254.5 Q424 271 387.5 284.5 Q351 298 293 311 Q230 325 187.5 343.5 Q145 362 119.5 385.5 Q94 409 83.5 437.5 Q73 466 73 500 L73 523 Q73 564 90.5 597.5 Q108 631 139.5 655 Q171 679 214.5 692.5 Q258 706 309 706 Q382 706 434 688.5 Q486 671 523 645 L490 588 Q455 613 410 627.5 Q365 642 309 642 Q276 642 246 634 Q216 626 193.5 610.5 Q171 595 157.5 573 Q144 551 144 523 L144 503 Q144 480 152.5 461 Q161 442 180.5 427 Q200 412 233 399 Q266 386 315 375 Q385 359 431 340.5 Q477 322 504 298 Q531 274 542 244 Q553 214 553 175 L553 152 Q553 113 536 79 Q519 45 487.5 19 Q456 -7 409.5 -22 Q363 -37 305 -37 Q233 -37 170.5 -15.5 Q108 6 60 43 L96 102 Q150 63 201.5 45.5 Q253 28 302 28 Z " />
<glyph glyph-name="T" unicode="T" horiz-adv-x="571" d="M551 695 L551 633 L320 633 L320 -26 L250 -26 L250 633 L20 633 L20 695 L551 695 Z " />
<glyph glyph-name="U" unicode="U" horiz-adv-x="672" d="M336 26 Q430 26 476.5 86 Q523 146 523 281 L523 695 L592 695 L592 255 Q592 105 524.5 34 Q457 -37 336 -37 Q214 -37 147 34 Q80 105 80 255 L80 695 L149 695 L149 281 Q149 146 195.5 86 Q242 26 336 26 Z " />
<glyph glyph-name="V" unicode="V" horiz-adv-x="639" d="M22 695 L99 695 L321 46 L322 46 L544 695 L617 695 L359 -26 L279 -26 L22 695 Z " />
<glyph glyph-name="W" unicode="W" horiz-adv-x="958" d="M30 695 L105 695 L267 49 L268 49 L440 695 L519 695 L691 49 L692 49 L855 695 L928 695 L729 -26 L649 -26 L478 614 L307 -26 L227 -26 L30 695 Z " />
<glyph glyph-name="X" unicode="X" horiz-adv-x="641" d="M365 348 L607 -26 L521 -26 L320 301 L114 -26 L34 -26 L277 349 L46 695 L128 695 L324 393 L513 695 L592 695 L365 348 Z " />
<glyph glyph-name="Y" unicode="Y" horiz-adv-x="602" d="M338 269 L338 -26 L268 -26 L268 269 L20 695 L99 695 L304 333 L504 695 L582 695 L338 269 Z " />
<glyph glyph-name="Z" unicode="Z" horiz-adv-x="597" d="M542 648 L112 34 L561 34 L561 -26 L28 -26 L28 29 L453 635 L52 635 L52 695 L542 695 L542 648 Z " />
<glyph glyph-name="bracketleft" unicode="&#x5b;" horiz-adv-x="356" d="M318 -170 L83 -170 L83 766 L318 766 L318 704 L150 704 L150 -108 L318 -108 L318 -170 Z " />
<glyph glyph-name="backslash" unicode="&#x5c;" horiz-adv-x="947" d="M40 404 L138 404 L68 695 L135 695 L199 404 L368 404 L438 695 L510 695 L580 404 L750 404 L816 695 L880 695 L809 404 L907 404 L907 353 L796 353 L704 -26 L628 -26 L537 353 L409 353 L318 -26 L242 -26 L150 353 L40 353 L40 404 Z M667 49 L670 49 L738 353 L593 353 L667 49 Z M279 49 L282 49 L355 353 L211 353 L279 49 Z M421 404 L525 404 L473 620 L421 404 Z " />
<glyph glyph-name="bracketright" unicode="&#x5d;" horiz-adv-x="356" d="M38 -108 L206 -108 L206 704 L38 704 L38 766 L273 766 L273 -170 L38 -170 L38 -108 Z " />
<glyph glyph-name="asciicircum" unicode="&#x5e;" horiz-adv-x="524" d="M404 401 L262 663 L120 401 L50 401 L230 724 L295 724 L474 401 L404 401 Z " />
<glyph glyph-name="underscore" unicode="&#x5f;" horiz-adv-x="480" d="M480 -130 L0 -130 L0 -75 L480 -75 L480 -130 Z " />
<glyph glyph-name="grave" unicode="&#x60;" horiz-adv-x="600" d="M330 568 L206 709 L289 709 L394 568 L330 568 Z " />
<glyph glyph-name="a" unicode="a" horiz-adv-x="533" d="M226 -34 Q149 -34 101 7 Q53 48 53 120 L53 142 Q53 208 101 249 Q149 290 243 290 L395 290 L395 340 Q395 399 362.5 430.5 Q330 462 267 462 Q223 462 183 446.5 Q143 431 108 407 L75 459 Q113 485 159.5 504 Q206 523 268 523 Q359 523 410.5 478 Q462 433 462 351 L462 -26 L396 -26 L396 40 L395 40 Q387 27 371.5 13.5 Q356 0 335 -11 Q289 -34 226 -34 Z M395 233 L244 233 Q179 233 150 207 Q121 181 121 139 L121 123 Q121 97 131 78.5 Q141 60 157.5 48 Q174 36 194.5 30.5 Q215 25 236 25 Q268 25 294 33 Q320 41 344 56 Q366 70 380.5 90.5 Q395 111 395 142 L395 233 Z " />
<glyph glyph-name="b" unicode="b" horiz-adv-x="579" d="M147 38 L147 -26 L80 -26 L80 730 L148 730 L148 437 Q172 478 215 500.5 Q258 523 309 523 Q357 523 396.5 507.5 Q436 492 464 462.5 Q492 433 507.5 390 Q523 347 523 292 L523 197 Q523 142 507 99 Q491 56 462.5 26.5 Q434 -3 394.5 -18.5 Q355 -34 309 -34 Q252 -34 211 -12.5 Q170 9 148 38 L147 38 Z M455 282 Q455 369 414.5 415 Q374 461 305 461 Q277 461 249 451 Q221 441 198.5 421.5 Q176 402 162 374.5 Q148 347 148 311 L148 153 Q148 129 159.5 106.5 Q171 84 192 66 Q213 48 241.5 37 Q270 26 305 26 Q374 26 414.5 73.5 Q455 121 455 207 L455 282 Z " />
<glyph glyph-name="c" unicode="c" horiz-adv-x="494" d="M278 523 Q335 523 378 509.5 Q421 496 455 470 L424 417 Q386 443 351 452.5 Q316 462 278 462 Q206 462 165 414.5 Q124 367 124 282 L124 213 Q124 124 166 76 Q208 28 280 28 Q336 28 372.5 43.5 Q409 59 438 81 L470 27 Q455 16 437 5 Q419 -6 396 -14.5 Q373 -23 344 -28.5 Q315 -34 279 -34 Q173 -34 114 30.5 Q55 95 55 213 L55 280 Q55 339 71.5 384.5 Q88 430 117 460.5 Q146 491 187 507 Q228 523 278 523 Z " />
<glyph glyph-name="d" unicode="d" horiz-adv-x="579" d="M432 45 L431 45 Q408 4 363 -15 Q318 -34 271 -34 Q224 -34 185 -18.5 Q146 -3 117 26.5 Q88 56 72 99 Q56 142 56 197 L56 292 Q56 347 72 390 Q88 433 116.5 462.5 Q145 492 184.5 507.5 Q224 523 270 523 Q330 523 370 500 Q410 477 431 447 L431 730 L499 730 L499 -26 L432 -26 L432 45 Z M124 207 Q124 120 165 73 Q206 26 274 26 Q307 26 335.5 34.5 Q364 43 385 60.5 Q406 78 418.5 104.5 Q431 131 431 167 L431 329 Q431 353 419.5 376.5 Q408 400 387 419.5 Q366 439 337 451 Q308 463 274 463 Q205 463 164.5 415.5 Q124 368 124 282 L124 207 Z " />
<glyph glyph-name="e" unicode="e" horiz-adv-x="545" d="M423 279 L423 288 Q423 373 384 418 Q345 463 274 463 Q202 463 162.5 415.5 Q123 368 123 288 L123 279 L423 279 Z M479 27 Q447 4 399 -15 Q351 -34 283 -34 Q175 -34 115 30.5 Q55 95 55 213 L55 280 Q55 395 113.5 459 Q172 523 274 523 Q380 523 435.5 457.5 Q491 392 491 278 L491 222 L123 222 L123 213 Q123 123 166 74.5 Q209 26 284 26 Q338 26 379 42 Q420 58 449 79 L479 27 Z " />
<glyph glyph-name="f" unicode="f" horiz-adv-x="374" d="M124 455 L32 455 L32 513 L124 513 L124 581 Q124 625 133 654.5 Q142 684 159.5 702 Q177 720 203 728 Q229 736 263 736 Q285 736 311.5 732.5 Q338 729 354 723 L344 667 Q308 677 268 677 Q227 677 209.5 655 Q192 633 192 578 L192 513 L341 513 L341 455 L192 455 L192 -26 L124 -26 L124 455 Z " />
<glyph glyph-name="g" unicode="g" horiz-adv-x="579" d="M430 55 L429 55 Q406 14 361.5 -5 Q317 -24 270 -24 Q223 -24 184 -8.5 Q145 7 116 36.5 Q87 66 71 109 Q55 152 55 207 L55 292 Q55 347 71 390 Q87 433 115.5 462.5 Q144 492 183.5 507.5 Q223 523 269 523 Q329 523 369.5 500 Q410 477 431 447 L431 513 L498 513 L498 -17 Q498 -132 438.5 -190.5 Q379 -249 278 -249 Q221 -249 176.5 -234 Q132 -219 98 -193 L129 -140 Q148 -153 165 -161.5 Q182 -170 199.5 -175.5 Q217 -181 236 -183 Q255 -185 278 -185 Q353 -185 391.5 -144.5 Q430 -104 430 -19 L430 55 Z M123 217 Q123 130 164 83 Q205 36 273 36 Q306 36 334.5 44.5 Q363 53 384 70.5 Q405 88 417.5 114.5 Q430 141 430 177 L430 329 Q430 353 418.5 376.5 Q407 400 386 419.5 Q365 439 336 451 Q307 463 273 463 Q204 463 163.5 415.5 Q123 368 123 282 L123 217 Z " />
<glyph glyph-name="h" unicode="h" horiz-adv-x="582" d="M312 523 Q405 523 455.5 472.5 Q506 422 506 337 L506 -26 L438 -26 L438 320 Q438 349 432 374.5 Q426 400 410.5 419.5 Q395 439 368.5 450 Q342 461 302 461 Q268 461 239.5 448.5 Q211 436 191 416 Q171 396 159.5 372 Q148 348 148 324 L148 -26 L80 -26 L80 730 L148 730 L148 438 Q157 453 172 468.5 Q187 484 207.5 496 Q228 508 254 515.5 Q280 523 312 523 Z " />
<glyph glyph-name="i" unicode="i" horiz-adv-x="234" d="M83 513 L151 513 L151 -26 L83 -26 L83 513 Z M80 692 L154 692 L154 616 L80 616 L80 692 Z " />
<glyph glyph-name="j" unicode="j" horiz-adv-x="243" d="M89 692 L163 692 L163 616 L89 616 L89 692 Z M160 -92 Q160 -180 124.5 -214.5 Q89 -249 21 -249 Q-1 -249 -27.5 -245.5 Q-54 -242 -70 -236 L-60 -180 Q-24 -190 16 -190 Q57 -190 74.5 -167 Q92 -144 92 -89 L92 513 L160 513 L160 -92 Z " />
<glyph glyph-name="k" unicode="k" horiz-adv-x="540" d="M283 306 L518 -26 L435 -26 L235 261 L148 177 L148 -26 L80 -26 L80 730 L148 730 L148 258 L408 513 L499 513 L283 306 Z " />
<glyph glyph-name="l" unicode="l" horiz-adv-x="228" d="M80 730 L148 730 L148 -26 L80 -26 L80 730 Z " />
<glyph glyph-name="m" unicode="m" horiz-adv-x="878" d="M625 523 Q717 523 759.5 473 Q802 423 802 337 L802 -26 L734 -26 L734 319 Q734 352 728.5 378 Q723 404 709.5 422.5 Q696 441 672.5 451 Q649 461 613 461 Q580 461 555 449 Q530 437 512.5 418 Q495 399 485.5 375 Q476 351 475 328 L475 -26 L407 -26 L407 319 Q407 352 401.5 378 Q396 404 382.5 422.5 Q369 441 345.5 451 Q322 461 286 461 Q253 461 227 448.5 Q201 436 183.5 416 Q166 396 157 372 Q148 348 148 324 L148 -26 L80 -26 L80 513 L147 513 L147 438 Q156 454 169.5 469.5 Q183 485 202 497 Q221 509 244.5 516 Q268 523 298 523 Q363 523 403 497.5 Q443 472 461 425 Q470 442 484.5 459.5 Q499 477 519.5 491 Q540 505 566.5 514 Q593 523 625 523 Z " />
<glyph glyph-name="n" unicode="n" horiz-adv-x="582" d="M312 523 Q405 523 455.5 472.5 Q506 422 506 337 L506 -26 L438 -26 L438 320 Q438 349 432 374.5 Q426 400 410.5 419.5 Q395 439 368.5 450 Q342 461 302 461 Q268 461 239.5 448.5 Q211 436 191 416 Q171 396 159.5 372 Q148 348 148 324 L148 -26 L80 -26 L80 513 L147 513 L147 438 Q156 453 171 468.5 Q186 484 207 496 Q228 508 254 515.5 Q280 523 312 523 Z " />
<glyph glyph-name="o" unicode="o" horiz-adv-x="568" d="M284 523 Q393 523 453 459 Q513 395 513 278 L513 211 Q513 94 453 30 Q393 -34 284 -34 Q175 -34 115 30 Q55 94 55 211 L55 278 Q55 396 115 459.5 Q175 523 284 523 Z M284 26 Q359 26 401.5 72.5 Q444 119 444 215 L444 274 Q444 370 401.5 416.5 Q359 463 284 463 Q209 463 166.5 416.5 Q124 370 124 274 L124 215 Q124 119 166.5 72.5 Q209 26 284 26 Z " />
<glyph glyph-name="p" unicode="p" horiz-adv-x="579" d="M148 38 L148 -240 L80 -240 L80 513 L147 513 L147 437 Q171 478 214.5 500.5 Q258 523 309 523 Q357 523 396.5 507.5 Q436 492 464 462.5 Q492 433 507.5 390 Q523 347 523 292 L523 197 Q523 142 507 99 Q491 56 462.5 26.5 Q434 -3 394.5 -18.5 Q355 -34 309 -34 Q252 -34 211.5 -12.5 Q171 9 149 38 L148 38 Z M455 282 Q455 369 414.5 415 Q374 461 305 461 Q277 461 249 451 Q221 441 198.5 421.5 Q176 402 162 374.5 Q148 347 148 311 L148 153 Q148 129 159.5 106.5 Q171 84 192 66 Q213 48 241.5 37 Q270 26 305 26 Q374 26 414.5 73.5 Q455 121 455 207 L455 282 Z " />
<glyph glyph-name="q" unicode="q" horiz-adv-x="579" d="M431 45 L430 45 Q407 4 362.5 -15 Q318 -34 271 -34 Q224 -34 185 -18.5 Q146 -3 117 26.5 Q88 56 72 99 Q56 142 56 197 L56 292 Q56 347 72 390 Q88 433 116.5 462.5 Q145 492 184.5 507.5 Q224 523 270 523 Q330 523 370.5 500 Q411 477 432 447 L432 513 L499 513 L499 -240 L431 -240 L431 45 Z M124 207 Q124 120 165 73 Q206 26 274 26 Q307 26 335.5 34.5 Q364 43 385 60.5 Q406 78 418.5 104.5 Q431 131 431 167 L431 329 Q431 353 419.5 376.5 Q408 400 387 419.5 Q366 439 337 451 Q308 463 274 463 Q205 463 164.5 415.5 Q124 368 124 282 L124 207 Z " />
<glyph glyph-name="r" unicode="r" horiz-adv-x="391" d="M358 443 Q330 454 293 454 Q260 454 233 441 Q206 428 187 405 Q168 382 158 350 Q148 318 148 280 L148 -26 L80 -26 L80 513 L147 513 L147 418 Q156 437 169.5 456 Q183 475 202.5 490 Q222 505 246.5 514 Q271 523 302 523 Q325 523 343.5 520.5 Q362 518 379 512 L358 443 Z " />
<glyph glyph-name="s" unicode="s" horiz-adv-x="495" d="M251 27 Q317 27 351 53 Q385 79 385 114 L385 124 Q385 165 351.5 186 Q318 207 240 222 Q199 230 166 241 Q133 252 110 269 Q87 286 74 309.5 Q61 333 61 366 L61 380 Q61 409 73 435 Q85 461 109 480.5 Q133 500 169.5 511.5 Q206 523 256 523 Q318 523 363 507.5 Q408 492 441 467 L410 416 Q376 439 341 451 Q306 463 254 463 Q193 463 161 438.5 Q129 414 129 379 L129 368 Q129 333 164.5 313 Q200 293 264 281 Q364 262 408.5 227 Q453 192 453 127 L453 112 Q453 80 438 53 Q423 26 396.5 6.5 Q370 -13 334 -23.5 Q298 -34 255 -34 Q189 -34 137.5 -16.5 Q86 1 48 29 L81 83 Q118 58 160.5 42.5 Q203 27 251 27 Z " />
<glyph glyph-name="t" unicode="t" horiz-adv-x="388" d="M122 455 L30 455 L30 513 L122 513 L122 652 L190 652 L190 513 L339 513 L339 455 L190 455 L190 127 Q190 72 207.5 50 Q225 28 266 28 Q306 28 342 38 L352 -18 Q336 -24 309.5 -27.5 Q283 -31 261 -31 Q226 -31 199.5 -23 Q173 -15 156 3 Q139 21 130.5 50.5 Q122 80 122 124 L122 455 Z " />
<glyph glyph-name="u" unicode="u" horiz-adv-x="578" d="M264 -34 Q172 -34 124 17 Q76 68 76 152 L76 513 L144 513 L144 169 Q144 140 149.5 114.5 Q155 89 169 69.5 Q183 50 208.5 39 Q234 28 274 28 Q308 28 336.5 40 Q365 52 385.5 71.5 Q406 91 417.5 115 Q429 139 429 163 L429 513 L497 513 L497 -26 L430 -26 L430 49 Q411 18 369.5 -8 Q328 -34 264 -34 Z " />
<glyph glyph-name="v" unicode="v" horiz-adv-x="501" d="M214 -26 L17 513 L90 513 L253 44 L413 513 L484 513 L290 -26 L214 -26 Z " />
<glyph glyph-name="w" unicode="w" horiz-adv-x="754" d="M167 -26 L20 513 L89 513 L208 42 L340 513 L417 513 L552 42 L668 513 L734 513 L590 -26 L511 -26 L377 437 L246 -26 L167 -26 Z " />
<glyph glyph-name="x" unicode="x" horiz-adv-x="509" d="M297 253 L487 -26 L408 -26 L255 211 L97 -26 L22 -26 L214 253 L33 513 L109 513 L257 293 L404 513 L478 513 L297 253 Z " />
<glyph glyph-name="y" unicode="y" horiz-adv-x="505" d="M87 513 L254 50 L418 513 L488 513 L208 -249 L150 -228 L219 -35 L17 513 L87 513 Z " />
<glyph glyph-name="z" unicode="z" horiz-adv-x="488" d="M439 467 L110 30 L453 30 L453 -26 L30 -26 L30 26 L355 457 L50 457 L50 513 L439 513 L439 467 Z " />
<glyph glyph-name="braceleft" unicode="&#x7b;" horiz-adv-x="419" d="M38 343 Q93 344 118.5 363.5 Q144 383 144 426 L144 627 Q144 701 177.5 733.5 Q211 766 288 766 L381 766 L381 705 L297 705 Q254 705 232.5 690.5 Q211 676 211 625 L211 433 Q211 415 208.5 396 Q206 377 198 360 Q190 343 174.5 329.5 Q159 316 133 310 Q158 304 173.5 291.5 Q189 279 197.5 262 Q206 245 208.5 225.5 Q211 206 211 187 L211 -35 Q211 -61 216.5 -75.5 Q222 -90 233 -97.5 Q244 -105 260 -107 Q276 -109 297 -109 L381 -109 L381 -170 L288 -170 Q211 -170 177.5 -140 Q144 -110 144 -37 L144 193 Q144 237 118.5 257 Q93 277 38 278 L38 343 Z " />
<glyph glyph-name="bar" unicode="&#x7c;" horiz-adv-x="281" d="M171 -170 L110 -170 L110 765 L171 765 L171 -170 Z " />
<glyph glyph-name="braceright" unicode="&#x7d;" horiz-adv-x="419" d="M381 278 Q326 277 300.5 257 Q275 237 275 193 L275 -37 Q275 -110 241.5 -140 Q208 -170 131 -170 L38 -170 L38 -109 L122 -109 Q143 -109 159 -107 Q175 -105 186 -97.5 Q197 -90 202.5 -75.5 Q208 -61 208 -35 L208 187 Q208 206 210.5 225.5 Q213 245 221.5 262 Q230 279 245 291.5 Q260 304 286 310 Q260 316 244.5 329.5 Q229 343 221 360 Q213 377 210.5 396 Q208 415 208 433 L208 625 Q208 676 186.5 690.5 Q165 705 122 705 L38 705 L38 766 L131 766 Q208 766 241.5 733.5 Q275 701 275 627 L275 426 Q275 383 300.5 363.5 Q326 344 381 343 L381 278 Z " />
<glyph glyph-name="asciitilde" unicode="&#x7e;" horiz-adv-x="600" d="M394 242 Q358 242 334 257.5 Q310 273 290 291 Q270 309 250.5 324.5 Q231 340 205 340 Q183 340 168.5 329.5 Q154 319 145 303.5 Q136 288 131.5 270.5 Q127 253 125 239 L63 239 Q67 272 78 301 Q89 330 106 352 Q123 374 147.5 387 Q172 400 205 400 Q241 400 265.5 384.5 Q290 369 310.5 351 Q331 333 350 317.5 Q369 302 395 302 Q417 302 431.5 311 Q446 320 455 334.5 Q464 349 468.5 367 Q473 385 475 403 L537 403 Q533 370 523.5 341 Q514 312 497 290 Q480 268 455 255 Q430 242 394 242 Z " />
<glyph glyph-name="uni20A9" unicode="&#x20a9;" horiz-adv-x="947" d="M40 404 L138 404 L68 695 L135 695 L199 404 L368 404 L438 695 L510 695 L580 404 L750 404 L816 695 L880 695 L809 404 L907 404 L907 353 L796 353 L704 -26 L628 -26 L537 353 L409 353 L318 -26 L242 -26 L150 353 L40 353 L40 404 Z M667 49 L670 49 L738 353 L593 353 L667 49 Z M279 49 L282 49 L355 353 L211 353 L279 49 Z M421 404 L525 404 L473 620 L421 404 Z " />
<glyph glyph-name="uni2010" unicode="&#x2010;" horiz-adv-x="418" d="M384 254 L34 254 L34 327 L384 327 L384 254 Z " />
<glyph glyph-name="copyright" unicode="&#xa9;" horiz-adv-x="840" d="M420 -33 Q342 -33 275 -4 Q208 25 159 75 Q110 125 82.5 192 Q55 259 55 335 Q55 410 82.5 477 Q110 544 159 593.5 Q208 643 275 672 Q342 701 420 701 Q498 701 565 672 Q632 643 680.5 593.5 Q729 544 757 477 Q785 410 785 335 Q785 259 757 192 Q729 125 680.5 75 Q632 25 565 -4 Q498 -33 420 -33 Z M420 11 Q489 11 547 35.5 Q605 60 647 103 Q689 146 712.5 205.5 Q736 265 736 335 Q736 404 712.5 463 Q689 522 647 565 Q605 608 547 632.5 Q489 657 420 657 Q351 657 293 632.5 Q235 608 193 565 Q151 522 127.5 463 Q104 404 104 335 Q104 265 127.5 205.5 Q151 146 193 103 Q235 60 293 35.5 Q351 11 420 11 Z M429 545 Q477 545 509.5 533 Q542 521 568 501 L536 451 Q508 471 483 478 Q458 485 429 485 Q384 485 353 455 Q322 425 322 362 L322 310 Q322 243 353.5 212.5 Q385 182 430 182 Q471 182 497.5 192.5 Q524 203 547 220 L578 169 Q557 152 521.5 137 Q486 122 430 122 Q346 122 300 171 Q254 220 254 309 L254 360 Q254 449 302 497 Q350 545 429 545 Z " />
<glyph glyph-name="&amp;#x3000;" unicode="&#x3000;" horiz-adv-x="910" d="" />
<glyph glyph-name="&amp;#x3164;" unicode="&#x3164;" horiz-adv-x="910" d="" />
<glyph glyph-name="uni3001" unicode="&#x3001;" horiz-adv-x="910" d="M258 -110 Q233 -76 211 -49 Q189 -22 167 1.5 Q145 25 120.5 46.5 Q96 68 66 92 L123 142 Q155 118 180 97 Q205 76 228 53.5 Q251 31 273.5 5.5 Q296 -20 322 -53 L258 -110 Z " />
<glyph glyph-name="uni3002" unicode="&#x3002;" horiz-adv-x="910" d="M174 -106 Q143 -106 117 -95 Q91 -84 72 -64.5 Q53 -45 42.5 -19 Q32 7 32 37 Q32 67 42.5 92.5 Q53 118 72 137.5 Q91 157 117 168 Q143 179 174 179 Q206 179 232.5 168 Q259 157 277.5 137.5 Q296 118 306.5 92.5 Q317 67 317 37 Q317 7 306.5 -19 Q296 -45 277.5 -64.5 Q259 -84 232.5 -95 Q206 -106 174 -106 Z M174 -55 Q216 -55 241 -28 Q266 -1 266 37 Q266 75 241 102 Q216 129 174 129 Q133 129 108 102 Q83 75 83 37 Q83 -1 108 -28 Q133 -55 174 -55 Z " />
<glyph glyph-name="&amp;#xb7;" unicode="&#xb7;" horiz-adv-x="421" d="M160 353 L261 353 L261 253 L160 253 L160 353 Z " />
<glyph glyph-name="&amp;#x30fb;" unicode="&#x30fb;" horiz-adv-x="421" d="M160 353 L261 353 L261 253 L160 253 L160 353 Z " />
<glyph glyph-name="twodotenleader" unicode="&#x2025;" horiz-adv-x="910" d="M547 353 L648 353 L648 253 L547 253 L547 353 Z M261 353 L362 353 L362 253 L261 253 L261 353 Z " />
<glyph glyph-name="&amp;#x2026;" unicode="&#x2026;" horiz-adv-x="910" d="M671 353 L772 353 L772 253 L671 253 L671 353 Z M405 353 L506 353 L506 253 L405 253 L405 353 Z M139 353 L240 353 L240 253 L139 253 L139 353 Z " />
<glyph glyph-name="&amp;#x22ef;" unicode="&#x22ef;" horiz-adv-x="910" d="M671 353 L772 353 L772 253 L671 253 L671 353 Z M405 353 L506 353 L506 253 L405 253 L405 353 Z M139 353 L240 353 L240 253 L139 253 L139 353 Z " />
<glyph glyph-name="dieresis" unicode="&#xa8;" horiz-adv-x="600" d="M345 667 L411 667 L411 595 L345 595 L345 667 Z M189 667 L255 667 L255 595 L189 595 L189 667 Z " />
<glyph glyph-name="uni3003" unicode="&#x3003;" horiz-adv-x="910" d="M469 446 L316 137 L261 137 L386 446 L469 446 Z M649 446 L496 137 L441 137 L566 446 L649 446 Z " />
<glyph glyph-name="&amp;#xad;" unicode="&#xad;" horiz-adv-x="412" d="M412 283 L0 283 L0 341 L412 341 L412 283 Z " />
<glyph glyph-name="&amp;#x2013;" unicode="&#x2013;" horiz-adv-x="412" d="M412 283 L0 283 L0 341 L412 341 L412 283 Z " />
<glyph glyph-name="&amp;#x2014;" unicode="&#x2014;" horiz-adv-x="824" d="M824 283 L0 283 L0 341 L824 341 L824 283 Z " />
<glyph glyph-name="&amp;#x2015;" unicode="&#x2015;" horiz-adv-x="824" d="M824 283 L0 283 L0 341 L824 341 L824 283 Z " />
<glyph glyph-name="uni2016" unicode="&#x2016;" horiz-adv-x="910" d="M395 -180 L339 -180 L339 780 L395 780 L395 -180 Z M571 -180 L514 -180 L514 780 L571 780 L571 -180 Z " />
<glyph glyph-name="uniFF3C" unicode="&#xff3c;" horiz-adv-x="910" d="M868 -123 L837 -154 L42 725 L72 758 L868 -123 Z " />
<glyph glyph-name="&amp;#x223c;" unicode="&#x223c;" horiz-adv-x="910" d="M742 339 Q731 321 714 304 Q697 287 677 274 Q657 261 635 253 Q613 245 591 245 Q548 245 517.5 254 Q487 263 455 280 Q429 294 394 307.5 Q359 321 319 321 Q282 321 255 303.5 Q228 286 209 258 L168 285 Q179 303 196 320 Q213 337 233 350 Q253 363 275 371 Q297 379 319 379 Q362 379 392.5 370 Q423 361 455 344 Q487 327 519 315 Q551 303 591 303 Q628 303 655 320.5 Q682 338 701 366 L742 339 Z " />
<glyph glyph-name="&amp;#x301c;" unicode="&#x301c;" horiz-adv-x="910" d="M742 339 Q731 321 714 304 Q697 287 677 274 Q657 261 635 253 Q613 245 591 245 Q548 245 517.5 254 Q487 263 455 280 Q429 294 394 307.5 Q359 321 319 321 Q282 321 255 303.5 Q228 286 209 258 L168 285 Q179 303 196 320 Q213 337 233 350 Q253 363 275 371 Q297 379 319 379 Q362 379 392.5 370 Q423 361 455 344 Q487 327 519 315 Q551 303 591 303 Q628 303 655 320.5 Q682 338 701 366 L742 339 Z " />
<glyph glyph-name="&amp;#xff5e;" unicode="&#xff5e;" horiz-adv-x="910" d="M742 339 Q731 321 714 304 Q697 287 677 274 Q657 261 635 253 Q613 245 591 245 Q548 245 517.5 254 Q487 263 455 280 Q429 294 394 307.5 Q359 321 319 321 Q282 321 255 303.5 Q228 286 209 258 L168 285 Q179 303 196 320 Q213 337 233 350 Q253 363 275 371 Q297 379 319 379 Q362 379 392.5 370 Q423 361 455 344 Q487 327 519 315 Q551 303 591 303 Q628 303 655 320.5 Q682 338 701 366 L742 339 Z " />
<glyph glyph-name="quoteleft" unicode="&#x2018;" horiz-adv-x="200" d="M130 546 L47 546 L117 771 L172 771 L130 546 Z " />
<glyph glyph-name="quoteright" unicode="&#x2019;" horiz-adv-x="200" d="M70 757 L153 757 L83 532 L28 532 L70 757 Z " />
<glyph glyph-name="quotedblleft" unicode="&#x201c;" horiz-adv-x="350" d="M280 546 L197 546 L267 771 L322 771 L280 546 Z M133 546 L50 546 L120 771 L175 771 L133 546 Z " />
<glyph glyph-name="quotedblright" unicode="&#x201d;" horiz-adv-x="350" d="M70 757 L153 757 L83 532 L28 532 L70 757 Z M217 757 L300 757 L230 532 L175 532 L217 757 Z " />
<glyph glyph-name="uni3014" unicode="&#x3014;" horiz-adv-x="344" d="M307 -97 L279 -146 L40 -13 L40 615 L279 748 L307 699 L100 583 L100 20 L307 -97 Z " />
<glyph glyph-name="uni3015" unicode="&#x3015;" horiz-adv-x="358" d="M311 -13 L72 -146 L44 -97 L251 20 L251 583 Q201 612 148 641 Q95 670 44 699 L72 748 L311 615 L311 -13 Z " />
<glyph glyph-name="uni3008" unicode="&#x3008;" horiz-adv-x="467" d="M424 -102 L385 -132 L44 301 L384 734 L424 704 L106 301 L424 -102 Z " />
<glyph glyph-name="uni3009" unicode="&#x3009;" horiz-adv-x="477" d="M428 301 L88 -132 L48 -102 L366 301 L48 704 L87 734 L428 301 Z " />
<glyph glyph-name="uni300A" unicode="&#x300a;" horiz-adv-x="474" d="M331 -127 L290 -151 L29 301 L290 753 L331 729 L83 301 L331 -127 Z M441 -127 L400 -151 L139 301 L400 753 L441 729 L194 301 L441 -127 Z " />
<glyph glyph-name="uni300B" unicode="&#x300b;" horiz-adv-x="474" d="M329 301 L68 -151 L27 -127 L274 301 L27 729 L68 753 L329 301 Z M439 301 L178 -151 L137 -127 L385 301 L137 729 L178 753 L439 301 Z " />
<glyph glyph-name="uni300C" unicode="&#x300c;" horiz-adv-x="351" d="M324 708 L100 708 L100 337 L27 337 L27 769 L324 769 L324 708 Z " />
<glyph glyph-name="uni300D" unicode="&#x300d;" horiz-adv-x="351" d="M324 -167 L27 -167 L27 -106 L251 -106 L251 265 L324 265 L324 -167 Z " />
<glyph glyph-name="uni300E" unicode="&#x300e;" horiz-adv-x="356" d="M281 702 L281 727 L75 727 L75 379 L111 379 L111 702 L281 702 Z M326 660 L156 660 L156 337 L30 337 L30 769 L326 769 L326 660 Z " />
<glyph glyph-name="uni300F" unicode="&#x300f;" horiz-adv-x="356" d="M281 -125 L281 223 L245 223 L245 -100 L75 -100 L75 -125 L281 -125 Z M326 -167 L30 -167 L30 -58 L200 -58 L200 265 L326 265 L326 -167 Z " />
<glyph glyph-name="uni3010" unicode="&#x3010;" horiz-adv-x="374" d="M21 -129 L21 731 L372 731 Q316 695 270.5 647 Q225 599 192.5 543.5 Q160 488 142.5 426.5 Q125 365 125 300 Q125 235 142.5 173.5 Q160 112 192.5 56.5 Q225 1 271 -46 Q317 -93 373 -129 L21 -129 Z " />
<glyph glyph-name="uni3011" unicode="&#x3011;" horiz-adv-x="382" d="M357 -129 L5 -129 Q61 -93 107 -46 Q153 1 185.5 56.5 Q218 112 235.5 173.5 Q253 235 253 300 Q253 365 235.5 426.5 Q218 488 185.5 543.5 Q153 599 107.5 647 Q62 695 6 731 L357 731 L357 -129 Z " />
<glyph glyph-name="plusminus" unicode="&#xb1;" horiz-adv-x="600" d="M545 109 L545 49 L55 49 L55 109 L545 109 Z M267 372 L55 372 L55 434 L267 434 L267 648 L333 648 L333 434 L545 434 L545 372 L333 372 L333 158 L267 158 L267 372 Z " />
<glyph glyph-name="multiply" unicode="&#xd7;" horiz-adv-x="600" d="M257 321 L74 516 L117 559 L300 363 L482 555 L527 510 L344 319 L527 126 L484 83 L302 276 L119 83 L74 128 L257 321 Z " />
<glyph glyph-name="divide" unicode="&#xf7;" horiz-adv-x="600" d="M546 351 L546 287 L54 287 L54 351 L546 351 Z M258 559 L342 559 L342 477 L258 477 L258 559 Z M258 161 L342 161 L342 79 L258 79 L258 161 Z " />
<glyph glyph-name="notequal" unicode="&#x2260;" horiz-adv-x="600" d="M74 458 L353 458 L441 592 L501 592 L413 458 L526 458 L526 393 L371 393 L275 247 L526 247 L526 182 L233 182 L147 50 L87 50 L173 182 L74 182 L74 247 L215 247 L311 393 L74 393 L74 458 Z " />
<glyph glyph-name="lessequal" unicode="&#x2264;" horiz-adv-x="600" d="M65 366 L65 418 L535 616 L535 555 L143 390 L535 230 L535 166 L65 366 Z M535 105 L535 49 L65 49 L65 105 L535 105 Z " />
<glyph glyph-name="greaterequal" unicode="&#x2265;" horiz-adv-x="600" d="M65 166 L65 230 L457 390 L65 555 L65 616 L535 418 L535 366 L65 166 Z M535 105 L535 49 L65 49 L65 105 L535 105 Z " />
<glyph glyph-name="infinity" unicode="&#x221e;" horiz-adv-x="600" d="M452 162 Q424 162 402 172 Q380 182 362 198 Q344 214 329 233 Q314 252 300 270 Q283 249 267 229.5 Q251 210 232.5 195 Q214 180 191.5 171 Q169 162 140 162 Q80 162 43.5 201.5 Q7 241 7 304 Q7 332 17.5 358 Q28 384 46.5 403 Q65 422 91 433.5 Q117 445 148 445 Q176 445 198 435 Q220 425 238 409 Q256 393 271 374.5 Q286 356 300 338 Q315 357 331 376 Q347 395 365.5 410.5 Q384 426 407 435.5 Q430 445 460 445 Q521 445 557 406 Q593 367 593 304 Q593 275 582.5 249.5 Q572 224 553.5 204.5 Q535 185 509 173.5 Q483 162 452 162 Z M454 212 Q493 212 517 239.5 Q541 267 541 304 Q541 344 518 370 Q495 396 456 396 Q436 396 420 388 Q404 380 389.5 367 Q375 354 361.5 337.5 Q348 321 334 304 Q346 290 358 273.5 Q370 257 384 243.5 Q398 230 415 221 Q432 212 454 212 Z M144 212 Q163 212 179.5 220 Q196 228 211 241 Q226 254 240 270.5 Q254 287 267 304 Q255 318 242.5 334.5 Q230 351 216 364.5 Q202 378 185 387 Q168 396 147 396 Q107 396 83.5 368.5 Q60 341 60 304 Q60 264 82.5 238 Q105 212 144 212 Z " />
<glyph glyph-name="therefore" unicode="&#x2234;" horiz-adv-x="600" d="M547 121 Q547 97 530 80.5 Q513 64 490 64 Q466 64 449.5 80.5 Q433 97 433 121 Q433 144 449.5 160.5 Q466 177 490 177 Q513 177 530 160.5 Q547 144 547 121 Z M167 121 Q167 97 150 80.5 Q133 64 110 64 Q86 64 69.5 80.5 Q53 97 53 121 Q53 144 69.5 160.5 Q86 177 110 177 Q133 177 150 160.5 Q167 144 167 121 Z M356 516 Q356 492 340 475 Q324 458 300 458 Q276 458 259 475 Q242 492 242 516 Q242 539 259 555.5 Q276 572 300 572 Q324 572 340 555.5 Q356 539 356 516 Z " />
<glyph glyph-name="degree" unicode="&#xb0;" horiz-adv-x="302" d="M267 609 Q267 585 258.5 564 Q250 543 235 527 Q220 511 198.5 502 Q177 493 151 493 Q125 493 103.5 502 Q82 511 67 527 Q52 543 43.5 564 Q35 585 35 609 Q35 633 43.5 654 Q52 675 67 691 Q82 707 103.5 716 Q125 725 151 725 Q177 725 198.5 716 Q220 707 235 691 Q250 675 258.5 654 Q267 633 267 609 Z M217 609 Q217 638 199.5 658 Q182 678 151 678 Q120 678 102.5 658 Q85 638 85 609 Q85 580 102.5 560 Q120 540 151 540 Q182 540 199.5 560 Q217 580 217 609 Z " />
<glyph glyph-name="minute" unicode="&#x2032;" horiz-adv-x="457" d="M317 730 L184 488 L140 488 L231 730 L317 730 Z " />
<glyph glyph-name="second" unicode="&#x2033;" horiz-adv-x="590" d="M314 730 L181 488 L140 488 L231 730 L314 730 Z M450 730 L317 488 L276 488 L367 730 L450 730 Z " />
<glyph glyph-name="uni2103" unicode="&#x2103;" horiz-adv-x="800" d="M249 622 Q249 584 223 558 Q197 532 154 532 Q111 532 85 558 Q59 584 59 622 Q59 660 85 686 Q111 712 154 712 Q197 712 223 686 Q249 660 249 622 Z M528 706 Q600 706 655.5 687.5 Q711 669 756 634 L720 579 Q671 614 627 627 Q583 640 528 640 Q478 640 439.5 621.5 Q401 603 375 569.5 Q349 536 335.5 489.5 Q322 443 322 386 L322 294 Q322 160 378.5 95 Q435 30 535 30 Q603 30 650.5 51.5 Q698 73 733 104 L774 49 Q734 13 677 -12 Q620 -37 534 -37 Q394 -37 322.5 50 Q251 137 251 294 L251 383 Q251 537 323.5 621.5 Q396 706 528 706 Z M105 622 Q105 599 118 584.5 Q131 570 154 570 Q177 570 190 584.5 Q203 599 203 622 Q203 645 190 659.5 Q177 674 154 674 Q131 674 118 659.5 Q105 645 105 622 Z " />
<glyph glyph-name="uni212B" unicode="&#x212b;" horiz-adv-x="658" d="M22 -26 L278 664 Q258 676 247 696.5 Q236 717 236 741 Q236 759 243 775 Q250 791 262 803 Q274 815 291 822.5 Q308 830 329 830 Q349 830 366 822.5 Q383 815 395.5 803 Q408 791 415 775 Q422 759 422 741 Q422 717 410.5 697 Q399 677 380 665 L636 -26 L561 -26 L481 198 L176 198 L94 -26 L22 -26 Z M198 259 L459 259 L389 454 Q382 472 376 489 Q370 506 363 526.5 Q356 547 348 572.5 Q340 598 329 633 Q319 598 311 572.5 Q303 547 296 526.5 Q289 506 283 489 Q277 472 270 454 L198 259 Z M329 688 Q352 688 365 703 Q378 718 378 741 Q378 763 365 777 Q352 791 329 791 Q306 791 292.5 777 Q279 763 279 741 Q279 718 292.5 703 Q306 688 329 688 Z " />
<glyph glyph-name="&amp;#xa2;" unicode="&#xa2;" horiz-adv-x="498" d="M260 70 Q164 76 109.5 134 Q55 192 55 304 L55 370 Q55 425 70 467 Q85 509 112 537.5 Q139 566 177 581 Q215 596 260 599 L260 695 L315 695 L315 598 Q360 594 395 581 Q430 568 459 547 L428 495 Q399 515 371.5 525 Q344 535 315 538 L315 132 Q357 137 387 151 Q417 165 442 184 L474 130 Q448 110 410.5 93 Q373 76 315 71 L315 -26 L260 -26 L260 70 Z M122 304 Q122 222 159.5 180 Q197 138 260 132 L260 539 Q197 533 159.5 491.5 Q122 450 122 372 L122 304 Z " />
<glyph glyph-name="&amp;#xffe0;" unicode="&#xffe0;" horiz-adv-x="498" d="M260 70 Q164 76 109.5 134 Q55 192 55 304 L55 370 Q55 425 70 467 Q85 509 112 537.5 Q139 566 177 581 Q215 596 260 599 L260 695 L315 695 L315 598 Q360 594 395 581 Q430 568 459 547 L428 495 Q399 515 371.5 525 Q344 535 315 538 L315 132 Q357 137 387 151 Q417 165 442 184 L474 130 Q448 110 410.5 93 Q373 76 315 71 L315 -26 L260 -26 L260 70 Z M122 304 Q122 222 159.5 180 Q197 138 260 132 L260 539 Q197 533 159.5 491.5 Q122 450 122 372 L122 304 Z " />
<glyph glyph-name="&amp;#xa3;" unicode="&#xa3;" horiz-adv-x="550" d="M62 367 L148 367 L148 467 Q148 529 165 572.5 Q182 616 210.5 643 Q239 670 277 682.5 Q315 695 356 695 Q400 695 436 686 Q472 677 495 663 L469 607 Q440 619 416.5 624.5 Q393 630 363 630 Q332 630 305.5 622.5 Q279 615 259.5 596 Q240 577 229 544 Q218 511 218 460 L218 367 L420 367 L420 311 L218 311 L218 217 Q218 148 205 107 Q192 66 154 38 L154 36 L517 36 L517 -26 L63 -26 L63 29 Q110 57 129 99.5 Q148 142 148 215 L148 311 L62 311 L62 367 Z " />
<glyph glyph-name="&amp;#xffe1;" unicode="&#xffe1;" horiz-adv-x="550" d="M62 367 L148 367 L148 467 Q148 529 165 572.5 Q182 616 210.5 643 Q239 670 277 682.5 Q315 695 356 695 Q400 695 436 686 Q472 677 495 663 L469 607 Q440 619 416.5 624.5 Q393 630 363 630 Q332 630 305.5 622.5 Q279 615 259.5 596 Q240 577 229 544 Q218 511 218 460 L218 367 L420 367 L420 311 L218 311 L218 217 Q218 148 205 107 Q192 66 154 38 L154 36 L517 36 L517 -26 L63 -26 L63 29 Q110 57 129 99.5 Q148 142 148 215 L148 311 L62 311 L62 367 Z " />
<glyph glyph-name="&amp;#xa5;" unicode="&#xa5;" horiz-adv-x="602" d="M268 128 L95 128 L95 184 L268 184 L268 256 L95 256 L95 312 L253 312 L35 688 L113 688 L304 345 L307 345 L494 688 L565 688 L352 312 L511 312 L511 256 L338 256 L338 184 L511 184 L511 128 L338 128 L338 -26 L268 -26 L268 128 Z " />
<glyph glyph-name="&amp;#xffe5;" unicode="&#xffe5;" horiz-adv-x="602" d="M268 128 L95 128 L95 184 L268 184 L268 256 L95 256 L95 312 L253 312 L35 688 L113 688 L304 345 L307 345 L494 688 L565 688 L352 312 L511 312 L511 256 L338 256 L338 184 L511 184 L511 128 L338 128 L338 -26 L268 -26 L268 128 Z " />
<glyph glyph-name="male" unicode="&#x2642;" horiz-adv-x="776" d="M49 262 Q49 319 70.5 369.5 Q92 420 129.5 457.5 Q167 495 217.5 517 Q268 539 326 539 Q375 539 418 523.5 Q461 508 497 480 L618 600 L509 600 L509 663 L728 663 L728 445 L664 445 L664 555 L543 433 Q571 398 587 354.5 Q603 311 603 262 Q603 205 581 154.5 Q559 104 521.5 66.5 Q484 29 433.5 7 Q383 -15 326 -15 Q268 -15 217.5 7 Q167 29 129.5 66.5 Q92 104 70.5 154.5 Q49 205 49 262 Z M112 262 Q112 217 128.5 177.5 Q145 138 173.5 108 Q202 78 241 60.5 Q280 43 326 43 Q371 43 410 60.5 Q449 78 478 108 Q507 138 523.5 177.5 Q540 217 540 262 Q540 307 523.5 347 Q507 387 478 416.5 Q449 446 410 463.5 Q371 481 326 481 Q280 481 241 463.5 Q202 446 173.5 416.5 Q145 387 128.5 347 Q112 307 112 262 Z " />
<glyph glyph-name="female" unicode="&#x2640;" horiz-adv-x="652" d="M292 187 Q241 194 196.5 217.5 Q152 241 119 277.5 Q86 314 67.5 361 Q49 408 49 462 Q49 519 70.5 569.5 Q92 620 129.5 657.5 Q167 695 217.5 717 Q268 739 326 739 Q383 739 433.5 717 Q484 695 521.5 657.5 Q559 620 581 569.5 Q603 519 603 462 Q603 408 584.5 361 Q566 314 533 277.5 Q500 241 455.5 217.5 Q411 194 360 187 L360 57 L502 57 L502 -7 L360 -7 L360 -149 L292 -149 L292 -7 L149 -7 L149 57 L292 57 L292 187 Z M112 462 Q112 417 128.5 377.5 Q145 338 173.5 308 Q202 278 241 260.5 Q280 243 326 243 Q371 243 410 260.5 Q449 278 478 308 Q507 338 523.5 377.5 Q540 417 540 462 Q540 507 523.5 547 Q507 587 478 616.5 Q449 646 410 663.5 Q371 681 326 681 Q280 681 241 663.5 Q202 646 173.5 616.5 Q145 587 128.5 547 Q112 507 112 462 Z " />
<glyph glyph-name="angle" unicode="&#x2220;" horiz-adv-x="910" d="M760 0 L150 0 L150 45 L622 595 L673 553 L249 63 L760 63 L760 0 Z " />
<glyph glyph-name="perpendicular" unicode="&#x22a5;" horiz-adv-x="910" d="M774 0 L136 0 L136 65 L422 65 L422 574 L488 574 L488 65 L774 65 L774 0 Z " />
<glyph glyph-name="uni2312" unicode="&#x2312;" horiz-adv-x="910" d="M649 575 Q636 598 617.5 618.5 Q599 639 575 654.5 Q551 670 521.5 679 Q492 688 456 688 Q384 688 335.5 654.5 Q287 621 261 575 L194 575 Q233 647 296 691.5 Q359 736 454 736 Q551 736 613.5 691.5 Q676 647 715 575 L649 575 Z " />
<glyph glyph-name="partialdiff" unicode="&#x2202;" horiz-adv-x="516" d="M61 672 Q87 691 127 708 Q167 725 227 725 Q275 725 321 702.5 Q367 680 402 636 Q437 592 458.5 526 Q480 460 480 373 Q480 277 458 205 Q436 133 400 85 Q364 37 316.5 13 Q269 -11 218 -11 Q169 -11 133 6 Q97 23 73.5 51.5 Q50 80 38.5 117 Q27 154 27 195 Q27 246 44 290 Q61 334 90.5 367 Q120 400 159.5 419 Q199 438 244 438 Q276 438 303.5 429.5 Q331 421 352.5 408 Q374 395 389.5 378.5 Q405 362 414 347 L415 347 Q416 356 416 366 Q416 376 416 385 Q416 457 398.5 510.5 Q381 564 353 599 Q325 634 291 651 Q257 668 223 668 Q173 668 139 655 Q105 642 84 627 L61 672 Z M225 45 Q261 45 292 64 Q323 83 346.5 115.5 Q370 148 385 190 Q400 232 406 279 Q398 300 383.5 318.5 Q369 337 349 351 Q329 365 304.5 373.5 Q280 382 252 382 Q220 382 191.5 368 Q163 354 141.5 329.5 Q120 305 107.5 271 Q95 237 95 198 Q95 126 131 85.5 Q167 45 225 45 Z " />
<glyph glyph-name="gradient" unicode="&#x2207;" horiz-adv-x="910" d="M746 545 L164 545 L455 78 L746 545 Z M845 596 L455 -22 L65 596 L845 596 Z " />
<glyph glyph-name="equivalence" unicode="&#x2261;" horiz-adv-x="600" d="M55 145 L55 196 L548 196 L548 145 L55 145 Z M55 437 L55 488 L548 488 L548 437 L55 437 Z M55 291 L55 342 L548 342 L548 291 L55 291 Z " />
<glyph glyph-name="uni2252" unicode="&#x2252;" horiz-adv-x="600" d="M55 261 L547 261 L547 204 L55 204 L55 261 Z M55 422 L547 422 L547 366 L55 366 L55 422 Z M145 535 Q145 561 163.5 579.5 Q182 598 208 598 Q234 598 252.5 579.5 Q271 561 271 535 Q271 509 252.5 490.5 Q234 472 208 472 Q182 472 163.5 490.5 Q145 509 145 535 Z M339 89 Q339 115 357.5 134 Q376 153 402 153 Q428 153 446.5 134 Q465 115 465 89 Q465 63 446.5 44.5 Q428 26 402 26 Q376 26 357.5 44.5 Q339 63 339 89 Z " />
<glyph glyph-name="section" unicode="&#xa7;" horiz-adv-x="514" d="M236 -155 Q180 -155 141.5 -143.5 Q103 -132 72 -115 L72 -59 Q88 -66 104.5 -73 Q121 -80 139.5 -85 Q158 -90 180 -93.5 Q202 -97 230 -97 Q299 -97 331.5 -70 Q364 -43 364 1 Q364 23 359 39 Q354 55 342 66.5 Q330 78 310.5 87 Q291 96 263 105 Q215 120 174 133.5 Q133 147 102 166.5 Q71 186 53.5 215.5 Q36 245 36 293 Q36 344 63.5 376.5 Q91 409 142 425 Q114 445 99.5 474.5 Q85 504 85 549 Q85 618 133 661.5 Q181 705 275 705 Q329 705 361.5 694.5 Q394 684 418 672 L418 617 Q395 628 359.5 637 Q324 646 276 646 Q216 646 183 622.5 Q150 599 150 555 Q150 514 167 492 Q184 470 232 454 Q288 436 333.5 422 Q379 408 411 388.5 Q443 369 460.5 340 Q478 311 478 264 Q478 210 450 177 Q422 144 370 128 Q402 108 417 79.5 Q432 51 432 7 Q432 -68 381 -111.5 Q330 -155 236 -155 Z M301 366 Q274 374 248.5 381.5 Q223 389 197 398 Q150 389 125.5 362.5 Q101 336 101 298 Q101 255 123.5 231 Q146 207 197 191 Q224 183 254 175 Q284 167 310 156 Q360 166 385 193 Q410 220 410 259 Q410 304 383.5 326.5 Q357 349 301 366 Z " />
<glyph glyph-name="uni203B" unicode="&#x203b;" horiz-adv-x="910" d="M816 -6 L771 -50 L451 273 L132 -50 L90 -8 L412 312 L92 633 L133 677 L452 354 L774 677 L814 635 L492 314 L816 -6 Z M515 611 Q515 583 495 562 Q475 541 446 541 Q418 541 397 562 Q376 583 376 611 Q376 639 396.5 659.5 Q417 680 445 680 Q473 680 493.5 659.5 Q514 639 514 611 L515 611 Z M218 311 Q218 284 198 263.5 Q178 243 149 243 Q122 243 100.5 263.5 Q79 284 79 311 Q79 340 100 360.5 Q121 381 148 381 Q176 381 196.5 360.5 Q217 340 217 311 L218 311 Z M831 311 Q831 284 810.5 264 Q790 244 762 244 Q735 244 714 264 Q693 284 693 311 Q693 341 713 361 Q733 381 761 381 Q789 381 810 361 Q831 341 831 311 Z M515 3 Q515 -24 495 -44.5 Q475 -65 446 -65 Q418 -65 398 -44.5 Q378 -24 378 3 Q378 32 397.5 52.5 Q417 73 445 73 Q473 73 494 52.5 Q515 32 515 3 Z " />
<glyph glyph-name="uni2606" unicode="&#x2606;" horiz-adv-x="910" d="M565 445 L902 445 L629 242 L731 -80 L457 115 L178 -80 L283 242 L8 445 L350 445 L457 764 L565 445 Z M456 649 L376 408 L118 408 L325 254 L244 11 L456 159 L663 11 L587 254 L793 408 L538 408 L456 649 Z " />
<glyph glyph-name="uni2605" unicode="&#x2605;" horiz-adv-x="910" d="M565 445 L902 445 L629 242 L731 -80 L457 115 L178 -80 L283 242 L8 445 L350 445 L457 764 L565 445 Z " />
<glyph glyph-name="circle" unicode="&#x25cb;" horiz-adv-x="910" d="M96 344 Q96 418 124 483.5 Q152 549 200.5 597.5 Q249 646 314.5 674.5 Q380 703 454 703 Q529 703 594 674.5 Q659 646 708 597.5 Q757 549 785 483.5 Q813 418 813 344 Q813 269 785 204 Q757 139 708 90 Q659 41 594 13 Q529 -15 454 -15 Q380 -15 314.5 13 Q249 41 200.5 90 Q152 139 124 204 Q96 269 96 344 Z M146 344 Q146 280 170 224 Q194 168 236 126 Q278 84 334 60 Q390 36 454 36 Q518 36 574.5 60 Q631 84 673 126 Q715 168 739 224 Q763 280 763 344 Q763 408 739 464 Q715 520 673 562 Q631 604 574.5 628.5 Q518 653 454 653 Q390 653 334 628.5 Q278 604 236 562 Q194 520 170 464 Q146 408 146 344 Z " />
<glyph glyph-name="H18533" unicode="&#x25cf;" horiz-adv-x="910" d="M96 344 Q96 418 124 483.5 Q152 549 200.5 597.5 Q249 646 314.5 674.5 Q380 703 454 703 Q529 703 594 674.5 Q659 646 708 597.5 Q757 549 785 483.5 Q813 418 813 344 Q813 269 785 204 Q757 139 708 90 Q659 41 594 13 Q529 -15 454 -15 Q380 -15 314.5 13 Q249 41 200.5 90 Q152 139 124 204 Q96 269 96 344 Z " />
<glyph glyph-name="uni25CE" unicode="&#x25ce;" horiz-adv-x="910" d="M96 344 Q96 418 124 483.5 Q152 549 200.5 597.5 Q249 646 314.5 674.5 Q380 703 454 703 Q529 703 594 674.5 Q659 646 708 597.5 Q757 549 785 483.5 Q813 418 813 344 Q813 269 785 204 Q757 139 708 90 Q659 41 594 13 Q529 -15 454 -15 Q380 -15 314.5 13 Q249 41 200.5 90 Q152 139 124 204 Q96 269 96 344 Z M148 344 Q148 281 172 225 Q196 169 237.5 127.5 Q279 86 335 62 Q391 38 454 38 Q518 38 574 62 Q630 86 671.5 127.5 Q713 169 737 225 Q761 281 761 344 Q761 407 737 463 Q713 519 671.5 560.5 Q630 602 574 626.5 Q518 651 454 651 Q391 651 335 626.5 Q279 602 237.5 560.5 Q196 519 172 463 Q148 407 148 344 Z M239 344 Q239 388 256 427 Q273 466 302 495.5 Q331 525 370 542 Q409 559 454 559 Q499 559 538 542 Q577 525 606 495.5 Q635 466 652 427 Q669 388 669 344 Q669 299 652 260 Q635 221 606 192 Q577 163 538 146 Q499 129 454 129 Q409 129 370 146 Q331 163 302 192 Q273 221 256 260 Q239 299 239 344 Z M292 344 Q292 311 305 281.5 Q318 252 340 230 Q362 208 391.5 195 Q421 182 454 182 Q488 182 517.5 195 Q547 208 569 230 Q591 252 604 281.5 Q617 311 617 344 Q617 377 604 406.5 Q591 436 569 458.5 Q547 481 517.5 494 Q488 507 454 507 Q421 507 391.5 494 Q362 481 340 458.5 Q318 436 305 406.5 Q292 377 292 344 Z " />
<glyph glyph-name="uni25C7" unicode="&#x25c7;" horiz-adv-x="910" d="M455 732 L843 343 L455 -46 L66 343 L455 732 Z M455 655 L143 344 L455 31 L766 343 L455 655 Z " />
<glyph glyph-name="uni25C6" unicode="&#x25c6;" horiz-adv-x="910" d="M66 344 L455 732 L844 343 L456 -46 L66 344 Z " />
<glyph glyph-name="H22073" unicode="&#x25a1;" horiz-adv-x="910" d="M111 687 L798 687 L798 0 L111 0 L111 687 Z M162 636 L162 52 L747 52 L747 636 L162 636 Z " />
<glyph glyph-name="filledbox" unicode="&#x25a0;" horiz-adv-x="910" d="M111 0 L111 687 L799 687 L799 0 L111 0 Z " />
<glyph glyph-name="uni25B3" unicode="&#x25b3;" horiz-adv-x="910" d="M87 -69 L455 662 L823 -69 L87 -69 Z M736 -19 L453 546 L170 -19 L736 -19 Z " />
<glyph glyph-name="triagup" unicode="&#x25b2;" horiz-adv-x="910" d="M88 -69 L455 662 L822 -69 L88 -69 Z " />
<glyph glyph-name="uni25BD" unicode="&#x25bd;" horiz-adv-x="910" d="M823 652 L455 -79 L87 652 L823 652 Z M172 601 L455 36 L738 601 L172 601 Z " />
<glyph glyph-name="triagdn" unicode="&#x25bc;" horiz-adv-x="910" d="M822 652 L455 -79 L88 652 L822 652 Z " />
<glyph glyph-name="arrowright" unicode="&#x2192;" horiz-adv-x="910" d="M104 373 L657 373 L582 500 L597 517 L805 344 L597 171 L582 188 L657 314 L104 314 L104 373 Z " />
<glyph glyph-name="arrowleft" unicode="&#x2190;" horiz-adv-x="910" d="M805 314 L252 314 L327 188 L312 171 L104 344 L312 517 L327 500 L252 373 L805 373 L805 314 Z " />
<glyph glyph-name="arrowup" unicode="&#x2191;" horiz-adv-x="910" d="M426 0 L426 553 L299 478 L282 493 L455 701 L628 493 L611 478 L484 553 L484 0 L426 0 Z " />
<glyph glyph-name="arrowdown" unicode="&#x2193;" horiz-adv-x="910" d="M484 687 L484 135 L611 209 L628 194 L455 -14 L282 194 L299 209 L426 135 L426 687 L484 687 Z " />
<glyph glyph-name="arrowboth" unicode="&#x2194;" horiz-adv-x="910" d="M282 188 L267 171 L59 344 L267 517 L282 500 L207 373 L703 373 L628 500 L643 517 L851 344 L643 171 L628 188 L703 314 L207 314 L282 188 Z " />
<glyph glyph-name="uni3013" unicode="&#x3013;" horiz-adv-x="910" d="M779 195 L131 195 L131 233 L779 233 L779 195 Z M779 391 L131 391 L131 429 L779 429 L779 391 Z " />
<glyph glyph-name="&amp;#xab;" unicode="&#xab;" horiz-adv-x="910" d="M816 15 L786 -34 L304 280 L304 325 L778 648 L813 601 L375 303 L816 15 Z M606 12 L574 -38 L94 280 L94 325 L567 653 L602 604 L165 302 L606 12 Z " />
<glyph glyph-name="&amp;#x226a;" unicode="&#x226a;" horiz-adv-x="910" d="M816 15 L786 -34 L304 280 L304 325 L778 648 L813 601 L375 303 L816 15 Z M606 12 L574 -38 L94 280 L94 325 L567 653 L602 604 L165 302 L606 12 Z " />
<glyph glyph-name="&amp;#xbb;" unicode="&#xbb;" horiz-adv-x="910" d="M606 280 L124 -34 L94 15 L535 303 Q427 376 315.5 452.5 Q204 529 97 601 L132 648 L606 325 L606 280 Z M816 280 L336 -38 L304 12 L745 302 Q638 376 526.5 453.5 Q415 531 308 604 L343 653 L816 325 L816 280 Z " />
<glyph glyph-name="&amp;#x226b;" unicode="&#x226b;" horiz-adv-x="910" d="M606 280 L124 -34 L94 15 L535 303 Q427 376 315.5 452.5 Q204 529 97 601 L132 648 L606 325 L606 280 Z M816 280 L336 -38 L304 12 L745 302 Q638 376 526.5 453.5 Q415 531 308 604 L343 653 L816 325 L816 280 Z " />
<glyph glyph-name="radical" unicode="&#x221a;" horiz-adv-x="550" d="M337 -123 L286 -123 L125 310 L52 278 L35 319 L161 371 L290 11 Q295 -3 300 -19 Q305 -35 307 -47 L308 -47 Q310 -35 313.5 -19 Q317 -3 321 11 L513 800 L568 800 L337 -123 Z " />
<glyph glyph-name="uni223D" unicode="&#x223d;" horiz-adv-x="910" d="M829 316 Q829 278 815.5 244 Q802 210 778 184 Q754 158 720.5 142.5 Q687 127 647 127 Q615 127 584.5 138.5 Q554 150 525 171 L558 220 Q580 203 601 196 Q622 189 647 189 Q673 189 694.5 198.5 Q716 208 732 225.5 Q748 243 756.5 266 Q765 289 765 316 Q765 340 756.5 362.5 Q748 385 732.5 402.5 Q717 420 695.5 430.5 Q674 441 648 441 Q593 441 556.5 406 Q520 371 486 307 Q474 284 456 253 Q438 222 411.5 194 Q385 166 348 147 Q311 128 261 128 Q228 128 195.5 140 Q163 152 137.5 175.5 Q112 199 96.5 234 Q81 269 81 316 Q81 361 96 396 Q111 431 136 454.5 Q161 478 193.5 490.5 Q226 503 260 503 Q294 503 325 491 Q356 479 384 461 L352 411 Q331 423 309.5 431 Q288 439 267 439 Q212 439 179 404.5 Q146 370 146 316 Q146 260 177.5 226 Q209 192 266 192 Q303 192 331 208.5 Q359 225 380 249 Q401 273 416 300.5 Q431 328 442 349 Q457 379 476.5 407 Q496 435 521 456 Q546 477 577 490 Q608 503 646 503 Q686 503 719.5 487.5 Q753 472 777.5 446 Q802 420 815.5 386.5 Q829 353 829 316 Z " />
<glyph glyph-name="proportional" unicode="&#x221d;" horiz-adv-x="910" d="M301 192 Q332 192 356.5 203 Q381 214 400 232 Q419 250 433.5 272 Q448 294 459 315 Q448 336 433 358 Q418 380 398.5 398 Q379 416 355 427.5 Q331 439 301 439 Q246 439 213.5 404.5 Q181 370 181 316 Q181 259 212 225.5 Q243 192 301 192 Z M761 409 Q741 423 720.5 432 Q700 441 680 441 Q626 441 590.5 408 Q555 375 523 315 Q555 254 590.5 221.5 Q626 189 680 189 Q697 189 719 195 Q741 201 759 211 L780 155 Q730 127 680 127 Q648 127 620 137.5 Q592 148 568 166 Q544 184 524.5 207 Q505 230 490 254 Q477 232 460 209.5 Q443 187 420.5 169 Q398 151 368.5 139.5 Q339 128 300 128 Q266 128 233 140 Q200 152 173.5 175.5 Q147 199 130.5 234 Q114 269 114 316 Q114 361 130 396 Q146 431 172 454.5 Q198 478 231 490.5 Q264 503 299 503 Q337 503 366.5 491.5 Q396 480 419 461.5 Q442 443 459 420 Q476 397 490 375 Q505 401 524 424 Q543 447 566.5 464.5 Q590 482 618.5 492.5 Q647 503 680 503 Q709 503 738 491.5 Q767 480 795 460 L761 409 Z " />
<glyph glyph-name="uni2235" unicode="&#x2235;" horiz-adv-x="586" d="M49 505 Q49 529 65.5 545.5 Q82 562 106 562 Q129 562 146 545.5 Q163 529 163 505 Q163 481 146 465 Q129 449 106 449 Q82 449 65.5 465 Q49 481 49 505 Z M429 505 Q429 529 445.5 545.5 Q462 562 486 562 Q509 562 526 545.5 Q543 529 543 505 Q543 481 526 465 Q509 449 486 449 Q462 449 445.5 465 Q429 481 429 505 Z M239 110 Q239 133 255.5 150.5 Q272 168 296 168 Q319 168 336 150.5 Q353 133 353 110 Q353 87 336 70.5 Q319 54 296 54 Q272 54 255.5 70.5 Q239 87 239 110 Z " />
<glyph glyph-name="integral" unicode="&#x222b;" horiz-adv-x="303" d="M281 736 Q275 738 268 739 Q261 740 253 740 Q240 740 228 735.5 Q216 731 207 720 Q199 710 193.5 697 Q188 684 184.5 665.5 Q181 647 179.5 621.5 Q178 596 178 562 Q178 508 179.5 447 Q181 386 183.5 323 Q186 260 187.5 198.5 Q189 137 189 83 Q189 6 175 -38.5 Q161 -83 142 -106 Q127 -125 105.5 -135.5 Q84 -146 58 -146 Q42 -146 28.5 -143 Q15 -140 9 -136 L19 -89 Q26 -91 34.5 -92.5 Q43 -94 54 -94 Q80 -94 99 -74 Q105 -66 110.5 -54.5 Q116 -43 120 -25 Q124 -7 126.5 19.5 Q129 46 129 84 Q129 139 127.5 201 Q126 263 123.5 326.5 Q121 390 119.5 451.5 Q118 513 118 566 Q118 640 131 684.5 Q144 729 170 756 Q202 791 251 791 Q276 791 292 784 L281 736 Z " />
<glyph glyph-name="uni222C" unicode="&#x222c;" horiz-adv-x="521" d="M281 736 Q275 738 268 739 Q261 740 253 740 Q240 740 228 735.5 Q216 731 207 720 Q199 710 193.5 697 Q188 684 184.5 665.5 Q181 647 179.5 621.5 Q178 596 178 562 Q178 508 179.5 447 Q181 386 183.5 323 Q186 260 187.5 198.5 Q189 137 189 83 Q189 6 175 -38.5 Q161 -83 142 -106 Q127 -125 105.5 -135.5 Q84 -146 58 -146 Q42 -146 28.5 -143 Q15 -140 9 -136 L19 -89 Q26 -91 34.5 -92.5 Q43 -94 54 -94 Q80 -94 99 -74 Q105 -66 110.5 -54.5 Q116 -43 120 -25 Q124 -7 126.5 19.5 Q129 46 129 84 Q129 139 127.5 201 Q126 263 123.5 326.5 Q121 390 119.5 451.5 Q118 513 118 566 Q118 640 131 684.5 Q144 729 170 756 Q202 791 251 791 Q276 791 292 784 L281 736 Z M499 736 Q493 738 486 739 Q479 740 471 740 Q458 740 446 735.5 Q434 731 425 720 Q417 710 411.5 697 Q406 684 402.5 665.5 Q399 647 397.5 621.5 Q396 596 396 562 Q396 508 397.5 447 Q399 386 401.5 323 Q404 260 405.5 198.5 Q407 137 407 83 Q407 6 393 -38.5 Q379 -83 360 -106 Q345 -125 323.5 -135.5 Q302 -146 276 -146 Q260 -146 246.5 -143 Q233 -140 227 -136 L237 -89 Q244 -91 252.5 -92.5 Q261 -94 272 -94 Q298 -94 317 -74 Q323 -66 328.5 -54.5 Q334 -43 338 -25 Q342 -7 344.5 19.5 Q347 46 347 84 Q347 139 345.5 201 Q344 263 341.5 326.5 Q339 390 337.5 451.5 Q336 513 336 566 Q336 640 349 684.5 Q362 729 388 756 Q420 791 469 791 Q494 791 510 784 L499 736 Z " />
<glyph glyph-name="element" unicode="&#x2208;" horiz-adv-x="910" d="M795 298 L178 298 Q182 264 196.5 235.5 Q211 207 237 186 Q263 165 301.5 153.5 Q340 142 393 142 L797 142 L797 82 L398 82 Q324 82 270 101.5 Q216 121 181 154.5 Q146 188 129 233 Q112 278 112 329 Q112 377 128 419.5 Q144 462 178 493.5 Q212 525 265.5 543.5 Q319 562 393 562 L797 562 L797 502 L393 502 Q340 502 301.5 490.5 Q263 479 237.5 459.5 Q212 440 197.5 414 Q183 388 179 358 L795 358 L795 298 Z " />
<glyph glyph-name="suchthat" unicode="&#x220b;" horiz-adv-x="910" d="M114 358 L729 358 Q724 388 710 414 Q696 440 670.5 459.5 Q645 479 607 490.5 Q569 502 516 502 L112 502 L112 562 L516 562 Q590 562 643.5 543.5 Q697 525 731 493.5 Q765 462 781 419.5 Q797 377 797 329 Q797 278 780 233 Q763 188 728 154.5 Q693 121 639 101.5 Q585 82 511 82 L112 82 L112 142 L516 142 Q569 142 607.5 153.5 Q646 165 672 186 Q698 207 712 235.5 Q726 264 730 298 L114 298 L114 358 Z " />
<glyph glyph-name="reflexsubset" unicode="&#x2286;" horiz-adv-x="910" d="M797 562 L393 562 Q333 562 292 549 Q251 536 225.5 513.5 Q200 491 188.5 460.5 Q177 430 177 396 Q177 358 189 326 Q201 294 227 271 Q253 248 294 235 Q335 222 393 222 L797 222 L797 162 L398 162 Q324 162 270 180 Q216 198 181 230 Q146 262 129 305.5 Q112 349 112 399 Q112 446 128 486.5 Q144 527 178 557 Q212 587 265.5 604.5 Q319 622 393 622 L797 622 L797 562 Z M795 2 L149 2 L149 62 L795 62 L795 2 Z " />
<glyph glyph-name="reflexsuperset" unicode="&#x2287;" horiz-adv-x="910" d="M112 622 L516 622 Q590 622 643.5 604.5 Q697 587 731 557 Q765 527 781 486.5 Q797 446 797 399 Q797 349 780 305.5 Q763 262 728 230 Q693 198 639 180 Q585 162 511 162 L112 162 L112 222 L516 222 Q574 222 615 235 Q656 248 682 271 Q708 294 720 326 Q732 358 732 396 Q732 430 720.5 460.5 Q709 491 683.5 513.5 Q658 536 617 549 Q576 562 516 562 L112 562 L112 622 Z M114 62 L760 62 L760 2 L114 2 L114 62 Z " />
<glyph glyph-name="propersubset" unicode="&#x2282;" horiz-adv-x="910" d="M797 492 L393 492 Q333 492 292 478 Q251 464 225.5 440 Q200 416 188.5 384 Q177 352 177 316 Q177 277 189 243 Q201 209 227 184.5 Q253 160 294 146 Q335 132 393 132 L797 132 L797 72 L398 72 Q324 72 270 91.5 Q216 111 181 144.5 Q146 178 129 223 Q112 268 112 319 Q112 367 128 409.5 Q144 452 178 483.5 Q212 515 265.5 533.5 Q319 552 393 552 L797 552 L797 492 Z " />
<glyph glyph-name="propersuperset" unicode="&#x2283;" horiz-adv-x="910" d="M112 562 L516 562 Q590 562 643.5 543.5 Q697 525 731 493.5 Q765 462 781 419.5 Q797 377 797 329 Q797 278 780 233 Q763 188 728 154.5 Q693 121 639 101.5 Q585 82 511 82 L112 82 L112 142 L516 142 Q574 142 615 156 Q656 170 682 194.5 Q708 219 720 253 Q732 287 732 326 Q732 362 720.5 394 Q709 426 683.5 450 Q658 474 617 488 Q576 502 516 502 L112 502 L112 562 Z " />
<glyph glyph-name="union" unicode="&#x222a;" horiz-adv-x="910" d="M275 635 L275 231 Q275 171 289 129.5 Q303 88 327 61.5 Q351 35 383 23 Q415 11 451 11 Q490 11 524 23.5 Q558 36 582.5 63 Q607 90 621 131.5 Q635 173 635 231 L635 635 L699 635 L699 236 Q699 162 679 108 Q659 54 625 19 Q591 -16 545 -33 Q499 -50 448 -50 Q400 -50 357 -34 Q314 -18 281.5 16 Q249 50 230 103.5 Q211 157 211 231 L211 635 L275 635 Z " />
<glyph glyph-name="intersection" unicode="&#x2229;" horiz-adv-x="910" d="M455 635 Q507 635 551.5 618 Q596 601 628.5 566 Q661 531 679.5 477 Q698 423 698 349 L698 -50 L634 -50 L634 354 Q634 412 621 454 Q608 496 584 523.5 Q560 551 527 564 Q494 577 455 577 Q416 577 383 564 Q350 551 326 523.5 Q302 496 289 454 Q276 412 276 354 L276 -50 L212 -50 L212 349 Q212 423 230.5 477 Q249 531 281.5 566 Q314 601 358.5 618 Q403 635 455 635 Z " />
<glyph glyph-name="logicaland" unicode="&#x2227;" horiz-adv-x="910" d="M776 22 L722 -4 L455 510 Q389 383 321 253 Q253 123 188 -4 L134 22 L428 591 L482 591 L776 22 Z " />
<glyph glyph-name="logicalor" unicode="&#x2228;" horiz-adv-x="910" d="M776 571 L482 3 L428 3 L134 571 L188 598 L455 83 Q521 210 589 340 Q657 470 722 598 L776 571 Z " />
<glyph glyph-name="&amp;#xac;" unicode="&#xac;" horiz-adv-x="910" d="M883 -155 L824 -155 L824 101 L27 101 L27 158 L883 158 L883 -155 Z " />
<glyph glyph-name="&amp;#xffe2;" unicode="&#xffe2;" horiz-adv-x="910" d="M883 -155 L824 -155 L824 101 L27 101 L27 158 L883 158 L883 -155 Z " />
<glyph glyph-name="arrowdblright" unicode="&#x21d2;" horiz-adv-x="910" d="M905 300 L649 42 L616 74 L731 188 L5 188 L5 232 L774 232 L843 300 Q826 318 808.5 334.5 Q791 351 774 369 L5 369 L5 413 L730 413 L616 525 L649 557 L905 300 Z " />
<glyph glyph-name="arrowdblboth" unicode="&#x21d4;" horiz-adv-x="910" d="M906 300 L650 42 L617 74 L732 188 L177 188 L292 74 L259 42 L3 300 L259 557 L292 525 L178 413 L731 413 L617 525 L650 557 L906 300 Z M844 300 Q827 318 809.5 334.5 Q792 351 775 369 L134 369 Q116 350 100 335 Q84 320 65 300 L134 232 L775 232 L844 300 Z " />
<glyph glyph-name="universal" unicode="&#x2200;" horiz-adv-x="910" d="M148 695 L223 695 L303 471 L608 471 L690 695 L762 695 L494 -26 L415 -26 L148 695 Z M455 36 Q465 71 473 96.5 Q481 122 488 142.5 Q495 163 501 180 Q507 197 514 215 L585 410 L325 410 L395 215 Q402 197 408 180 Q414 163 421 142.5 Q428 122 436 96.5 Q444 71 455 36 Z " />
<glyph glyph-name="existential" unicode="&#x2203;" horiz-adv-x="910" d="M675 695 L675 -26 L234 -26 L234 36 L605 36 L605 313 L262 313 L262 375 L605 375 L605 633 L241 633 L241 695 L675 695 Z " />
<glyph glyph-name="acute" unicode="&#xb4;" horiz-adv-x="600" d="M206 568 L311 709 L394 709 L270 568 L206 568 Z " />
<glyph glyph-name="tilde" unicode="&#x2dc;" horiz-adv-x="600" d="M156 586 Q162 634 187.5 657 Q213 680 243 680 Q261 680 276 674 Q291 668 305 660.5 Q319 653 332 647 Q345 641 357 641 Q372 641 383 651 Q394 661 398 681 L444 681 Q439 633 413 610 Q387 587 357 587 Q339 587 324 593 Q309 599 295 606.5 Q281 614 268 620 Q255 626 243 626 Q211 626 203 586 L156 586 L156 586 Z " />
<glyph glyph-name="caron" unicode="&#x2c7;" horiz-adv-x="600" d="M329 563 L270 563 L169 702 L224 702 L301 614 L375 702 L431 702 L329 563 Z " />
<glyph glyph-name="breve" unicode="&#x2d8;" horiz-adv-x="600" d="M300 565 Q244 565 208.5 598.5 Q173 632 170 688 L222 688 Q227 654 246.5 635 Q266 616 300 616 Q335 616 354 635 Q373 654 378 688 L430 688 Q428 632 392 598.5 Q356 565 300 565 Z " />
<glyph glyph-name="hungarumlaut" unicode="&#x2dd;" horiz-adv-x="600" d="M219 709 L291 709 L223 568 L166 568 L219 709 Z M363 709 L435 709 L367 568 L310 568 L363 709 Z " />
<glyph glyph-name="ring" unicode="&#x2da;" horiz-adv-x="910" d="M455 556 Q413 556 387.5 583 Q362 610 362 647 Q362 665 369 681 Q376 697 388 709 Q400 721 417 728.5 Q434 736 455 736 Q475 736 492 728.5 Q509 721 521.5 709 Q534 697 541 681 Q548 665 548 647 Q548 610 522 583 Q496 556 455 556 Z M455 594 Q478 594 491 609 Q504 624 504 647 Q504 669 491 683 Q478 697 455 697 Q432 697 418.5 683 Q405 669 405 647 Q405 624 418.5 609 Q432 594 455 594 Z " />
<glyph glyph-name="dotaccent" unicode="&#x2d9;" horiz-adv-x="600" d="M265 668 L334 668 L334 595 L265 595 L265 668 Z " />
<glyph glyph-name="cedilla" unicode="&#xb8;" horiz-adv-x="600" d="M216 -153 Q274 -148 300 -140 Q326 -132 326 -111 Q326 -90 305 -83.5 Q284 -77 238 -77 L238 8 L286 8 L286 -38 Q330 -40 357 -55 Q384 -70 384 -105 Q384 -149 346.5 -170 Q309 -191 216 -197 L216 -153 Z " />
<glyph glyph-name="ogonek" unicode="&#x2db;" horiz-adv-x="600" d="M325 -196 Q223 -196 223 -122 Q223 -101 231.5 -83.5 Q240 -66 252.5 -52.5 Q265 -39 280 -28.5 Q295 -18 309 -9 L365 -9 Q331 -35 307.5 -59 Q284 -83 284 -113 Q284 -138 298.5 -144 Q313 -150 340 -150 Q362 -150 376 -144 L376 -187 Q367 -190 354 -193 Q341 -196 325 -196 Z " />
<glyph glyph-name="exclamdown" unicode="&#xa1;" horiz-adv-x="280" d="M188 616 L92 616 L92 714 L188 714 L188 616 Z M169 512 L181 -54 L99 -54 L111 512 L169 512 Z " />
<glyph glyph-name="questiondown" unicode="&#xbf;" horiz-adv-x="520" d="M323 608 L227 608 L227 706 L323 706 L323 608 Z M309 511 L309 464 Q309 439 304 419.5 Q299 400 288 381 Q277 362 258.5 341.5 Q240 321 212 294 Q194 277 177.5 261 Q161 245 147.5 227.5 Q134 210 126 189.5 Q118 169 118 143 L118 127 Q118 73 154.5 41.5 Q191 10 254 10 Q305 10 347 30.5 Q389 51 420 86 L465 40 Q451 24 431 7 Q411 -10 385 -23.5 Q359 -37 326.5 -45.5 Q294 -54 256 -54 Q156 -54 101 -5 Q46 44 46 126 L46 143 Q46 180 57.5 208 Q69 236 87.5 259.5 Q106 283 129 304 Q152 325 175 347 Q191 363 203.5 376.5 Q216 390 224.5 403.5 Q233 417 237 432 Q241 447 241 467 L241 511 L309 511 Z " />
<glyph glyph-name="&amp;#x2d0;" unicode="&#x2d0;" horiz-adv-x="910" d="M539 74 L371 74 L454 168 L539 74 Z M539 545 L454 450 L371 545 L539 545 Z " />
<glyph glyph-name="&amp;#x2236;" unicode="&#x2236;" horiz-adv-x="910" d="M539 74 L371 74 L454 168 L539 74 Z M539 545 L454 450 L371 545 L539 545 Z " />
<glyph glyph-name="uni222E" unicode="&#x222e;" horiz-adv-x="910" d="M617 628 Q609 647 596.5 657.5 Q584 668 567 668 Q545 668 525 609.5 Q505 551 493 444 Q520 441 543 430 Q566 419 583 401 Q600 383 609 357.5 Q618 332 615 299 Q612 267 599.5 242 Q587 217 568 199 Q549 181 524.5 170 Q500 159 474 155 Q460 45 431 -26 Q415 -64 391.5 -88 Q368 -112 338 -112 Q277 -112 246 -53 L290 -27 Q299 -46 311.5 -57 Q324 -68 341 -68 Q363 -68 383.5 -10 Q404 48 415 156 Q390 160 368.5 171 Q347 182 331.5 200 Q316 218 308 243 Q300 268 303 299 Q306 329 317.5 353 Q329 377 346.5 395 Q364 413 386.5 424.5 Q409 436 433 441 Q447 553 477 626 Q493 664 516.5 688 Q540 712 570 712 Q632 712 664 649 L617 628 Z M566 299 Q570 341 549.5 373.5 Q529 406 490 414 Q485 361 484 300 Q483 269 481.5 240.5 Q480 212 477 185 Q514 194 538 224 Q562 254 566 299 Z M430 410 Q398 398 377 369.5 Q356 341 352 299 Q348 255 366 225.5 Q384 196 418 186 Q422 238 424 300 Q425 357 430 410 Z " />
<glyph glyph-name="summation" unicode="&#x2211;" horiz-adv-x="579" d="M517 695 L517 633 L173 633 L380 332 L169 36 L524 36 L524 -26 L83 -26 L83 24 L300 331 L83 648 L83 695 L517 695 Z " />
<glyph glyph-name="product" unicode="&#x220f;" horiz-adv-x="637" d="M491 -26 L421 -26 L421 634 L216 634 L216 -26 L146 -26 L146 634 L30 634 L30 695 L607 695 L607 634 L491 634 L491 -26 Z " />
<glyph glyph-name="currency" unicode="&#xa4;" horiz-adv-x="910" d="M684 314 Q684 363 665.5 405.5 Q647 448 615 480 Q583 512 540 530.5 Q497 549 449 549 Q400 549 357 530.5 Q314 512 282.5 480 Q251 448 232.5 405.5 Q214 363 214 314 Q214 265 232.5 222.5 Q251 180 282.5 148 Q314 116 357 97.5 Q400 79 449 79 Q497 79 540 97.5 Q583 116 615 148 Q647 180 665.5 222.5 Q684 265 684 314 Z M802 577 L689 477 Q712 442 725 401 Q738 360 738 314 Q738 265 723 221.5 Q708 178 680 141 L801 33 L765 -8 L644 101 Q606 67 555 45.5 Q504 24 449 24 Q395 24 346.5 43 Q298 62 261 94 L144 -8 L108 33 L223 134 Q194 171 176.5 216.5 Q159 262 159 314 Q159 361 173 403.5 Q187 446 212 482 L107 577 L145 618 L249 524 Q287 561 338.5 582.5 Q390 604 449 604 Q510 604 562 580 Q614 556 654 517 L765 618 L802 577 Z " />
<glyph glyph-name="uni2109" unicode="&#x2109;" horiz-adv-x="800" d="M313 -26 L313 695 L741 695 L741 633 L383 633 L383 357 L720 357 L720 295 L383 295 L383 -26 L313 -26 Z M249 622 Q249 584 223 558 Q197 532 154 532 Q111 532 85 558 Q59 584 59 622 Q59 660 85 686 Q111 712 154 712 Q197 712 223 686 Q249 660 249 622 Z M105 622 Q105 599 118 584.5 Q131 570 154 570 Q177 570 190 584.5 Q203 599 203 622 Q203 645 190 659.5 Q177 674 154 674 Q131 674 118 659.5 Q105 645 105 622 Z " />
<glyph glyph-name="perthousand" unicode="&#x2030;" horiz-adv-x="1231" d="M187 -25 L618 695 L681 695 L251 -25 L187 -25 Z M644 343 Q717 343 758 299.5 Q799 256 799 177 L799 132 Q799 53 758 9.5 Q717 -34 644 -34 Q571 -34 530 9.5 Q489 53 489 132 L489 177 Q489 256 530 299.5 Q571 343 644 343 Z M644 17 Q688 17 714.5 44 Q741 71 741 134 L741 175 Q741 238 714.5 265 Q688 292 644 292 Q600 292 573.5 265 Q547 238 547 175 L547 134 Q547 71 573.5 44 Q600 17 644 17 Z M225 703 Q298 703 339 659.5 Q380 616 380 537 L380 492 Q380 413 339 369.5 Q298 326 225 326 Q152 326 111 369.5 Q70 413 70 492 L70 537 Q70 616 111 659.5 Q152 703 225 703 Z M225 377 Q269 377 295.5 404 Q322 431 322 494 L322 535 Q322 598 295.5 625 Q269 652 225 652 Q181 652 154.5 625 Q128 598 128 535 L128 494 Q128 431 154.5 404 Q181 377 225 377 Z M1006 343 Q1079 343 1120 299.5 Q1161 256 1161 177 L1161 132 Q1161 53 1120 9.5 Q1079 -34 1006 -34 Q933 -34 892 9.5 Q851 53 851 132 L851 177 Q851 256 892 299.5 Q933 343 1006 343 Z M1006 17 Q1050 17 1076.5 44 Q1103 71 1103 134 L1103 175 Q1103 238 1076.5 265 Q1050 292 1006 292 Q962 292 935.5 265 Q909 238 909 175 L909 134 Q909 71 935.5 44 Q962 17 1006 17 Z " />
<glyph glyph-name="uni25C1" unicode="&#x25c1;" horiz-adv-x="910" d="M732 -27 L732 629 L209 300 L732 -27 Z M764 -88 L146 300 L764 690 L764 -88 Z " />
<glyph glyph-name="uni25C0" unicode="&#x25c0;" horiz-adv-x="910" d="M764 -88 L146 300 L764 690 L764 -88 Z " />
<glyph glyph-name="uni25B7" unicode="&#x25b7;" horiz-adv-x="910" d="M701 300 L178 629 L178 -27 L701 300 Z M764 300 L146 -88 L146 690 L764 300 Z " />
<glyph glyph-name="uni25B6" unicode="&#x25b6;" horiz-adv-x="910" d="M764 300 L146 -88 L146 690 L764 300 Z " />
<glyph glyph-name="uni2664" unicode="&#x2664;" horiz-adv-x="910" d="M738 205 Q738 230 725 263.5 Q712 297 690.5 335.5 Q669 374 640.5 416 Q612 458 580.5 499.5 Q549 541 516.5 581.5 Q484 622 455 657 Q426 622 393.5 581.5 Q361 541 329.5 499.5 Q298 458 269.5 416 Q241 374 219.5 335.5 Q198 297 185 263.5 Q172 230 172 205 Q172 187 177 167 Q182 147 193.5 129.5 Q205 112 223 101 Q241 90 267 90 Q289 90 309 98.5 Q329 107 346 117.5 Q363 128 376.5 136.5 Q390 145 399 145 Q419 145 425 134 Q431 123 429 98 Q427 65 418.5 27.5 Q410 -10 396 -55 Q392 -73 415 -74 Q424 -75 434 -75.5 Q444 -76 455 -76 Q466 -76 476 -75.5 Q486 -75 495 -74 Q518 -73 514 -55 Q500 -10 491.5 27.5 Q483 65 481 98 Q479 123 485 134 Q491 145 511 145 Q520 145 533.5 136.5 Q547 128 564 117.5 Q581 107 601 98.5 Q621 90 643 90 Q669 90 687 101 Q705 112 716.5 129.5 Q728 147 733 167 Q738 187 738 205 Z M782 201 Q782 168 772 140.5 Q762 113 744 93 Q726 73 700 61.5 Q674 50 643 50 Q614 50 586 62.5 Q558 75 520 97 Q521 78 525.5 53.5 Q530 29 537 3.5 Q544 -22 553 -47 Q562 -72 572 -91 Q581 -110 558 -113 Q538 -115 509.5 -116.5 Q481 -118 455 -118 Q426 -118 399.5 -116.5 Q373 -115 352 -113 Q329 -110 338 -91 Q348 -70 356.5 -45.5 Q365 -21 372 4 Q379 29 383.5 53 Q388 77 390 97 Q352 75 324 62.5 Q296 50 267 50 Q235 50 209.5 61.5 Q184 73 166 93 Q148 113 138 140.5 Q128 168 128 201 Q128 245 157.5 305 Q187 365 234.5 433.5 Q282 502 340 576 Q398 650 455 721 Q512 650 570 576 Q628 502 675.5 433.5 Q723 365 752.5 305 Q782 245 782 201 Z " />
<glyph glyph-name="spade" unicode="&#x2660;" horiz-adv-x="910" d="M782 201 Q782 168 772 140.5 Q762 113 744 93 Q726 73 700 61.5 Q674 50 643 50 Q614 50 586 62.5 Q558 75 520 97 Q521 78 525.5 53.5 Q530 29 537 3.5 Q544 -22 553 -47 Q562 -72 572 -91 Q581 -110 558 -113 Q538 -115 509.5 -116.5 Q481 -118 455 -118 Q426 -118 399.5 -116.5 Q373 -115 352 -113 Q329 -110 338 -91 Q348 -70 356.5 -45.5 Q365 -21 372 4 Q379 29 383.5 53 Q388 77 390 97 Q352 75 324 62.5 Q296 50 267 50 Q235 50 209.5 61.5 Q184 73 166 93 Q148 113 138 140.5 Q128 168 128 201 Q128 245 157.5 305 Q187 365 234.5 433.5 Q282 502 340 576 Q398 650 455 721 Q512 650 570 576 Q628 502 675.5 433.5 Q723 365 752.5 305 Q782 245 782 201 Z " />
<glyph glyph-name="uni2661" unicode="&#x2661;" horiz-adv-x="910" d="M760 470 Q760 504 750.5 533.5 Q741 563 722.5 585 Q704 607 675 619 Q646 631 607 631 Q583 631 564.5 619 Q546 607 532 588.5 Q518 570 508.5 548 Q499 526 493 506 Q488 487 480 470.5 Q472 454 455 454 Q438 454 430 470.5 Q422 487 417 506 Q411 526 401 548 Q391 570 377 588.5 Q363 607 344.5 619 Q326 631 303 631 Q264 631 235 619 Q206 607 187.5 585 Q169 563 159.5 533.5 Q150 504 150 470 Q150 411 179.5 343.5 Q209 276 254 208.5 Q299 141 353 78 Q407 15 455 -35 Q503 15 557 78 Q611 141 656 208.5 Q701 276 730.5 343.5 Q760 411 760 470 Z M805 477 Q805 405 770.5 326.5 Q736 248 684 172 Q632 96 570.5 27 Q509 -42 455 -94 Q401 -42 339.5 27 Q278 96 226 172 Q174 248 139.5 326.5 Q105 405 105 477 Q105 519 119 555 Q133 591 157 617 Q181 643 213 658 Q245 673 282 673 Q346 673 389.5 631 Q433 589 455 493 Q477 589 520.5 631 Q564 673 628 673 Q665 673 697 658 Q729 643 753 617 Q777 591 791 555 Q805 519 805 477 Z " />
<glyph glyph-name="heart" unicode="&#x2665;" horiz-adv-x="910" d="M805 477 Q805 405 770.5 326.5 Q736 248 684 172 Q632 96 570.5 27 Q509 -42 455 -94 Q401 -42 339.5 27 Q278 96 226 172 Q174 248 139.5 326.5 Q105 405 105 477 Q105 519 119 555 Q133 591 157 617 Q181 643 213 658 Q245 673 282 673 Q346 673 389.5 631 Q433 589 455 493 Q477 589 520.5 631 Q564 673 628 673 Q665 673 697 658 Q729 643 753 617 Q777 591 791 555 Q805 519 805 477 Z " />
<glyph glyph-name="uni2667" unicode="&#x2667;" horiz-adv-x="910" d="M809 212 Q809 237 800.5 262 Q792 287 776.5 307 Q761 327 738.5 339.5 Q716 352 688 352 Q662 352 640.5 344 Q619 336 600.5 326 Q582 316 566.5 308 Q551 300 537 300 Q512 300 498.5 315.5 Q485 331 485 355 Q485 378 501.5 394 Q518 410 538.5 429.5 Q559 449 575.5 477 Q592 505 592 552 Q592 581 580.5 604 Q569 627 550 642.5 Q531 658 506 666 Q481 674 455 674 Q429 674 404.5 666 Q380 658 361 642.5 Q342 627 330 604 Q318 581 318 552 Q318 505 334.5 477 Q351 449 371.5 429.5 Q392 410 408.5 394 Q425 378 425 355 Q425 331 411.5 315.5 Q398 300 373 300 Q359 300 343.5 308 Q328 316 309.5 326 Q291 336 269.5 344 Q248 352 222 352 Q194 352 171.5 339.5 Q149 327 133.5 307 Q118 287 109.5 262 Q101 237 101 212 Q101 185 109.5 159 Q118 133 134 113 Q150 93 173.5 81 Q197 69 227 69 Q265 69 292 83.5 Q319 98 339 116 Q359 134 375 148.5 Q391 163 408 163 Q419 163 422 157 Q425 151 425 140 Q425 119 420 99 Q415 79 409.5 55 Q404 31 399 2 Q394 -27 394 -65 Q394 -77 407 -78 Q429 -81 455 -81 Q480 -81 503 -78 Q516 -77 516 -65 Q516 -27 511 2 Q506 31 500.5 55 Q495 79 490 99 Q485 119 485 140 Q485 151 488 157 Q491 163 502 163 Q518 163 534 148.5 Q550 134 570.5 116 Q591 98 618 83.5 Q645 69 683 69 Q713 69 736.5 81 Q760 93 776 113 Q792 133 800.5 159 Q809 185 809 212 Z M854 211 Q854 175 842 141 Q830 107 807.5 81.5 Q785 56 754 40.5 Q723 25 684 25 Q658 25 634 33 Q610 41 589 53.5 Q568 66 551.5 80.5 Q535 95 524 107 Q531 90 538 66.5 Q545 43 550.5 16 Q556 -11 559.5 -40 Q563 -69 563 -96 Q563 -103 557.5 -107 Q552 -111 545 -112 Q533 -113 525 -113.5 Q517 -114 509 -114.5 Q501 -115 488.5 -115 Q476 -115 455 -115 Q432 -115 411 -114.5 Q390 -114 365 -112 Q358 -111 352.5 -107 Q347 -103 347 -96 Q347 -69 350 -40 Q353 -11 358.5 16 Q364 43 371 66.5 Q378 90 386 107 Q375 95 358.5 80.5 Q342 66 321 53.5 Q300 41 276 33 Q252 25 226 25 Q187 25 156 40.5 Q125 56 102.5 81.5 Q80 107 68 141 Q56 175 56 211 Q56 246 68.5 278.5 Q81 311 102.5 335.5 Q124 360 154.5 375 Q185 390 221 390 Q254 390 284 378.5 Q314 367 343 353 Q351 349 360 350 Q369 351 372 356 Q377 364 373 372 Q369 380 364 385 Q340 406 323 424.5 Q306 443 295 462.5 Q284 482 279 503.5 Q274 525 274 552 Q274 589 289 619 Q304 649 329 670 Q354 691 386.5 702.5 Q419 714 455 714 Q491 714 523.5 702.5 Q556 691 581 670 Q606 649 621 619 Q636 589 636 552 Q636 525 631 503.5 Q626 482 615 462.5 Q604 443 587 424.5 Q570 406 546 385 Q541 380 537 372 Q533 364 538 356 Q541 351 550 350 Q559 349 567 353 Q596 367 626 378.5 Q656 390 689 390 Q725 390 755.5 375 Q786 360 807.5 335.5 Q829 311 841.5 278.5 Q854 246 854 211 Z " />
<glyph glyph-name="club" unicode="&#x2663;" horiz-adv-x="910" d="M854 211 Q854 175 842 141 Q830 107 807.5 81.5 Q785 56 754 40.5 Q723 25 684 25 Q658 25 634 33 Q610 41 589 53.5 Q568 66 551.5 80.5 Q535 95 524 107 Q531 90 538 66.5 Q545 43 550.5 16 Q556 -11 559.5 -40 Q563 -69 563 -96 Q563 -103 557.5 -107 Q552 -111 545 -112 Q533 -113 525 -113.5 Q517 -114 509 -114.5 Q501 -115 488.5 -115 Q476 -115 455 -115 Q432 -115 411 -114.5 Q390 -114 365 -112 Q358 -111 352.5 -107 Q347 -103 347 -96 Q347 -69 350 -40 Q353 -11 358.5 16 Q364 43 371 66.5 Q378 90 386 107 Q375 95 358.5 80.5 Q342 66 321 53.5 Q300 41 276 33 Q252 25 226 25 Q187 25 156 40.5 Q125 56 102.5 81.5 Q80 107 68 141 Q56 175 56 211 Q56 246 68.5 278.5 Q81 311 102.5 335.5 Q124 360 154.5 375 Q185 390 221 390 Q254 390 284 378.5 Q314 367 343 353 Q351 349 360 350 Q369 351 372 356 Q377 364 373 372 Q369 380 364 385 Q340 406 323 424.5 Q306 443 295 462.5 Q284 482 279 503.5 Q274 525 274 552 Q274 589 289 619 Q304 649 329 670 Q354 691 386.5 702.5 Q419 714 455 714 Q491 714 523.5 702.5 Q556 691 581 670 Q606 649 621 619 Q636 589 636 552 Q636 525 631 503.5 Q626 482 615 462.5 Q604 443 587 424.5 Q570 406 546 385 Q541 380 537 372 Q533 364 538 356 Q541 351 550 350 Q559 349 567 353 Q596 367 626 378.5 Q656 390 689 390 Q725 390 755.5 375 Q786 360 807.5 335.5 Q829 311 841.5 278.5 Q854 246 854 211 Z " />
<glyph glyph-name="&amp;#x2299;" unicode="&#x2299;" horiz-adv-x="910" d="M610 299 Q610 267 598 238.5 Q586 210 565 189 Q544 168 515.5 156 Q487 144 455 144 Q423 144 395 156 Q367 168 346 189 Q325 210 312.5 238.5 Q300 267 300 299 Q300 331 312.5 359.5 Q325 388 346 409 Q367 430 395 442 Q423 454 455 454 Q487 454 515.5 442 Q544 430 565 409 Q586 388 598 359.5 Q610 331 610 299 Z M806 299 Q806 371 778 435 Q750 499 702.5 546.5 Q655 594 591 622 Q527 650 455 650 Q383 650 319.5 622 Q256 594 208 546.5 Q160 499 132.5 435 Q105 371 105 299 Q105 227 132.5 163.5 Q160 100 208 52 Q256 4 319.5 -23.5 Q383 -51 455 -51 Q527 -51 591 -23.5 Q655 4 702.5 52 Q750 100 778 163.5 Q806 227 806 299 Z M845 299 Q845 218 814.5 147 Q784 76 731 23 Q678 -30 607 -60.5 Q536 -91 455 -91 Q375 -91 304 -60.5 Q233 -30 180 23 Q127 76 96 147 Q65 218 65 299 Q65 380 96 451 Q127 522 180 575 Q233 628 304 658.5 Q375 689 455 689 Q536 689 607 658.5 Q678 628 731 575 Q784 522 814.5 451 Q845 380 845 299 Z " />
<glyph glyph-name="&amp;#x25c9;" unicode="&#x25c9;" horiz-adv-x="910" d="M610 299 Q610 267 598 238.5 Q586 210 565 189 Q544 168 515.5 156 Q487 144 455 144 Q423 144 395 156 Q367 168 346 189 Q325 210 312.5 238.5 Q300 267 300 299 Q300 331 312.5 359.5 Q325 388 346 409 Q367 430 395 442 Q423 454 455 454 Q487 454 515.5 442 Q544 430 565 409 Q586 388 598 359.5 Q610 331 610 299 Z M806 299 Q806 371 778 435 Q750 499 702.5 546.5 Q655 594 591 622 Q527 650 455 650 Q383 650 319.5 622 Q256 594 208 546.5 Q160 499 132.5 435 Q105 371 105 299 Q105 227 132.5 163.5 Q160 100 208 52 Q256 4 319.5 -23.5 Q383 -51 455 -51 Q527 -51 591 -23.5 Q655 4 702.5 52 Q750 100 778 163.5 Q806 227 806 299 Z M845 299 Q845 218 814.5 147 Q784 76 731 23 Q678 -30 607 -60.5 Q536 -91 455 -91 Q375 -91 304 -60.5 Q233 -30 180 23 Q127 76 96 147 Q65 218 65 299 Q65 380 96 451 Q127 522 180 575 Q233 628 304 658.5 Q375 689 455 689 Q536 689 607 658.5 Q678 628 731 575 Q784 522 814.5 451 Q845 380 845 299 Z " />
<glyph glyph-name="uni25C8" unicode="&#x25c8;" horiz-adv-x="910" d="M723 297 L455 29 L186 297 L455 565 L723 297 Z M839 298 L455 681 L70 297 L454 -87 L839 298 Z M889 298 L454 -136 L21 297 L455 732 L889 298 Z " />
<glyph glyph-name="uni25A3" unicode="&#x25a3;" horiz-adv-x="910" d="M685 67 L225 67 L225 527 L685 527 L685 67 Z M789 -36 L789 631 L121 631 L121 -36 L789 -36 Z M827 -74 L83 -74 L83 669 L827 669 L827 -74 Z " />
<glyph glyph-name="uni25D0" unicode="&#x25d0;" horiz-adv-x="910" d="M806 299 Q806 371 778 435 Q750 499 702.5 546.5 Q655 594 591 622 Q527 650 455 650 L455 -51 Q527 -51 591 -23.5 Q655 4 702.5 52 Q750 100 778 163.5 Q806 227 806 299 Z M845 299 Q845 218 814.5 147 Q784 76 731 23 Q678 -30 607 -60.5 Q536 -91 455 -91 Q375 -91 304 -60.5 Q233 -30 180 23 Q127 76 96 147 Q65 218 65 299 Q65 380 96 451 Q127 522 180 575 Q233 628 304 658.5 Q375 689 455 689 Q536 689 607 658.5 Q678 628 731 575 Q784 522 814.5 451 Q845 380 845 299 Z " />
<glyph glyph-name="uni25D1" unicode="&#x25d1;" horiz-adv-x="910" d="M455 650 Q383 650 319 622 Q255 594 207.5 546.5 Q160 499 132 435 Q104 371 104 299 Q104 227 132 163.5 Q160 100 207.5 52 Q255 4 319 -23.5 Q383 -51 455 -51 L455 650 Z M845 299 Q845 218 814 147 Q783 76 730 23 Q677 -30 606 -60.5 Q535 -91 455 -91 Q374 -91 303 -60.5 Q232 -30 179 23 Q126 76 95.5 147 Q65 218 65 299 Q65 380 95.5 451 Q126 522 179 575 Q232 628 303 658.5 Q374 689 455 689 Q535 689 606 658.5 Q677 628 730 575 Q783 522 814 451 Q845 380 845 299 Z " />
<glyph glyph-name="shade" unicode="&#x2592;" horiz-adv-x="910" d="M199 19 Q199 8 192.5 0.5 Q186 -7 175 -7 Q164 -7 156.5 0.5 Q149 8 149 19 Q149 30 156.5 37 Q164 44 175 44 Q199 44 199 19 Z M293 19 Q293 8 285.5 0.5 Q278 -7 268 -7 Q257 -7 249.5 0.5 Q242 8 242 19 Q242 30 249.5 37 Q257 44 268 44 Q278 44 285.5 37 Q293 30 293 19 Z M199 113 Q199 102 192.5 94.5 Q186 87 175 87 Q164 87 156.5 94.5 Q149 102 149 113 Q149 123 156.5 130 Q164 137 175 137 Q186 137 192.5 130 Q199 123 199 113 Z M293 113 Q293 102 285.5 94.5 Q278 87 268 87 Q257 87 249.5 94.5 Q242 102 242 113 Q242 123 249.5 130 Q257 137 268 137 Q278 137 285.5 130 Q293 123 293 113 Z M387 19 Q387 8 379.5 0.5 Q372 -7 361 -7 Q350 -7 343 0.5 Q336 8 336 19 Q336 44 361 44 Q372 44 379.5 37 Q387 30 387 19 Z M199 206 Q199 195 192.5 187.5 Q186 180 175 180 Q164 180 156.5 187.5 Q149 195 149 206 Q149 217 156.5 224.5 Q164 232 175 232 Q186 232 192.5 224.5 Q199 217 199 206 Z M387 113 Q387 102 379.5 94.5 Q372 87 361 87 Q350 87 343 94.5 Q336 102 336 113 Q336 123 343 130 Q350 137 361 137 Q372 137 379.5 130 Q387 123 387 113 Z M293 206 Q293 195 285.5 187.5 Q278 180 268 180 Q257 180 249.5 187.5 Q242 195 242 206 Q242 217 249.5 224.5 Q257 232 268 232 Q278 232 285.5 224.5 Q293 217 293 206 Z M480 19 Q480 8 473 0.5 Q466 -7 455 -7 Q445 -7 437.5 0.5 Q430 8 430 19 Q430 30 437.5 37 Q445 44 455 44 Q480 44 480 19 Z M199 300 Q199 290 192.5 282.5 Q186 275 175 275 Q164 275 156.5 282.5 Q149 290 149 300 Q149 311 156.5 318 Q164 325 175 325 Q199 325 199 300 Z M480 113 Q480 102 473 94.5 Q466 87 455 87 Q445 87 437.5 94.5 Q430 102 430 113 Q430 123 437.5 130 Q445 137 455 137 Q466 137 473 130 Q480 123 480 113 Z M387 206 Q387 195 379.5 187.5 Q372 180 361 180 Q350 180 343 187.5 Q336 195 336 206 Q336 217 343 224.5 Q350 232 361 232 Q372 232 379.5 224.5 Q387 217 387 206 Z M293 300 Q293 290 285.5 282.5 Q278 275 268 275 Q257 275 249.5 282.5 Q242 290 242 300 Q242 311 249.5 318 Q257 325 268 325 Q278 325 285.5 318 Q293 311 293 300 Z M575 19 Q575 8 567.5 0.5 Q560 -7 549 -7 Q538 -7 530.5 0.5 Q523 8 523 19 Q523 30 530.5 37 Q538 44 549 44 Q560 44 567.5 37 Q575 30 575 19 Z M199 394 Q199 383 192.5 375.5 Q186 368 175 368 Q164 368 156.5 375.5 Q149 383 149 394 Q149 405 156.5 412.5 Q164 420 175 420 Q186 420 192.5 412.5 Q199 405 199 394 Z M575 113 Q575 102 567.5 94.5 Q560 87 549 87 Q538 87 530.5 94.5 Q523 102 523 113 Q523 123 530.5 130 Q538 137 549 137 Q560 137 567.5 130 Q575 123 575 113 Z M480 206 Q480 195 473 187.5 Q466 180 455 180 Q445 180 437.5 187.5 Q430 195 430 206 Q430 217 437.5 224.5 Q445 232 455 232 Q466 232 473 224.5 Q480 217 480 206 Z M387 300 Q387 290 379.5 282.5 Q372 275 361 275 Q350 275 343 282.5 Q336 290 336 300 Q336 325 361 325 Q372 325 379.5 318 Q387 311 387 300 Z M293 394 Q293 383 285.5 375.5 Q278 368 268 368 Q257 368 249.5 375.5 Q242 383 242 394 Q242 405 249.5 412.5 Q257 420 268 420 Q278 420 285.5 412.5 Q293 405 293 394 Z M668 19 Q668 8 661 0.5 Q654 -7 643 -7 Q632 -7 625 0.5 Q618 8 618 19 Q618 44 643 44 Q668 44 668 19 Z M199 487 Q199 477 192.5 470 Q186 463 175 463 Q164 463 156.5 470 Q149 477 149 487 Q149 498 156.5 505.5 Q164 513 175 513 Q186 513 192.5 505.5 Q199 498 199 487 Z M762 19 Q762 8 754.5 0.5 Q747 -7 736 -7 Q725 -7 718 0.5 Q711 8 711 19 Q711 44 736 44 Q747 44 754.5 37 Q762 30 762 19 Z M668 113 Q668 102 661 94.5 Q654 87 643 87 Q632 87 625 94.5 Q618 102 618 113 Q618 123 625 130 Q632 137 643 137 Q654 137 661 130 Q668 123 668 113 Z M575 206 Q575 195 567.5 187.5 Q560 180 549 180 Q538 180 530.5 187.5 Q523 195 523 206 Q523 217 530.5 224.5 Q538 232 549 232 Q560 232 567.5 224.5 Q575 217 575 206 Z M480 300 Q480 290 473 282.5 Q466 275 455 275 Q445 275 437.5 282.5 Q430 290 430 300 Q430 311 437.5 318 Q445 325 455 325 Q480 325 480 300 Z M387 394 Q387 383 379.5 375.5 Q372 368 361 368 Q350 368 343 375.5 Q336 383 336 394 Q336 405 343 412.5 Q350 420 361 420 Q372 420 379.5 412.5 Q387 405 387 394 Z M293 487 Q293 477 285.5 470 Q278 463 268 463 Q257 463 249.5 470 Q242 477 242 487 Q242 498 249.5 505.5 Q257 513 268 513 Q278 513 285.5 505.5 Q293 498 293 487 Z M199 581 Q199 556 175 556 Q164 556 156.5 563 Q149 570 149 581 Q149 592 156.5 599.5 Q164 607 175 607 Q186 607 192.5 599.5 Q199 592 199 581 Z M762 113 Q762 102 754.5 94.5 Q747 87 736 87 Q725 87 718 94.5 Q711 102 711 113 Q711 123 718 130 Q725 137 736 137 Q747 137 754.5 130 Q762 123 762 113 Z M293 581 Q293 570 285.5 563 Q278 556 268 556 Q257 556 249.5 563 Q242 570 242 581 Q242 592 249.5 599.5 Q257 607 268 607 Q278 607 285.5 599.5 Q293 592 293 581 Z M668 206 Q668 195 661 187.5 Q654 180 643 180 Q632 180 625 187.5 Q618 195 618 206 Q618 217 625 224.5 Q632 232 643 232 Q654 232 661 224.5 Q668 217 668 206 Z M575 300 Q575 290 567.5 282.5 Q560 275 549 275 Q538 275 530.5 282.5 Q523 290 523 300 Q523 311 530.5 318 Q538 325 549 325 Q560 325 567.5 318 Q575 311 575 300 Z M480 394 Q480 383 473 375.5 Q466 368 455 368 Q445 368 437.5 375.5 Q430 383 430 394 Q430 405 437.5 412.5 Q445 420 455 420 Q466 420 473 412.5 Q480 405 480 394 Z M387 487 Q387 477 379.5 470 Q372 463 361 463 Q350 463 343 470 Q336 477 336 487 Q336 498 343 505.5 Q350 513 361 513 Q372 513 379.5 505.5 Q387 498 387 487 Z M762 206 Q762 195 754.5 187.5 Q747 180 736 180 Q725 180 718 187.5 Q711 195 711 206 Q711 217 718 224.5 Q725 232 736 232 Q747 232 754.5 224.5 Q762 217 762 206 Z M387 581 Q387 570 379.5 563 Q372 556 361 556 Q336 556 336 581 Q336 592 343 599.5 Q350 607 361 607 Q372 607 379.5 599.5 Q387 592 387 581 Z M668 300 Q668 290 661 282.5 Q654 275 643 275 Q632 275 625 282.5 Q618 290 618 300 Q618 325 643 325 Q668 325 668 300 Z M575 394 Q575 383 567.5 375.5 Q560 368 549 368 Q538 368 530.5 375.5 Q523 383 523 394 Q523 405 530.5 412.5 Q538 420 549 420 Q560 420 567.5 412.5 Q575 405 575 394 Z M480 487 Q480 477 473 470 Q466 463 455 463 Q445 463 437.5 470 Q430 477 430 487 Q430 498 437.5 505.5 Q445 513 455 513 Q466 513 473 505.5 Q480 498 480 487 Z M762 300 Q762 290 754.5 282.5 Q747 275 736 275 Q725 275 718 282.5 Q711 290 711 300 Q711 325 736 325 Q747 325 754.5 318 Q762 311 762 300 Z M480 581 Q480 556 455 556 Q445 556 437.5 563 Q430 570 430 581 Q430 592 437.5 599.5 Q445 607 455 607 Q466 607 473 599.5 Q480 592 480 581 Z M668 394 Q668 383 661 375.5 Q654 368 643 368 Q632 368 625 375.5 Q618 383 618 394 Q618 405 625 412.5 Q632 420 643 420 Q654 420 661 412.5 Q668 405 668 394 Z M575 487 Q575 477 567.5 470 Q560 463 549 463 Q538 463 530.5 470 Q523 477 523 487 Q523 498 530.5 505.5 Q538 513 549 513 Q560 513 567.5 505.5 Q575 498 575 487 Z M762 394 Q762 383 754.5 375.5 Q747 368 736 368 Q725 368 718 375.5 Q711 383 711 394 Q711 405 718 412.5 Q725 420 736 420 Q747 420 754.5 412.5 Q762 405 762 394 Z M575 581 Q575 570 567.5 563 Q560 556 549 556 Q538 556 530.5 563 Q523 570 523 581 Q523 592 530.5 599.5 Q538 607 549 607 Q560 607 567.5 599.5 Q575 592 575 581 Z M668 487 Q668 477 661 470 Q654 463 643 463 Q632 463 625 470 Q618 477 618 487 Q618 498 625 505.5 Q632 513 643 513 Q654 513 661 505.5 Q668 498 668 487 Z M762 487 Q762 477 754.5 470 Q747 463 736 463 Q725 463 718 470 Q711 477 711 487 Q711 498 718 505.5 Q725 513 736 513 Q747 513 754.5 505.5 Q762 498 762 487 Z M668 581 Q668 556 643 556 Q618 556 618 581 Q618 592 625 599.5 Q632 607 643 607 Q654 607 661 599.5 Q668 592 668 581 Z M762 581 Q762 570 754.5 563 Q747 556 736 556 Q711 556 711 581 Q711 592 718 599.5 Q725 607 736 607 Q747 607 754.5 599.5 Q762 592 762 581 Z M794 -41 L794 636 L116 636 L116 -41 L794 -41 Z M827 -74 L83 -74 L83 669 L827 669 L827 -74 Z " />
<glyph glyph-name="uni25A4" unicode="&#x25a4;" horiz-adv-x="910" d="M794 -41 L794 26 L116 26 L116 -41 L794 -41 Z M794 58 L794 126 L116 126 L116 58 L794 58 Z M794 158 L794 230 L116 230 L116 158 L794 158 Z M794 262 L794 333 L116 333 L116 262 L794 262 Z M794 365 L794 431 L116 431 L116 365 L794 365 Z M794 463 L794 536 L116 536 L116 463 L794 463 Z M794 568 L794 636 L116 636 L116 568 L794 568 Z M827 -74 L83 -74 L83 669 L827 669 L827 -74 Z " />
<glyph glyph-name="uni25A5" unicode="&#x25a5;" horiz-adv-x="910" d="M184 -41 L184 636 L116 636 L116 -41 L184 -41 Z M289 -41 L289 636 L216 636 L216 -41 L289 -41 Z M387 -41 L387 636 L321 636 L321 -41 L387 -41 Z M490 -41 L490 636 L419 636 L419 -41 L490 -41 Z M594 -41 L594 636 L522 636 L522 -41 L594 -41 Z M694 -41 L694 636 L626 636 L626 -41 L694 -41 Z M794 -41 L794 636 L726 636 L726 -41 L794 -41 Z M827 -74 L83 -74 L83 669 L827 669 L827 -74 Z " />
<glyph glyph-name="uni25A8" unicode="&#x25a8;" horiz-adv-x="910" d="M769 636 L652 636 L116 101 L116 -17 L769 636 Z M604 636 L486 636 L116 267 L116 149 L604 636 Z M438 636 L319 636 L116 434 L116 315 L438 636 Z M271 636 L116 636 L116 482 L271 636 Z M794 -41 L794 115 L638 -41 L794 -41 Z M794 163 L794 281 L472 -41 L590 -41 L794 163 Z M794 329 L794 447 L306 -41 L424 -41 L794 329 Z M794 495 L794 613 L140 -41 L258 -41 L794 495 Z M827 -74 L83 -74 L83 669 L827 669 L827 -74 Z " />
<glyph glyph-name="uni25A7" unicode="&#x25a7;" horiz-adv-x="910" d="M272 -41 L116 115 L116 -41 L272 -41 Z M438 -41 L116 281 L116 163 L320 -41 L438 -41 Z M604 -41 L116 447 L116 329 L486 -41 L604 -41 Z M770 -41 L116 613 L116 495 L652 -41 L770 -41 Z M794 -17 L794 101 L258 636 L141 636 L794 -17 Z M794 149 L794 267 L424 636 L306 636 L794 149 Z M794 315 L794 434 L591 636 L472 636 L794 315 Z M794 482 L794 636 L639 636 L794 482 Z M827 -74 L83 -74 L83 669 L827 669 L827 -74 Z " />
<glyph glyph-name="uni25A6" unicode="&#x25a6;" horiz-adv-x="910" d="M187 -41 L187 30 L116 30 L116 -41 L187 -41 Z M187 60 L187 131 L116 131 L116 60 L187 60 Z M288 -41 L288 30 L217 30 L217 -41 L288 -41 Z M288 60 L288 131 L217 131 L217 60 L288 60 Z M187 161 L187 232 L116 232 L116 161 L187 161 Z M389 -41 L389 30 L318 30 L318 -41 L389 -41 Z M389 60 L389 131 L318 131 L318 60 L389 60 Z M288 161 L288 232 L217 232 L217 161 L288 161 Z M187 262 L187 333 L116 333 L116 262 L187 262 Z M490 -41 L490 30 L419 30 L419 -41 L490 -41 Z M490 60 L490 131 L419 131 L419 60 L490 60 Z M389 161 L389 232 L318 232 L318 161 L389 161 Z M288 262 L288 333 L217 333 L217 262 L288 262 Z M187 363 L187 434 L116 434 L116 363 L187 363 Z M591 -41 L591 30 L520 30 L520 -41 L591 -41 Z M591 60 L591 131 L520 131 L520 60 L591 60 Z M490 161 L490 232 L419 232 L419 161 L490 161 Z M389 262 L389 333 L318 333 L318 262 L389 262 Z M288 363 L288 434 L217 434 L217 363 L288 363 Z M187 464 L187 535 L116 535 L116 464 L187 464 Z M692 -41 L692 30 L621 30 L621 -41 L692 -41 Z M692 60 L692 131 L621 131 L621 60 L692 60 Z M591 161 L591 232 L520 232 L520 161 L591 161 Z M490 262 L490 333 L419 333 L419 262 L490 262 Z M389 363 L389 434 L318 434 L318 363 L389 363 Z M288 464 L288 535 L217 535 L217 464 L288 464 Z M187 565 L187 636 L116 636 L116 565 L187 565 Z M794 -41 L794 30 L723 30 L723 -41 L794 -41 Z M692 161 L692 232 L621 232 L621 161 L692 161 Z M591 262 L591 333 L520 333 L520 262 L591 262 Z M490 363 L490 434 L419 434 L419 363 L490 363 Z M389 464 L389 535 L318 535 L318 464 L389 464 Z M288 565 L288 636 L217 636 L217 565 L288 565 Z M794 60 L794 131 L723 131 L723 60 L794 60 Z M692 262 L692 333 L621 333 L621 262 L692 262 Z M591 363 L591 434 L520 434 L520 363 L591 363 Z M490 464 L490 535 L419 535 L419 464 L490 464 Z M389 565 L389 636 L318 636 L318 565 L389 565 Z M794 161 L794 232 L723 232 L723 161 L794 161 Z M692 363 L692 434 L621 434 L621 363 L692 363 Z M591 464 L591 535 L520 535 L520 464 L591 464 Z M490 565 L490 636 L419 636 L419 565 L490 565 Z M794 262 L794 333 L723 333 L723 262 L794 262 Z M692 464 L692 535 L621 535 L621 464 L692 464 Z M591 565 L591 636 L520 636 L520 565 L591 565 Z M794 363 L794 434 L723 434 L723 363 L794 363 Z M692 565 L692 636 L621 636 L621 565 L692 565 Z M794 464 L794 535 L723 535 L723 464 L794 464 Z M794 565 L794 636 L723 636 L723 565 L794 565 Z M827 -74 L83 -74 L83 669 L827 669 L827 -74 Z " />
<glyph glyph-name="uni25A9" unicode="&#x25a9;" horiz-adv-x="910" d="M272 -41 L204 27 L137 -41 L272 -41 Z M180 51 L116 115 L116 -13 L180 51 Z M354 43 L287 110 L228 51 L296 -17 L354 43 Z M263 134 L199 198 L140 139 L204 75 L263 134 Z M438 -41 L379 18 L319 -41 L438 -41 Z M175 222 L116 281 L116 164 L175 222 Z M521 42 L462 101 L403 42 L462 -17 L521 42 Z M438 125 L371 193 L311 134 L378 66 L438 125 Z M346 217 L282 281 L223 222 L287 158 L346 217 Z M258 305 L199 364 L140 305 L199 246 L258 305 Z M175 388 L116 447 L116 329 L175 388 Z M604 -41 L545 18 L486 -41 L604 -41 Z M687 42 L628 101 L569 42 L628 -17 L687 42 Z M604 125 L545 184 L486 125 L545 66 L604 125 Z M429 299 L365 364 L306 305 L371 241 L429 299 Z M341 388 L282 447 L223 388 L282 329 L341 388 Z M258 471 L199 530 L140 471 L199 412 L258 471 Z M521 208 L454 276 L395 216 L461 150 L521 208 Z M175 554 L116 613 L116 495 L175 554 Z M770 -41 L711 18 L652 -41 L770 -41 Z M794 -17 L794 101 L735 42 L794 -17 Z M258 636 L141 636 L199 578 L258 636 Z M424 470 L364 529 L306 471 L366 411 L424 470 Z M770 125 L711 184 L652 125 L711 66 L770 125 Z M687 208 L627 267 L569 209 L628 149 L687 208 Z M512 382 L448 446 L390 387 L454 323 L512 382 Z M341 553 L281 613 L223 554 L282 495 L341 553 Z M604 291 L536 358 L478 299 L544 233 L604 291 Z M794 149 L794 267 L735 208 L794 149 Z M424 636 L306 636 L365 577 L424 636 Z M770 291 L710 350 L651 291 L711 232 L770 291 Z M686 375 L620 441 L561 382 L627 315 L686 375 Z M596 465 L531 528 L472 470 L537 406 L596 465 Z M508 553 L448 612 L389 553 L448 494 L508 553 Z M794 314 L794 434 L734 374 L794 314 Z M592 636 L472 636 L532 576 L592 636 Z M679 548 L615 612 L555 553 L620 488 L679 548 Z M770 458 L704 525 L643 465 L710 398 L770 458 Z M768 636 L639 636 L703 572 L768 636 Z M794 482 L794 615 L727 548 L794 482 Z M827 -74 L83 -74 L83 669 L827 669 L827 -74 Z " />
<glyph glyph-name="uni2668" unicode="&#x2668;" horiz-adv-x="910" d="M853 101 Q853 55 821 16.5 Q789 -22 735 -49.5 Q681 -77 610 -92.5 Q539 -108 460 -108 Q381 -108 308 -94.5 Q235 -81 179 -57 Q123 -33 89.5 0.5 Q56 34 56 74 Q56 114 81 144.5 Q106 175 139.5 196.5 Q173 218 208 231 Q243 244 264 250 Q275 254 277 245.5 Q279 237 266 232 Q262 230 240 219.5 Q218 209 193.5 191 Q169 173 149 148.5 Q129 124 129 94 Q129 68 158.5 49 Q188 30 235 17.5 Q282 5 341.5 -1.5 Q401 -8 461 -8 Q521 -8 580 0.5 Q639 9 686 25 Q733 41 762.5 63.5 Q792 86 792 115 Q792 136 779 154 Q766 172 748 186.5 Q730 201 710 211 Q690 221 677 225 Q665 229 668 236 Q671 243 681 241 Q696 239 724.5 229.5 Q753 220 781.5 202.5 Q810 185 831.5 159.5 Q853 134 853 101 Z M383 261 Q386 231 369.5 187.5 Q353 144 328 96 Q315 72 310 57.5 Q305 43 304 34 Q303 26 297.5 25.5 Q292 25 287 34 Q281 47 278 73 Q275 99 286 131 Q291 145 297 170 Q303 195 306 225 Q309 255 306.5 286.5 Q304 318 293 345 Q279 379 275 412 Q271 445 275 476.5 Q279 508 289.5 537.5 Q300 567 315 595 Q323 609 329 625 Q335 641 338 655 Q340 663 345 662.5 Q350 662 352 656 Q357 641 358 603.5 Q359 566 342 506 Q336 484 340 457 Q344 430 352.5 399 Q361 368 370 333 Q379 298 383 261 Z M525 286 Q529 264 522.5 237 Q516 210 505 183.5 Q494 157 482 134 Q470 111 463 97 Q448 69 441 51.5 Q434 34 433 24 Q432 15 425.5 15.5 Q419 16 416 23 Q409 39 408 71.5 Q407 104 424 146 Q439 181 442 216 Q445 251 442 281 Q439 311 433 333 Q427 355 423 363 Q403 409 400 445 Q397 481 403.5 510 Q410 539 422 562.5 Q434 586 444 607 Q458 636 462.5 660 Q467 684 467 700 Q467 711 472.5 710.5 Q478 710 482 702 Q487 691 491.5 673.5 Q496 656 497.5 634 Q499 612 496.5 587.5 Q494 563 485 538 Q472 502 474 472.5 Q476 443 484.5 414.5 Q493 386 505 355.5 Q517 325 525 286 Z M657 298 Q660 260 652 231 Q644 202 632 178.5 Q620 155 606.5 136 Q593 117 585 101 Q572 76 565.5 56.5 Q559 37 557 28 Q555 23 550.5 21 Q546 19 543 28 Q540 35 538.5 47 Q537 59 537 73 Q537 87 539.5 101 Q542 115 547 127 Q556 149 565.5 177 Q575 205 580 234 Q585 263 584.5 292.5 Q584 322 573 348 Q556 386 550 417.5 Q544 449 545.5 476.5 Q547 504 554.5 529.5 Q562 555 573 581 Q580 598 583 617.5 Q586 637 586 650 Q586 659 590.5 661 Q595 663 600 652 Q608 636 614 601 Q620 566 612 509 Q607 474 612 451 Q617 428 625.5 406.5 Q634 385 643.5 360 Q653 335 657 298 Z " />
<glyph glyph-name="uni260F" unicode="&#x260f;" horiz-adv-x="910" d="M602 208 Q602 238 590.5 265 Q579 292 559 312 Q539 332 512 343.5 Q485 355 455 355 Q425 355 398 343.5 Q371 332 351 312 Q331 292 319.5 265 Q308 238 308 208 Q308 178 319.5 151 Q331 124 351 104.5 Q371 85 398 73.5 Q425 62 455 62 Q485 62 512 73.5 Q539 85 559 104.5 Q579 124 590.5 151 Q602 178 602 208 Z M625 208 Q625 173 611.5 142 Q598 111 575 88 Q552 65 521 51.5 Q490 38 455 38 Q420 38 389 51.5 Q358 65 335 88 Q312 111 298.5 142 Q285 173 285 208 Q285 243 298.5 274 Q312 305 335 328 Q358 351 389 364.5 Q420 378 455 378 Q490 378 521 364.5 Q552 351 575 328 Q598 305 611.5 274 Q625 243 625 208 Z M788 0 Q791 0 793 8 Q795 16 794 27 Q793 38 789.5 48.5 Q786 59 777 64 Q777 76 775 95 Q773 114 768 134 Q763 154 754 172.5 Q745 191 732 204 Q709 226 692 242 Q675 258 663 272 Q651 286 642 300.5 Q633 315 626 333 Q607 384 602 428 Q597 472 600 504 L553 504 L553 420 L357 420 L357 504 L310 504 Q313 472 308 428 Q303 384 284 333 Q277 315 268 300.5 Q259 286 247 272 Q235 258 218 242 Q201 226 178 204 Q164 191 155.5 172.5 Q147 154 142 134 Q137 114 135 95 Q133 76 133 64 Q124 59 120.5 48.5 Q117 38 116 27 Q115 16 117 8 Q119 0 122 0 L788 0 Z M852 338 Q858 339 861.5 356.5 Q865 374 861 399 Q857 424 843 452.5 Q829 481 801 504 Q779 522 737 537 Q695 552 645.5 563 Q596 574 545 580 Q494 586 455 586 Q403 586 351 580 Q299 574 252.5 563 Q206 552 168.5 537 Q131 522 109 504 Q80 481 66.5 452.5 Q53 424 49 399 Q45 374 48.5 356.5 Q52 339 58 338 Q77 336 100 339.5 Q123 343 145 349 Q167 355 186.5 363 Q206 371 220 379 Q226 383 223.5 394 Q221 405 217 419.5 Q213 434 210.5 450 Q208 466 214 480 Q222 501 250.5 513 Q279 525 346 525 Q357 525 368 523.5 Q379 522 392 520 Q409 516 423.5 514 Q438 512 455 512 Q472 512 486.5 514 Q501 516 518 520 Q531 522 542 523.5 Q553 525 564 525 Q597 525 620 522 Q643 519 658 513 Q673 507 682 498.5 Q691 490 696 480 Q702 466 699.5 450 Q697 434 693 419.5 Q689 405 686.5 394 Q684 383 690 379 Q703 371 723 362.5 Q743 354 765.5 348 Q788 342 810.5 339 Q833 336 852 338 Z M533 439 L533 504 Q519 500 498 497 Q477 494 455 494 Q433 494 412 497 Q391 500 377 504 L377 439 L533 439 Z M878 328 Q872 318 858 315.5 Q844 313 825.5 314.5 Q807 316 786.5 321 Q766 326 747 331 Q716 340 691 353.5 Q666 367 662 385 Q660 392 662.5 403 Q665 414 669 425 Q673 436 676 446.5 Q679 457 678 464 Q674 484 658 491 Q642 498 623 501 Q620 478 620 449.5 Q620 421 634 374 Q641 348 650.5 329.5 Q660 311 671.5 296 Q683 281 696.5 269 Q710 257 726 244 Q751 223 765 199.5 Q779 176 786 153 Q793 130 794.5 110 Q796 90 796 75 Q804 72 808.5 63 Q813 54 815.5 42 Q818 30 818 17.5 Q818 5 817 -5 Q816 -14 807 -17.5 Q798 -21 783 -21 L127 -21 Q112 -21 103 -17.5 Q94 -14 93 -5 Q92 5 92 17.5 Q92 30 94.5 42 Q97 54 101.5 63 Q106 72 114 75 Q114 90 115.5 110 Q117 130 124 153 Q131 176 145 199.5 Q159 223 184 244 Q200 257 213.5 269 Q227 281 238.5 296 Q250 311 259.5 329.5 Q269 348 276 374 Q289 421 289.5 449.5 Q290 478 287 501 Q268 498 252 491 Q236 484 232 464 Q230 457 233 446.5 Q236 436 240 425 Q244 414 247 403 Q250 392 248 385 Q244 367 219 353.5 Q194 340 163 331 Q144 326 123.5 321 Q103 316 84.5 314.5 Q66 313 52 315.5 Q38 318 32 328 Q26 338 24.5 357 Q23 376 26 398.5 Q29 421 37.5 443.5 Q46 466 60 484 Q84 515 126.5 538 Q169 561 222 576 Q275 591 335 598 Q395 605 455 605 Q515 605 575 598 Q635 591 688 576 Q741 561 783.5 538 Q826 515 850 484 Q864 466 872.5 443.5 Q881 421 884 398.5 Q887 376 885.5 357 Q884 338 878 328 Z " />
<glyph glyph-name="uni260E" unicode="&#x260e;" horiz-adv-x="910" d="M602 208 Q602 238 590.5 265 Q579 292 559 312 Q539 332 512 343.5 Q485 355 455 355 Q425 355 398 343.5 Q371 332 351 312 Q331 292 319.5 265 Q308 238 308 208 Q308 178 319.5 151 Q331 124 351 104.5 Q371 85 398 73.5 Q425 62 455 62 Q485 62 512 73.5 Q539 85 559 104.5 Q579 124 590.5 151 Q602 178 602 208 Z M533 439 L533 504 Q519 500 498 497 Q477 494 455 494 Q433 494 412 497 Q391 500 377 504 L377 439 L533 439 Z M878 328 Q872 318 858 315.5 Q844 313 825.5 314.5 Q807 316 786.5 321 Q766 326 747 331 Q716 340 691 353.5 Q666 367 662 385 Q660 392 662.5 403 Q665 414 669 425 Q673 436 676 446.5 Q679 457 678 464 Q674 484 658 491 Q642 498 623 501 Q620 478 620 449.5 Q620 421 634 374 Q641 348 650.5 329.5 Q660 311 671.5 296 Q683 281 696.5 269 Q710 257 726 244 Q751 223 765 199.5 Q779 176 786 153 Q793 130 794.5 110 Q796 90 796 75 Q804 72 808.5 63 Q813 54 815.5 42 Q818 30 818 17.5 Q818 5 817 -5 Q816 -14 807 -17.5 Q798 -21 783 -21 L127 -21 Q112 -21 103 -17.5 Q94 -14 93 -5 Q92 5 92 17.5 Q92 30 94.5 42 Q97 54 101.5 63 Q106 72 114 75 Q114 90 115.5 110 Q117 130 124 153 Q131 176 145 199.5 Q159 223 184 244 Q200 257 213.5 269 Q227 281 238.5 296 Q250 311 259.5 329.5 Q269 348 276 374 Q289 421 289.5 449.5 Q290 478 287 501 Q268 498 252 491 Q236 484 232 464 Q230 457 233 446.5 Q236 436 240 425 Q244 414 247 403 Q250 392 248 385 Q244 367 219 353.5 Q194 340 163 331 Q144 326 123.5 321 Q103 316 84.5 314.5 Q66 313 52 315.5 Q38 318 32 328 Q26 338 24.5 357 Q23 376 26 398.5 Q29 421 37.5 443.5 Q46 466 60 484 Q84 515 126.5 538 Q169 561 222 576 Q275 591 335 598 Q395 605 455 605 Q515 605 575 598 Q635 591 688 576 Q741 561 783.5 538 Q826 515 850 484 Q864 466 872.5 443.5 Q881 421 884 398.5 Q887 376 885.5 357 Q884 338 878 328 Z " />
<glyph glyph-name="uni261C" unicode="&#x261c;" horiz-adv-x="910" d="M847 184 L771 184 L771 205 L742 205 Q716 189 677.5 175 Q639 161 574 150 Q556 147 529.5 146 Q503 145 475.5 145 Q448 145 422.5 146.5 Q397 148 381 150 Q363 153 346.5 159.5 Q330 166 326 183 Q324 195 328.5 202.5 Q333 210 341 215 Q327 215 315.5 224 Q304 233 303 248 Q302 259 305.5 266 Q309 273 314 278 Q300 280 289 287 Q278 294 278 311 Q278 333 297 342 Q316 351 360 351 L357 359 Q333 360 314 360.5 Q295 361 275.5 361.5 Q256 362 235 363 Q214 364 186 366 Q165 367 143 368 Q121 369 103 373 Q85 377 73.5 385.5 Q62 394 62 409 Q62 422 71 429 Q80 436 96 439.5 Q112 443 133.5 444.5 Q155 446 180 448 Q194 449 225 450 Q256 451 296 451.5 Q336 452 380.5 452.5 Q425 453 467 453 Q499 453 531.5 452.5 Q564 452 595.5 447 Q627 442 656.5 430 Q686 418 712 394 Q728 390 744 388.5 Q760 387 772 388 L772 420 L847 420 L847 184 Z M772 217 L772 371 Q764 370 750.5 371 Q737 372 728 374 L730 366 Q732 356 730 355.5 Q728 355 723 361 Q715 371 700.5 383.5 Q686 396 665 410 Q650 420 624 426 Q598 432 570.5 435 Q543 438 518 438.5 Q493 439 480 437 Q466 435 447 428.5 Q428 422 414 413 Q406 408 401.5 401 Q397 394 392 386 Q384 369 373 362 Q369 357 376 353 Q383 349 404 357 Q414 361 422 367.5 Q430 374 436 379.5 Q442 385 446 388.5 Q450 392 452 389 Q457 383 448 374 Q456 371 468.5 369.5 Q481 368 489 370 Q509 375 519 382.5 Q529 390 531 386 Q533 381 529 374.5 Q525 368 517 363 Q523 354 543.5 338 Q564 322 596 311 Q616 304 633 301.5 Q650 299 662 297.5 Q674 296 681 294.5 Q688 293 688 289 Q688 286 679 285 Q670 284 656.5 285 Q643 286 628 288.5 Q613 291 601 294 Q580 301 563.5 310 Q547 319 534.5 328.5 Q522 338 513.5 346.5 Q505 355 501 361 Q496 358 489.5 357.5 Q483 357 478 357 Q464 358 452.5 360 Q441 362 436 364 L421 351 Q447 351 465 344.5 Q483 338 486 326 Q490 312 486.5 301.5 Q483 291 475 285 Q503 278 506 257 Q508 243 503.5 236.5 Q499 230 491 225 Q520 219 523 197 Q525 183 518.5 174.5 Q512 166 510 164 Q524 161 545 164 Q584 167 614.5 173.5 Q645 180 669 188 Q693 196 712 206 Q731 216 747 226 Q750 229 752.5 229 Q755 229 754 225 L752 217 L772 217 Z M429 437 Q380 437 314.5 436 Q249 435 181 433 Q133 431 106 427.5 Q79 424 79 409 Q79 393 102 389.5 Q125 386 181 382 Q243 379 285 377 Q327 375 368 374 L389 406 Q397 417 406 424.5 Q415 432 429 437 Z M831 200 L831 403 L787 403 L787 200 L831 200 Z M490 247 Q491 262 484 267.5 Q477 273 462 275 Q455 276 439 276 Q423 276 404.5 276 Q386 276 369 275.5 Q352 275 343 275 Q333 274 326.5 267 Q320 260 320 250 Q320 234 345 230 Q350 229 368.5 228 Q387 227 406.5 227 Q426 227 442 227 Q458 227 459 227 Q469 227 479 231.5 Q489 236 490 247 Z M507 194 Q506 205 495.5 208.5 Q485 212 476 212 Q449 213 417 213 Q385 213 363 211 Q352 210 347.5 202.5 Q343 195 345 187 Q346 181 350.5 176 Q355 171 363 169 Q389 164 420.5 163.5 Q452 163 477 165 Q510 167 507 194 Z M467 316 Q467 322 462.5 327 Q458 332 447 333 Q410 335 377.5 336 Q345 337 313 333 Q303 331 298 325 Q293 319 294 311 Q294 304 299 298 Q304 292 314 292 Q329 291 348 291 Q367 291 385.5 291 Q404 291 420.5 292 Q437 293 448 294 Q456 296 461.5 300.5 Q467 305 467 316 Z " />
<glyph glyph-name="uni261E" unicode="&#x261e;" horiz-adv-x="910" d="M847 409 Q847 394 835.5 385.5 Q824 377 806 373 Q788 369 766 368 Q744 367 723 366 Q695 364 674 363 Q653 362 633.5 361.5 Q614 361 595 360.5 Q576 360 552 359 L549 351 Q593 351 612 342 Q631 333 631 311 Q631 294 620 287 Q609 280 595 278 Q600 273 603.5 266 Q607 259 606 248 Q605 233 593.5 224 Q582 215 568 215 Q576 210 580.5 202.5 Q585 195 583 183 Q579 166 562.5 159.5 Q546 153 528 150 Q512 148 486.5 146.5 Q461 145 433.5 145 Q406 145 379.5 146 Q353 147 335 150 Q270 161 231.5 175 Q193 189 167 205 L138 205 L138 184 L62 184 L62 420 L137 420 L137 388 Q149 387 165 388.5 Q181 390 197 394 Q223 418 252.5 430 Q282 442 313.5 447 Q345 452 377.5 452.5 Q410 453 442 453 Q484 453 528.5 452.5 Q573 452 613 451.5 Q653 451 684 450 Q715 449 729 448 Q754 446 775.5 444.5 Q797 443 813 439.5 Q829 436 838 429 Q847 422 847 409 Z M536 362 Q525 369 517 386 Q512 394 507.5 401 Q503 408 495 413 Q481 422 462 428.5 Q443 435 429 437 Q415 439 390.5 438.5 Q366 438 338.5 435 Q311 432 285 426 Q259 420 244 410 Q223 396 208.5 383.5 Q194 371 186 361 Q181 355 179 355.5 Q177 356 179 366 L181 374 Q172 372 158.5 371 Q145 370 137 371 L137 217 L157 217 L155 225 Q153 230 156 229 Q159 228 162 226 Q193 206 239.5 188.5 Q286 171 364 164 Q383 161 397 164 Q395 165 389 173.5 Q383 182 386 197 Q389 219 418 225 Q410 230 405.5 236.5 Q401 243 403 257 Q408 278 434 285 Q426 291 422.5 301.5 Q419 312 423 326 Q427 338 444.5 344.5 Q462 351 488 351 L473 364 Q468 362 456.5 360 Q445 358 431 357 Q426 357 419.5 357.5 Q413 358 408 361 Q404 355 395.5 346.5 Q387 338 374.5 328.5 Q362 319 345.5 310 Q329 301 308 294 Q296 291 281 288.5 Q266 286 252.5 285 Q239 284 230 285 Q221 286 221 289 Q221 293 228 294.5 Q235 296 247 297.5 Q259 299 276 301.5 Q293 304 313 311 Q345 322 365.5 338 Q386 354 392 363 Q384 368 380 374.5 Q376 381 378 386 Q380 390 390 382.5 Q400 375 420 370 Q428 368 440.5 369.5 Q453 371 461 374 Q457 378 455.5 382 Q454 386 457 389 Q459 392 463 388.5 Q467 385 473 379.5 Q479 374 487 367.5 Q495 361 505 357 Q526 349 533 353 Q540 357 536 362 Z M830 409 Q830 424 803 427.5 Q776 431 728 433 Q660 435 594.5 436 Q529 437 480 437 Q494 432 503 424.5 Q512 417 520 406 L541 374 Q582 375 624 377 Q666 379 728 382 Q784 386 807 389.5 Q830 393 830 409 Z M122 200 L122 403 L78 403 L78 200 L122 200 Z M589 250 Q589 260 582.5 267 Q576 274 566 275 Q557 275 540 275.5 Q523 276 504.5 276 Q486 276 470 276 Q454 276 447 275 Q433 273 425.5 267.5 Q418 262 419 247 Q420 236 430 231.5 Q440 227 450 227 Q451 227 467 227 Q483 227 502.5 227 Q522 227 540.5 228 Q559 229 564 230 Q589 234 589 250 Z M564 187 Q566 195 561.5 202.5 Q557 210 546 211 Q524 213 492 213 Q460 213 433 212 Q424 212 413.5 208.5 Q403 205 402 194 Q399 167 432 165 Q457 163 488.5 163.5 Q520 164 546 169 Q554 171 558.5 176 Q563 181 564 187 Z M615 311 Q616 319 611 325 Q606 331 596 333 Q564 337 531.5 336 Q499 335 462 333 Q451 332 446.5 327 Q442 322 442 316 Q442 305 447.5 300.5 Q453 296 461 294 Q472 293 488.5 292 Q505 291 523.5 291 Q542 291 561 291 Q580 291 595 292 Q605 292 610 298 Q615 304 615 311 Z " />
<glyph glyph-name="paragraph" unicode="&#xb6;" horiz-adv-x="579" d="M291 352 L236 352 Q198 352 162 363 Q126 374 98.5 396.5 Q71 419 54.5 453 Q38 487 38 533 Q38 570 49 603.5 Q60 637 86.5 662 Q113 687 155.5 701.5 Q198 716 261 716 L493 716 L493 -122 L443 -122 L443 672 L342 672 L342 -122 L291 -122 L291 352 Z " />
<glyph glyph-name="dagger" unicode="&#x2020;" horiz-adv-x="494" d="M215 431 L53 431 L53 489 L215 489 L215 693 L278 693 L278 489 L441 489 L441 431 L278 431 L278 -91 L215 -91 L215 431 Z " />
<glyph glyph-name="daggerdbl" unicode="&#x2021;" horiz-adv-x="494" d="M53 171 L215 171 L215 431 L53 431 L53 489 L215 489 L215 693 L278 693 L278 489 L441 489 L441 431 L278 431 L278 171 L441 171 L441 113 L278 113 L278 -91 L215 -91 L215 113 L53 113 L53 171 Z " />
<glyph glyph-name="arrowupdn" unicode="&#x2195;" horiz-adv-x="910" d="M484 553 L484 135 L611 209 L628 194 L455 -14 L282 194 L299 209 L426 135 L426 553 L299 478 L282 493 L455 701 L628 493 L611 478 L484 553 Z " />
<glyph glyph-name="uni2197" unicode="&#x2197;" horiz-adv-x="910" d="M101 31 L682 612 L540 648 L539 671 L808 696 L783 427 L760 428 L724 570 L142 -11 L101 31 Z " />
<glyph glyph-name="uni2199" unicode="&#x2199;" horiz-adv-x="910" d="M809 657 L227 76 L369 39 L371 16 L101 -9 L126 261 L149 259 L186 117 L768 698 L809 657 Z " />
<glyph glyph-name="uni2196" unicode="&#x2196;" horiz-adv-x="910" d="M767 -11 L185 570 L149 428 L126 427 L101 696 L370 671 L369 648 L227 612 L808 31 L767 -11 Z " />
<glyph glyph-name="uni2198" unicode="&#x2198;" horiz-adv-x="910" d="M142 698 L724 117 L761 259 L784 261 L809 -9 L539 16 L541 39 L683 76 L101 657 L142 698 Z " />
<glyph glyph-name="uni266D" unicode="&#x266d;" horiz-adv-x="517" d="M418 266 Q418 210 403.5 166.5 Q389 123 365 91.5 Q341 60 309 38.5 Q277 17 241.5 3.5 Q206 -10 169 -16.5 Q132 -23 99 -25 L99 640 L162 640 L162 312 Q168 328 177.5 344.5 Q187 361 203.5 375 Q220 389 244 398 Q268 407 302 407 Q326 407 347 397 Q368 387 384 368.5 Q400 350 409 324 Q418 298 418 266 Z M343 229 Q343 256 338 279 Q333 302 323.5 319 Q314 336 300.5 346 Q287 356 271 356 Q243 356 222.5 344 Q202 332 188.5 314.5 Q175 297 168.5 276.5 Q162 256 162 238 L162 24 Q191 26 223 38 Q255 50 281.5 74 Q308 98 325 136 Q342 174 342 229 L343 229 Z " />
<glyph glyph-name="uni2669" unicode="&#x2669;" horiz-adv-x="388" d="M288 115 Q288 72 281.5 44 Q275 16 253 -10 Q239 -26 221 -39.5 Q203 -53 183.5 -60 Q164 -67 145.5 -64.5 Q127 -62 114 -47 Q100 -32 99.5 -13 Q99 6 107.5 25 Q116 44 131.5 60.5 Q147 77 165 88 Q202 110 250 117 L250 662 L288 662 L288 115 Z " />
<glyph glyph-name="musicalnote" unicode="&#x266a;" horiz-adv-x="539" d="M479 339 Q479 309 470 277.5 Q461 246 440 214 Q420 184 390 155.5 Q360 127 333 111 Q322 104 318.5 109.5 Q315 115 323 123 Q336 136 353 155 Q370 174 385.5 198.5 Q401 223 411.5 252.5 Q422 282 422 316 Q422 349 403 372 Q384 395 357 411.5 Q330 428 300 438 Q270 448 248 455 L248 115 Q248 72 241.5 44 Q235 16 213 -10 Q199 -26 181 -39.5 Q163 -53 143.5 -60 Q124 -67 105.5 -64.5 Q87 -62 74 -47 Q60 -32 59.5 -13 Q59 6 67.5 25 Q76 44 91.5 60.5 Q107 77 125 88 Q162 110 210 117 L210 617 Q210 630 211 643.5 Q212 657 219 657 Q226 657 232 652 Q238 647 250 633 Q263 618 278 601.5 Q293 585 320 562 Q363 525 393.5 494 Q424 463 443 436 Q462 409 470.5 385.5 Q479 362 479 339 Z " />
<glyph glyph-name="uni266C" unicode="&#x266c;" horiz-adv-x="693" d="M598 486 L598 544 L251 470 L251 412 L598 486 Z M638 191 Q638 156 619 126 Q600 96 571 72 Q558 61 541.5 52 Q525 43 508.5 40 Q492 37 476.5 40.5 Q461 44 450 59 Q441 70 442 85.5 Q443 101 450 117 Q457 133 468.5 147.5 Q480 162 493 172 Q522 193 546.5 199.5 Q571 206 598 210 L598 392 L251 317 L251 94 Q251 59 232 29 Q213 -1 184 -25 Q171 -36 154.5 -45 Q138 -54 121.5 -57 Q105 -60 89.5 -56.5 Q74 -53 63 -38 Q54 -27 55 -11.5 Q56 4 63 20 Q70 36 81.5 50.5 Q93 65 106 75 Q135 96 159.5 102.5 Q184 109 211 113 L211 559 L638 645 L638 191 Z " />
<glyph glyph-name="uni327F" unicode="&#x327f;" horiz-adv-x="910" d="M880 301 Q880 214 849.5 136.5 Q819 59 763 1.5 Q707 -56 628.5 -90 Q550 -124 454 -124 Q373 -124 304.5 -99 Q236 -74 183 -30 Q130 14 93 74.5 Q56 135 40 207 L118 208 Q133 151 162 103 Q191 55 233.5 20.5 Q276 -14 331.5 -33.5 Q387 -53 454 -53 Q531 -53 594.5 -27 Q658 -1 704 44 Q750 89 776.5 149.5 Q803 210 807 280 L632 280 L632 352 L877 352 Q880 326 880 301 Z M774 442 Q754 489 724 528.5 Q694 568 654 596 Q614 624 564 639.5 Q514 655 454 655 Q382 655 322 632 Q262 609 217.5 568.5 Q173 528 144 472.5 Q115 417 105 352 L227 352 L227 280 L30 280 L30 301 Q30 388 61 465 Q92 542 147.5 599.5 Q203 657 281 691 Q359 725 454 725 Q529 725 591.5 704.5 Q654 684 704.5 647 Q755 610 792 557.5 Q829 505 853 442 L774 442 Z M492 350 L678 83 L578 83 L437 293 L373 228 L373 83 L293 83 L293 532 L373 532 L373 325 L567 532 L670 532 L492 350 Z " />
<glyph glyph-name="uni321C" unicode="&#x321c;" horiz-adv-x="910" d="M97 274 Q97 160 127 48 Q157 -64 234 -170 L172 -170 Q97 -81 61 32 Q25 145 25 279 L25 319 Q25 453 61 565 Q97 677 172 766 L234 766 Q160 666 128.5 555.5 Q97 445 97 324 L97 274 Z M813 324 Q813 445 781.5 555.5 Q750 666 676 766 L738 766 Q813 677 849 565 Q885 453 885 319 L885 279 Q885 145 849 32 Q813 -81 738 -170 L676 -170 Q753 -64 783 48 Q813 160 813 274 L813 324 Z M675 596 L675 542 L486 542 L486 526 Q486 505 495 489 Q504 473 528.5 456.5 Q553 440 595 420.5 Q637 401 703 373 L677 321 Q564 368 513.5 397 Q463 426 455 441 Q450 433 436 422 Q422 411 395.5 397 Q369 383 328.5 364 Q288 345 231 321 L205 373 Q271 401 313 420.5 Q355 440 379 456.5 Q403 473 412.5 489 Q422 505 422 526 L422 542 L234 542 L234 596 L675 596 Z M750 267 L750 213 L486 213 L486 -8 L423 -8 L423 213 L159 213 L159 267 L750 267 Z " />
<glyph glyph-name="uni2116" unicode="&#x2116;" horiz-adv-x="910" d="M78 695 L163 695 L372 156 Q378 139 384 114 Q390 89 393 64 L393 695 L460 695 L460 -26 L375 -26 L165 513 Q159 529 153 554 Q147 579 145 601 L145 -26 L78 -26 L78 695 Z M682 511 Q763 511 804.5 462 Q846 413 846 325 L846 284 Q846 196 804.5 147 Q763 98 682 98 Q601 98 559.5 147 Q518 196 518 284 L518 325 Q518 414 559.5 462.5 Q601 511 682 511 Z M682 156 Q782 156 782 290 L782 319 Q782 452 682 452 Q631 452 607.5 419.5 Q584 387 584 319 L584 290 Q584 222 607.5 189 Q631 156 682 156 Z M540 38 L825 38 L825 -26 L540 -26 L540 38 Z " />
<glyph glyph-name="uni33C7" unicode="&#x33c7;" horiz-adv-x="910" d="M258 706 Q290 706 315.5 700.5 Q341 695 361.5 686 Q382 677 398 665 Q414 653 428 640 L388 587 Q355 617 326 628.5 Q297 640 259 640 Q217 640 188 621.5 Q159 603 141.5 569.5 Q124 536 116.5 489.5 Q109 443 109 386 L109 294 Q109 160 144.5 95 Q180 30 265 30 Q308 30 337.5 46 Q367 62 396 95 L441 45 Q418 13 373 -12 Q328 -37 264 -37 Q201 -37 158 -14.5 Q115 8 88.5 50.5 Q62 93 50 154.5 Q38 216 38 294 L38 383 Q38 459 50.5 519.5 Q63 580 90 621 Q117 662 158.5 684 Q200 706 258 706 Z M645 706 Q700 706 738 685 Q776 664 799.5 623.5 Q823 583 833.5 522.5 Q844 462 844 384 L844 285 Q844 207 833.5 146.5 Q823 86 799.5 45.5 Q776 5 738 -16 Q700 -37 645 -37 Q590 -37 552 -16 Q514 5 490.5 45.5 Q467 86 456.5 146.5 Q446 207 446 285 L446 384 Q446 462 456.5 522.5 Q467 583 490 623.5 Q513 664 551 685 Q589 706 645 706 Z M645 26 Q719 26 746 94 Q773 162 773 291 L773 378 Q773 507 746 575 Q719 643 645 643 Q571 643 544 575 Q517 507 517 378 L517 291 Q517 162 544 94 Q571 26 645 26 Z M833 42 L888 42 L888 -26 L833 -26 L833 42 Z " />
<glyph glyph-name="trademark" unicode="&#x2122;" horiz-adv-x="741" d="M333 695 L412 695 L505 496 L507 496 L595 695 L676 695 L676 369 L621 369 L621 630 L618 630 L529 434 L480 434 L387 630 L385 630 L385 369 L333 369 L333 695 Z M130 645 L27 645 L27 695 L291 695 L291 645 L188 645 L188 369 L130 369 L130 645 Z " />
<glyph glyph-name="uni33C2" unicode="&#x33c2;" horiz-adv-x="910" d="M257 -26 L204 -26 L204 24 Q195 0 174 -16.5 Q153 -33 118 -33 Q78 -33 48.5 1.5 Q19 36 19 111 L19 140 Q19 215 57.5 252.5 Q96 290 158 290 L194 290 L194 367 Q194 427 180.5 447.5 Q167 468 135 468 Q118 468 99 459.5 Q80 451 60 431 L27 471 Q47 491 75 507 Q103 523 139 523 Q163 523 184.5 516.5 Q206 510 222 493 Q238 476 247.5 447.5 Q257 419 257 374 L257 -26 Z M195 237 L156 237 Q124 237 103.5 216.5 Q83 196 83 136 L83 118 Q83 89 87 70 Q91 51 98 40 Q105 29 114.5 24.5 Q124 20 135 20 Q151 20 162.5 27.5 Q174 35 181 47 Q188 59 191.5 74 Q195 89 195 104 L195 237 Z M366 513 L424 513 L424 457 Q436 486 458.5 504.5 Q481 523 513 523 Q539 523 564.5 509.5 Q590 496 604 453 Q617 482 641.5 502.5 Q666 523 704 523 Q750 523 779 491.5 Q808 460 808 388 L808 -26 L744 -26 L744 366 Q744 386 743 404 Q742 422 736 436 Q730 450 718.5 458.5 Q707 467 686 467 Q667 467 654 458.5 Q641 450 633.5 436 Q626 422 622.5 404.5 Q619 387 619 368 L619 -26 L555 -26 L555 375 Q555 422 543.5 444.5 Q532 467 497 467 Q464 467 447 437 Q430 407 430 362 L430 -26 L366 -26 L366 513 Z M833 42 L888 42 L888 -26 L833 -26 L833 42 Z M287 42 L342 42 L342 -26 L287 -26 L287 42 Z " />
<glyph glyph-name="uni33D8" unicode="&#x33d8;" horiz-adv-x="910" d="M101 -240 L37 -240 L37 513 L95 513 L95 457 Q103 487 126 505 Q149 523 179 523 Q239 523 263 469.5 Q287 416 287 302 L287 187 Q287 124 281 81.5 Q275 39 262.5 13.5 Q250 -12 230 -23 Q210 -34 182 -34 Q153 -34 132 -19 Q111 -4 101 28 L101 -240 Z M374 513 L432 513 L432 457 Q444 486 465.5 504.5 Q487 523 519 523 Q545 523 569.5 509.5 Q594 496 608 453 Q621 482 644.5 502.5 Q668 523 706 523 Q752 523 780 491.5 Q808 460 808 388 L808 -26 L744 -26 L744 366 Q744 386 743 404 Q742 422 737 436 Q732 450 720.5 458.5 Q709 467 688 467 Q669 467 656.5 458.5 Q644 450 636.5 436 Q629 422 626 404.5 Q623 387 623 368 L623 -26 L559 -26 L559 375 Q559 422 548.5 444.5 Q538 467 503 467 Q470 467 454 437 Q438 407 438 362 L438 -26 L374 -26 L374 513 Z M223 292 Q223 379 212 423 Q201 467 167 467 Q144 467 131 455.5 Q118 444 111.5 425 Q105 406 103 382 Q101 358 101 334 L101 153 Q101 129 104.5 106 Q108 83 116 65 Q124 47 136.5 35.5 Q149 24 167 24 Q183 24 193.5 30.5 Q204 37 210.5 56 Q217 75 220 108 Q223 141 223 195 L223 292 Z M293 42 L348 42 L348 -26 L293 -26 L293 42 Z M833 42 L888 42 L888 -26 L833 -26 L833 42 Z " />
<glyph glyph-name="uni2121" unicode="&#x2121;" horiz-adv-x="1054" d="M690 513 L690 451 L472 451 L472 285 L669 285 L669 223 L472 223 L472 36 L697 36 L697 -26 L402 -26 L402 513 L690 513 Z M461 695 L461 633 L269 633 L269 -26 L200 -26 L200 633 L10 633 L10 695 L461 695 Z M836 513 L836 36 L1044 36 L1044 -26 L766 -26 L766 513 L836 513 Z " />
<glyph glyph-name="uniFF01" unicode="&#xff01;" horiz-adv-x="910" d="M407 44 L503 44 L503 -54 L407 -54 L407 44 Z M426 148 L414 714 L496 714 L484 148 L426 148 Z " />
<glyph glyph-name="uniFF02" unicode="&#xff02;" horiz-adv-x="910" d="M354 488 L344 730 L422 730 L412 488 L354 488 Z M497 488 L487 730 L565 730 L555 488 L497 488 Z " />
<glyph glyph-name="uniFF03" unicode="&#xff03;" horiz-adv-x="910" d="M681 255 L681 194 L563 194 L532 -26 L475 -26 L506 194 L364 194 L334 -26 L276 -26 L307 194 L198 194 L198 255 L315 255 L338 419 L229 419 L229 480 L347 480 L377 695 L434 695 L404 480 L545 480 L575 695 L633 695 L602 480 L712 480 L712 419 L594 419 L571 255 L681 255 Z M537 419 L395 419 L372 255 L514 255 L537 419 Z " />
<glyph glyph-name="uniFF04" unicode="&#xff04;" horiz-adv-x="910" d="M430 -18 Q365 -15 308.5 6 Q252 27 208 61 L244 116 Q292 81 338.5 63.5 Q385 46 430 43 L430 313 Q372 326 332 343.5 Q292 361 267.5 383 Q243 405 232 432 Q221 459 221 491 L221 513 Q221 590 278 635.5 Q335 681 430 687 L430 751 L485 751 L485 687 Q545 683 591.5 666 Q638 649 672 626 L638 576 Q609 596 570.5 608.5 Q532 621 485 625 L485 369 Q546 354 587 336 Q628 318 653.5 295.5 Q679 273 690 245.5 Q701 218 701 183 L701 161 Q701 125 686.5 94 Q672 63 644 39.5 Q616 16 576 1.5 Q536 -13 485 -17 L485 -93 L430 -93 L430 -18 Z M632 181 Q632 201 625.5 218 Q619 235 602.5 250 Q586 265 557.5 277.5 Q529 290 485 301 L485 44 Q555 52 593.5 84 Q632 116 632 161 L632 181 Z M290 494 Q290 474 297 458 Q304 442 320 428.5 Q336 415 363 403.5 Q390 392 430 382 L430 625 Q369 620 329.5 590.5 Q290 561 290 511 L290 494 Z " />
<glyph glyph-name="uniFF05" unicode="&#xff05;" horiz-adv-x="910" d="M207 -25 L638 695 L701 695 L271 -25 L207 -25 Z M664 343 Q737 343 778 299.5 Q819 256 819 177 L819 132 Q819 53 778 9.5 Q737 -34 664 -34 Q591 -34 550 9.5 Q509 53 509 132 L509 177 Q509 256 550 299.5 Q591 343 664 343 Z M664 17 Q708 17 734.5 44 Q761 71 761 134 L761 175 Q761 238 734.5 265 Q708 292 664 292 Q620 292 593.5 265 Q567 238 567 175 L567 134 Q567 71 593.5 44 Q620 17 664 17 Z M245 703 Q318 703 359 659.5 Q400 616 400 537 L400 492 Q400 413 359 369.5 Q318 326 245 326 Q172 326 131 369.5 Q90 413 90 492 L90 537 Q90 616 131 659.5 Q172 703 245 703 Z M245 377 Q289 377 315.5 404 Q342 431 342 494 L342 535 Q342 598 315.5 625 Q289 652 245 652 Q201 652 174.5 625 Q148 598 148 535 L148 494 Q148 431 174.5 404 Q201 377 245 377 Z " />
<glyph glyph-name="uniFF06" unicode="&#xff06;" horiz-adv-x="910" d="M729 347 Q729 273 711 211.5 Q693 150 659 101 L767 -26 L687 -26 L619 54 Q574 6 514.5 -15.5 Q455 -37 395 -37 L389 -37 Q344 -37 302 -25 Q260 -13 228 9.5 Q196 32 177 65 Q158 98 158 140 L158 164 Q158 198 168 226 Q178 254 200 278.5 Q222 303 257.5 327 Q293 351 345 377 L326 400 Q314 415 300 431.5 Q286 448 274 467 Q262 486 254.5 507 Q247 528 247 551 L247 569 Q247 593 258 617.5 Q269 642 291 661.5 Q313 681 345.5 693.5 Q378 706 420 706 Q460 706 492 693.5 Q524 681 546.5 661.5 Q569 642 581 617.5 Q593 593 593 569 L593 550 Q593 526 585.5 503 Q578 480 560 456.5 Q542 433 512.5 409 Q483 385 439 360 L617 150 Q640 188 652 238 Q664 288 664 347 L729 347 Z M393 23 Q450 23 497.5 43 Q545 63 580 101 L385 330 Q344 308 314 289 Q284 270 264 250.5 Q244 231 234.5 209.5 Q225 188 225 160 L225 143 Q225 119 237.5 97 Q250 75 272.5 58.5 Q295 42 326 32.5 Q357 23 393 23 Z M312 554 Q312 536 320.5 517 Q329 498 342 479 Q355 460 370.5 441 Q386 422 400 405 Q441 427 466.5 447 Q492 467 505.5 485.5 Q519 504 523.5 521 Q528 538 528 554 L528 565 Q528 583 519.5 598 Q511 613 496 624 Q481 635 461.5 641.5 Q442 648 420 648 Q398 648 378.5 641.5 Q359 635 344 624 Q329 613 320.5 598 Q312 583 312 565 L312 554 Z " />
<glyph glyph-name="uniFF07" unicode="&#xff07;" horiz-adv-x="910" d="M426 488 L416 730 L494 730 L484 488 L426 488 Z " />
<glyph glyph-name="uniFF08" unicode="&#xff08;" horiz-adv-x="910" d="M748 274 Q748 160 778 48 Q808 -64 885 -170 L821 -170 Q746 -81 710 32 Q674 145 674 279 L674 319 Q674 453 710 565 Q746 677 821 766 L885 766 Q811 666 779.5 555.5 Q748 445 748 324 L748 274 Z " />
<glyph glyph-name="uniFF09" unicode="&#xff09;" horiz-adv-x="910" d="M162 324 Q162 445 130.5 555.5 Q99 666 25 766 L89 766 Q164 677 200 565 Q236 453 236 319 L236 279 Q236 145 200 32 Q164 -81 89 -170 L25 -170 Q102 -64 132 48 Q162 160 162 274 L162 324 Z " />
<glyph glyph-name="uniFF0A" unicode="&#xff0a;" horiz-adv-x="910" d="M301 408 L270 465 L412 534 L270 602 L301 659 L428 576 L422 729 L488 729 L481 576 L609 659 L639 602 L497 534 L639 465 L609 408 L481 491 L488 339 L422 339 L429 491 L301 408 Z " />
<glyph glyph-name="uniFF0B" unicode="&#xff0b;" horiz-adv-x="910" d="M488 568 L488 351 L701 351 L701 287 L488 287 L488 56 L422 56 L422 287 L209 287 L209 351 L422 351 L422 568 L488 568 Z " />
<glyph glyph-name="uniFF0C" unicode="&#xff0c;" horiz-adv-x="910" d="M432 50 L520 50 L448 -175 L390 -175 L432 50 Z " />
<glyph glyph-name="uniFF0D" unicode="&#xff0d;" horiz-adv-x="910" d="M334 327 L576 327 L576 254 L334 254 L334 327 Z " />
<glyph glyph-name="uniFF0E" unicode="&#xff0e;" horiz-adv-x="910" d="M404 45 L505 45 L505 -55 L404 -55 L404 45 Z " />
<glyph glyph-name="uniFF0F" unicode="&#xff0f;" horiz-adv-x="910" d="M639 759 L337 -125 L270 -125 L571 759 L639 759 Z " />
<glyph glyph-name="uniFF10" unicode="&#xff10;" horiz-adv-x="910" d="M700 279 Q700 126 642 44.5 Q584 -37 454 -37 Q326 -37 268 45 Q210 127 210 279 L210 391 Q210 542 269 624 Q328 706 454 706 Q582 706 641 624.5 Q700 543 700 391 L700 279 Z M628 392 Q628 526 584.5 584.5 Q541 643 454 643 Q371 643 326.5 584 Q282 525 282 392 L282 278 Q282 144 326.5 85 Q371 26 454 26 Q540 26 584 84.5 Q628 143 628 278 L628 392 Z " />
<glyph glyph-name="uniFF11" unicode="&#xff11;" horiz-adv-x="910" d="M523 -26 L523 607 L349 501 L317 557 L540 695 L593 695 L593 -26 L523 -26 Z " />
<glyph glyph-name="uniFF12" unicode="&#xff12;" horiz-adv-x="910" d="M495 349 Q525 384 543 409 Q561 434 570.5 453.5 Q580 473 583.5 488 Q587 503 587 517 L587 525 Q587 579 551.5 610.5 Q516 642 450 642 Q402 642 360 619 Q318 596 283 533 L227 568 Q240 591 259 615.5 Q278 640 305 660 Q332 680 367.5 693 Q403 706 448 706 Q496 706 535 693 Q574 680 601 656.5 Q628 633 643 599.5 Q658 566 658 526 L658 516 Q658 487 648 459.5 Q638 432 621.5 406 Q605 380 583 354 Q561 328 538 301 L314 38 L684 38 L684 -26 L226 -26 L226 34 L495 349 Z " />
<glyph glyph-name="uniFF13" unicode="&#xff13;" horiz-adv-x="910" d="M240 594 Q253 616 272 636 Q291 656 316.5 671.5 Q342 687 374.5 696.5 Q407 706 448 706 Q497 706 536.5 693 Q576 680 603.5 656.5 Q631 633 646 599.5 Q661 566 661 526 L661 516 Q661 495 655 471.5 Q649 448 635 426 Q621 404 597 385 Q573 366 537 354 Q612 341 650.5 295 Q689 249 689 186 L689 171 Q689 132 676 95 Q663 58 634.5 28.5 Q606 -1 559.5 -19 Q513 -37 447 -37 Q384 -37 325.5 -17.5 Q267 2 216 43 L251 99 Q304 61 350.5 44 Q397 27 447 27 Q494 27 527 40 Q560 53 580.5 73.5 Q601 94 610.5 119.5 Q620 145 620 170 L620 183 Q620 224 603.5 250.5 Q587 277 562.5 292.5 Q538 308 508.5 314 Q479 320 453 320 L372 320 L372 380 L456 380 Q490 380 515 392.5 Q540 405 556.5 425 Q573 445 581.5 469.5 Q590 494 590 517 L590 525 Q590 579 552.5 610.5 Q515 642 449 642 Q406 642 366 624.5 Q326 607 295 558 L240 594 Z " />
<glyph glyph-name="uniFF14" unicode="&#xff14;" horiz-adv-x="910" d="M614 425 L614 198 L720 198 L720 134 L614 134 L614 -26 L544 -26 L544 134 L183 134 L183 198 L533 695 L613 695 L264 198 L544 198 L544 425 L614 425 Z " />
<glyph glyph-name="uniFF15" unicode="&#xff15;" horiz-adv-x="910" d="M631 191 Q631 278 588.5 317.5 Q546 357 468 357 Q422 357 386 340 Q350 323 326 300 L260 300 L283 695 L654 695 L654 631 L345 631 L334 369 Q358 392 399 406 Q440 420 485 420 Q538 420 578.5 402.5 Q619 385 646 355 Q673 325 686.5 283.5 Q700 242 700 194 L700 179 Q700 140 687 101.5 Q674 63 645.5 32.5 Q617 2 570 -17.5 Q523 -37 456 -37 Q382 -37 326 -15.5 Q270 6 222 43 L258 100 Q310 60 357.5 43.5 Q405 27 456 27 Q504 27 537.5 41.5 Q571 56 592 78 Q613 100 622 126.5 Q631 153 631 178 L631 191 Z " />
<glyph glyph-name="uniFF16" unicode="&#xff16;" horiz-adv-x="910" d="M632 600 Q598 620 559.5 631.5 Q521 643 479 643 Q428 643 393 622.5 Q358 602 335 563 Q312 524 300 467.5 Q288 411 284 339 Q292 355 307.5 373 Q323 391 345.5 406 Q368 421 398 430.5 Q428 440 466 440 Q512 440 553.5 425 Q595 410 626.5 381.5 Q658 353 676.5 311.5 Q695 270 695 217 L695 193 Q695 140 677 97.5 Q659 55 627.5 25 Q596 -5 552.5 -21 Q509 -37 459 -37 Q408 -37 363.5 -19.5 Q319 -2 286 34 Q253 70 234 125.5 Q215 181 215 256 L215 280 Q215 396 233.5 477 Q252 558 286 609 Q320 660 369 683 Q418 706 480 706 Q529 706 576.5 693 Q624 680 665 657 L632 600 Z M291 207 Q291 166 303 133 Q315 100 337 76 Q359 52 389.5 39 Q420 26 457 26 Q494 26 525 37.5 Q556 49 578.5 70.5 Q601 92 613.5 123.5 Q626 155 626 196 L626 211 Q626 251 612 282.5 Q598 314 575 335.5 Q552 357 521.5 368 Q491 379 458 379 Q426 379 396 367 Q366 355 343 334 Q320 313 305.5 283.5 Q291 254 291 220 L291 207 Z " />
<glyph glyph-name="uniFF17" unicode="&#xff17;" horiz-adv-x="910" d="M404 -26 L325 -26 L618 631 L213 631 L213 695 L696 695 L696 641 L404 -26 Z " />
<glyph glyph-name="uniFF18" unicode="&#xff18;" horiz-adv-x="910" d="M314 511 Q314 482 324 456 Q334 430 352.5 411 Q371 392 397 381 Q423 370 455 370 Q487 370 513 381 Q539 392 557.5 411 Q576 430 586 456 Q596 482 596 511 L596 523 Q596 579 557.5 611.5 Q519 644 455 644 Q390 644 352 611.5 Q314 579 314 523 L314 511 Z M294 159 Q294 131 305 107 Q316 83 337 65 Q358 47 387.5 36.5 Q417 26 455 26 Q493 26 523 36.5 Q553 47 573.5 65 Q594 83 605 107 Q616 131 616 159 L616 171 Q616 203 604 229 Q592 255 571 274 Q550 293 520.5 303 Q491 313 455 313 Q420 313 390.5 303 Q361 293 339.5 274.5 Q318 256 306 230 Q294 204 294 171 L294 159 Z M223 174 Q223 234 259.5 279.5 Q296 325 355 343 Q303 367 274.5 410 Q246 453 246 510 L246 526 Q246 565 261.5 598 Q277 631 305 655 Q333 679 371.5 692.5 Q410 706 455 706 Q500 706 538.5 692.5 Q577 679 605 655 Q633 631 648.5 598 Q664 565 664 526 L664 510 Q664 453 635.5 410 Q607 367 554 343 Q583 334 607.5 318 Q632 302 649.5 279.5 Q667 257 677 230.5 Q687 204 687 174 L687 157 Q687 114 670.5 78 Q654 42 623.5 16.5 Q593 -9 550 -23 Q507 -37 455 -37 Q403 -37 360 -23 Q317 -9 286.5 16.5 Q256 42 239.5 78 Q223 114 223 157 L223 174 Z " />
<glyph glyph-name="uniFF19" unicode="&#xff19;" horiz-adv-x="910" d="M276 71 Q310 51 349 39 Q388 27 431 27 Q486 27 523 47.5 Q560 68 582 107 Q604 146 614 202 Q624 258 626 328 Q618 312 603 294 Q588 276 565.5 260.5 Q543 245 512.5 234.5 Q482 224 444 224 Q398 224 356.5 239.5 Q315 255 283.5 284 Q252 313 233.5 354.5 Q215 396 215 449 L215 473 Q215 526 233 569 Q251 612 282.5 642.5 Q314 673 357.5 689.5 Q401 706 451 706 Q501 706 545.5 688.5 Q590 671 623 634.5 Q656 598 675.5 542.5 Q695 487 695 412 L695 382 Q695 263 678.5 182.5 Q662 102 629 53 Q596 4 546 -16.5 Q496 -37 429 -37 Q380 -37 334 -24 Q288 -11 247 12 L276 71 Z M619 459 Q619 499 607 533 Q595 567 573 591.5 Q551 616 520.5 629.5 Q490 643 453 643 Q416 643 385 631 Q354 619 331.5 597 Q309 575 296.5 542.5 Q284 510 284 470 L284 455 Q284 414 298 382.5 Q312 351 335 329.5 Q358 308 388.5 296.5 Q419 285 452 285 Q483 285 513.5 297 Q544 309 567 331 Q590 353 604.5 382 Q619 411 619 446 L619 459 Z " />
<glyph glyph-name="uniFF1A" unicode="&#xff1a;" horiz-adv-x="910" d="M404 45 L505 45 L505 -55 L404 -55 L404 45 Z M404 483 L505 483 L505 383 L404 383 L404 483 Z " />
<glyph glyph-name="uniFF1B" unicode="&#xff1b;" horiz-adv-x="910" d="M415 483 L516 483 L516 383 L415 383 L415 483 Z M432 50 L520 50 L448 -175 L390 -175 L432 50 Z " />
<glyph glyph-name="uniFF1C" unicode="&#xff1c;" horiz-adv-x="910" d="M300 317 L690 114 L690 41 L220 291 L220 350 L690 600 L690 528 L300 323 L300 317 Z " />
<glyph glyph-name="uniFF1D" unicode="&#xff1d;" horiz-adv-x="910" d="M229 458 L681 458 L681 393 L229 393 L229 458 Z M229 247 L681 247 L681 182 L229 182 L229 247 Z " />
<glyph glyph-name="uniFF1E" unicode="&#xff1e;" horiz-adv-x="910" d="M610 323 L220 528 L220 600 L690 350 L690 291 L220 41 L220 114 L610 317 L610 323 Z " />
<glyph glyph-name="uniFF1F" unicode="&#xff1f;" horiz-adv-x="910" d="M387 44 L483 44 L483 -54 L387 -54 L387 44 Z M401 141 L401 188 Q401 213 405.5 232.5 Q410 252 421.5 271 Q433 290 451.5 310.5 Q470 331 498 358 Q516 375 532.5 391 Q549 407 562.5 424.5 Q576 442 584 462.5 Q592 483 592 509 L592 525 Q592 579 555.5 610.5 Q519 642 456 642 Q405 642 363 621.5 Q321 601 290 566 L245 612 Q258 628 278 645 Q298 662 324.5 675.5 Q351 689 383.5 697.5 Q416 706 454 706 Q554 706 609 657 Q664 608 664 526 L664 509 Q664 472 652.5 444 Q641 416 622.5 392.5 Q604 369 581 348 Q558 327 535 305 Q518 289 506 275.5 Q494 262 485.5 248.5 Q477 235 473 219.5 Q469 204 469 185 L469 141 L401 141 Z " />
<glyph glyph-name="uniFF20" unicode="&#xff20;" horiz-adv-x="910" d="M716 45 Q696 45 676 50 Q656 55 638 65.5 Q620 76 606 92 Q592 108 585 131 L584 131 Q575 107 557 91 Q539 75 518 65 Q497 55 475.5 51 Q454 47 436 47 Q343 47 297.5 99 Q252 151 252 242 L252 318 Q252 410 299.5 461.5 Q347 513 435 513 Q486 513 518.5 494.5 Q551 476 568 449 L568 507 L639 507 L639 186 Q639 144 662 125.5 Q685 107 717 107 Q742 107 762.5 117.5 Q783 128 798 150.5 Q813 173 821.5 209.5 Q830 246 830 297 L830 308 Q830 393 805.5 461 Q781 529 733 576.5 Q685 624 612.5 649.5 Q540 675 444 675 Q362 675 294.5 649 Q227 623 179 574.5 Q131 526 105 455.5 Q79 385 79 296 L79 279 Q79 186 104.5 113 Q130 40 179 -10.5 Q228 -61 300 -87.5 Q372 -114 464 -114 Q541 -114 613.5 -98 Q686 -82 749 -49 L777 -106 Q714 -140 635.5 -158.5 Q557 -177 467 -177 Q362 -177 278 -145.5 Q194 -114 135 -55 Q76 4 44.5 88.5 Q13 173 13 278 L13 297 Q13 392 43 473 Q73 554 128.5 612.5 Q184 671 264 704 Q344 737 444 737 Q554 737 638.5 705.5 Q723 674 780 618 Q837 562 866.5 483.5 Q896 405 896 311 L896 298 Q896 256 888 211 Q880 166 859.5 129.5 Q839 93 804 69 Q769 45 716 45 Z M325 254 Q325 181 355 148 Q385 115 443 115 Q498 115 532 145.5 Q566 176 566 237 L566 337 Q566 357 557.5 376.5 Q549 396 533.5 411.5 Q518 427 495 436.5 Q472 446 443 446 Q385 446 355 412 Q325 378 325 306 L325 254 Z " />
<glyph glyph-name="uniFF21" unicode="&#xff21;" horiz-adv-x="910" d="M762 -26 L687 -26 L607 198 L302 198 L220 -26 L148 -26 L416 695 L495 695 L762 -26 Z M324 259 L585 259 L515 454 Q508 472 502 489 Q496 506 489 526.5 Q482 547 474 572.5 Q466 598 455 633 Q445 598 437 572.5 Q429 547 422 526.5 Q415 506 409 489 Q403 472 396 454 L324 259 Z " />
<glyph glyph-name="uniFF22" unicode="&#xff22;" horiz-adv-x="910" d="M219 695 L449 695 Q678 695 678 519 L678 498 Q678 474 672 451.5 Q666 429 652.5 410 Q639 391 616.5 376.5 Q594 362 562 354 Q628 344 669.5 304 Q711 264 711 189 L711 164 Q711 75 654.5 24.5 Q598 -26 480 -26 L219 -26 L219 695 Z M288 36 L474 36 Q559 36 599.5 68.5 Q640 101 640 165 L640 187 Q640 220 631 245 Q622 270 600 287 Q578 304 542 312.5 Q506 321 452 321 L288 321 L288 36 Z M288 634 L288 380 L451 380 Q526 380 567 406 Q608 432 608 500 L608 518 Q608 582 568.5 608 Q529 634 444 634 L288 634 Z " />
<glyph glyph-name="uniFF23" unicode="&#xff23;" horiz-adv-x="910" d="M474 706 Q546 706 601.5 687.5 Q657 669 702 634 L666 579 Q617 614 573 627 Q529 640 474 640 Q424 640 385.5 621.5 Q347 603 321 569.5 Q295 536 281.5 489.5 Q268 443 268 386 L268 294 Q268 160 324.5 95 Q381 30 481 30 Q549 30 596.5 51.5 Q644 73 679 104 L720 49 Q680 13 623 -12 Q566 -37 480 -37 Q340 -37 268.5 50 Q197 137 197 294 L197 383 Q197 537 269.5 621.5 Q342 706 474 706 Z " />
<glyph glyph-name="uniFF24" unicode="&#xff24;" horiz-adv-x="910" d="M441 695 Q578 695 655.5 615.5 Q733 536 733 386 L733 283 Q733 133 655.5 53.5 Q578 -26 441 -26 L216 -26 L216 695 L441 695 Z M286 36 L442 36 Q490 36 531 51 Q572 66 601 97.5 Q630 129 646.5 176 Q663 223 663 288 L663 381 Q663 445 646.5 492.5 Q630 540 601 571.5 Q572 603 531 618 Q490 633 442 633 L286 633 L286 36 Z " />
<glyph glyph-name="uniFF25" unicode="&#xff25;" horiz-adv-x="910" d="M678 695 L678 633 L314 633 L314 375 L657 375 L657 313 L314 313 L314 36 L685 36 L685 -26 L244 -26 L244 695 L678 695 Z " />
<glyph glyph-name="uniFF26" unicode="&#xff26;" horiz-adv-x="910" d="M261 -26 L261 695 L689 695 L689 633 L331 633 L331 357 L668 357 L668 295 L331 295 L331 -26 L261 -26 Z " />
<glyph glyph-name="uniFF27" unicode="&#xff27;" horiz-adv-x="910" d="M471 706 Q547 706 603 687.5 Q659 669 704 634 L668 579 Q619 614 573.5 627 Q528 640 471 640 Q419 640 380 621.5 Q341 603 314.5 569.5 Q288 536 275 489.5 Q262 443 262 386 L262 294 Q262 30 485 30 Q507 30 530.5 32 Q554 34 576.5 38.5 Q599 43 619 50 Q639 57 654 66 L654 294 L484 294 L484 356 L722 356 L722 27 Q675 -7 614.5 -22 Q554 -37 482 -37 Q333 -37 262 50 Q191 137 191 294 L191 383 Q191 537 262.5 621.5 Q334 706 471 706 Z " />
<glyph glyph-name="uniFF28" unicode="&#xff28;" horiz-adv-x="910" d="M613 315 L242 315 L242 -26 L172 -26 L172 695 L242 695 L242 385 L613 385 L613 695 L683 695 L683 -26 L613 -26 L613 315 Z " />
<glyph glyph-name="uniFF29" unicode="&#xff29;" horiz-adv-x="910" d="M420 695 L490 695 L490 -26 L420 -26 L420 695 Z " />
<glyph glyph-name="uniFF2A" unicode="&#xff2a;" horiz-adv-x="910" d="M536 695 L606 695 L606 165 Q606 105 591 66 Q576 27 550.5 4 Q525 -19 492 -28 Q459 -37 422 -37 Q377 -37 332.5 -25 Q288 -13 253 18 L287 75 Q319 49 351 39 Q383 29 418 29 Q482 29 509 63 Q536 97 536 172 L536 695 Z " />
<glyph glyph-name="uniFF2B" unicode="&#xff2b;" horiz-adv-x="910" d="M416 387 L735 -26 L645 -26 L366 336 L274 241 L274 -26 L204 -26 L204 695 L274 695 L274 331 L622 695 L716 695 L416 387 Z " />
<glyph glyph-name="uniFF2C" unicode="&#xff2c;" horiz-adv-x="910" d="M325 695 L325 36 L686 36 L686 -26 L255 -26 L255 695 L325 695 Z " />
<glyph glyph-name="uniFF2D" unicode="&#xff2d;" horiz-adv-x="910" d="M231 502 Q225 515 220 524.5 Q215 534 211 544 Q207 554 203 565.5 Q199 577 195 593 L195 -26 L126 -26 L126 695 L212 695 L456 167 L701 695 L784 695 L784 -26 L715 -26 L715 593 Q712 577 708.5 565.5 Q705 554 701 544 Q697 534 692 524.5 Q687 515 681 502 L488 94 L422 94 L231 502 Z " />
<glyph glyph-name="uniFF2E" unicode="&#xff2e;" horiz-adv-x="910" d="M197 695 L280 695 L611 131 Q620 116 627 101.5 Q634 87 645 64 L645 695 L712 695 L712 -26 L629 -26 L297 540 Q288 556 281 569 Q274 582 264 605 L264 -26 L197 -26 L197 695 Z " />
<glyph glyph-name="uniFF2F" unicode="&#xff2f;" horiz-adv-x="910" d="M455 706 Q522 706 574 683.5 Q626 661 662 619 Q698 577 717 517.5 Q736 458 736 384 L736 285 Q736 211 717 151.5 Q698 92 662 50 Q626 8 574 -14.5 Q522 -37 455 -37 Q388 -37 336 -14.5 Q284 8 248 50 Q212 92 193 151.5 Q174 211 174 285 L174 384 Q174 458 192.5 517.5 Q211 577 247 619 Q283 661 335.5 683.5 Q388 706 455 706 Z M455 26 Q552 26 608.5 93.5 Q665 161 665 291 L665 378 Q665 508 608.5 575.5 Q552 643 455 643 Q358 643 301.5 575.5 Q245 508 245 378 L245 291 Q245 161 301.5 93.5 Q358 26 455 26 Z " />
<glyph glyph-name="uniFF30" unicode="&#xff30;" horiz-adv-x="910" d="M239 695 L483 695 Q540 695 583.5 679.5 Q627 664 656 636.5 Q685 609 699.5 571 Q714 533 714 489 L714 468 Q714 424 698.5 386 Q683 348 653.5 319.5 Q624 291 581 275 Q538 259 483 259 L309 259 L309 -26 L239 -26 L239 695 Z M309 632 L309 322 L466 322 Q559 322 601 362 Q643 402 643 470 L643 488 Q643 552 602.5 592 Q562 632 477 632 L309 632 Z " />
<glyph glyph-name="uniFF31" unicode="&#xff31;" horiz-adv-x="910" d="M447 706 Q514 706 566 683.5 Q618 661 654 619 Q690 577 709 517.5 Q728 458 728 384 L728 285 Q728 139 659 55 L743 -29 L698 -76 L611 11 Q543 -37 447 -37 Q380 -37 328 -14.5 Q276 8 240 50 Q204 92 185 151.5 Q166 211 166 285 L166 384 Q166 458 184.5 517.5 Q203 577 239 619 Q275 661 327.5 683.5 Q380 706 447 706 Z M447 26 Q514 26 562 59 L469 153 L514 200 L609 105 Q632 138 645 184.5 Q658 231 658 291 L658 378 Q658 507 600.5 575 Q543 643 447 643 Q351 643 293.5 575 Q236 507 236 378 L236 291 Q236 162 293.5 94 Q351 26 447 26 Z " />
<glyph glyph-name="uniFF32" unicode="&#xff32;" horiz-adv-x="910" d="M500 286 Q493 285 486.5 285 Q480 285 473 285 L293 285 L293 -26 L223 -26 L223 695 L472 695 Q526 695 568 680.5 Q610 666 639.5 639.5 Q669 613 684 577 Q699 541 699 499 L699 484 Q699 418 664 370.5 Q629 323 569 301 L714 -26 L639 -26 L500 286 Z M293 632 L293 348 L451 348 Q545 348 586.5 384.5 Q628 421 628 487 L628 497 Q628 560 587.5 596 Q547 632 462 632 L293 632 Z " />
<glyph glyph-name="uniFF33" unicode="&#xff33;" horiz-adv-x="910" d="M454 28 Q496 28 529.5 38 Q563 48 586.5 65.5 Q610 83 622 105.5 Q634 128 634 152 L634 173 Q634 198 626 218 Q618 238 597 254.5 Q576 271 539.5 284.5 Q503 298 445 311 Q382 325 339.5 343.5 Q297 362 271.5 385.5 Q246 409 235.5 437.5 Q225 466 225 500 L225 523 Q225 564 242.5 597.5 Q260 631 291.5 655 Q323 679 366.5 692.5 Q410 706 461 706 Q534 706 586 688.5 Q638 671 675 645 L642 588 Q607 613 562 627.5 Q517 642 461 642 Q428 642 398 634 Q368 626 345.5 610.5 Q323 595 309.5 573 Q296 551 296 523 L296 503 Q296 480 304.5 461 Q313 442 332.5 427 Q352 412 385 399 Q418 386 467 375 Q537 359 583 340.5 Q629 322 656 298 Q683 274 694 244 Q705 214 705 175 L705 152 Q705 113 688 79 Q671 45 639.5 19 Q608 -7 561.5 -22 Q515 -37 457 -37 Q385 -37 322.5 -15.5 Q260 6 212 43 L248 102 Q302 63 353.5 45.5 Q405 28 454 28 Z " />
<glyph glyph-name="uniFF34" unicode="&#xff34;" horiz-adv-x="910" d="M720 695 L720 633 L489 633 L489 -26 L419 -26 L419 633 L189 633 L189 695 L720 695 Z " />
<glyph glyph-name="uniFF35" unicode="&#xff35;" horiz-adv-x="910" d="M455 26 Q549 26 595.5 86 Q642 146 642 281 L642 695 L711 695 L711 255 Q711 105 643.5 34 Q576 -37 455 -37 Q333 -37 266 34 Q199 105 199 255 L199 695 L268 695 L268 281 Q268 146 314.5 86 Q361 26 455 26 Z " />
<glyph glyph-name="uniFF36" unicode="&#xff36;" horiz-adv-x="910" d="M157 695 L234 695 L456 46 L457 46 L679 695 L752 695 L494 -26 L414 -26 L157 695 Z " />
<glyph glyph-name="uniFF37" unicode="&#xff37;" horiz-adv-x="910" d="M6 695 L81 695 L243 49 L244 49 L416 695 L495 695 L667 49 L668 49 L831 695 L904 695 L705 -26 L625 -26 L454 614 L283 -26 L203 -26 L6 695 Z " />
<glyph glyph-name="uniFF38" unicode="&#xff38;" horiz-adv-x="910" d="M499 348 L741 -26 L655 -26 L454 301 L248 -26 L168 -26 L411 349 L180 695 L262 695 L458 393 L647 695 L726 695 L499 348 Z " />
<glyph glyph-name="uniFF39" unicode="&#xff39;" horiz-adv-x="910" d="M492 269 L492 -26 L422 -26 L422 269 L174 695 L253 695 L458 333 L658 695 L736 695 L492 269 Z " />
<glyph glyph-name="uniFF3A" unicode="&#xff3a;" horiz-adv-x="910" d="M702 648 L272 34 L721 34 L721 -26 L188 -26 L188 29 L613 635 L212 635 L212 695 L702 695 L702 648 Z " />
<glyph glyph-name="uniFF3B" unicode="&#xff3b;" horiz-adv-x="910" d="M872 -170 L637 -170 L637 766 L872 766 L872 704 L704 704 L704 -108 L872 -108 L872 -170 Z " />
<glyph glyph-name="uniFFE6" unicode="&#xffe6;" horiz-adv-x="910" d="M22 404 L120 404 L50 695 L117 695 L181 404 L350 404 L420 695 L492 695 L562 404 L732 404 L798 695 L862 695 L791 404 L889 404 L889 353 L778 353 L686 -26 L610 -26 L519 353 L391 353 L300 -26 L224 -26 L132 353 L22 353 L22 404 Z M649 49 L652 49 L720 353 L575 353 L649 49 Z M261 49 L264 49 L337 353 L193 353 L261 49 Z M403 404 L507 404 L455 620 L403 404 Z " />
<glyph glyph-name="uniFF3D" unicode="&#xff3d;" horiz-adv-x="910" d="M38 -108 L206 -108 L206 704 L38 704 L38 766 L273 766 L273 -170 L38 -170 L38 -108 Z " />
<glyph glyph-name="uniFF3E" unicode="&#xff3e;" horiz-adv-x="910" d="M597 401 L455 663 L313 401 L243 401 L423 724 L488 724 L667 401 L597 401 Z " />
<glyph glyph-name="uniFF3F" unicode="&#xff3f;" horiz-adv-x="910" d="M695 -130 L215 -130 L215 -75 L695 -75 L695 -130 Z " />
<glyph glyph-name="uniFF40" unicode="&#xff40;" horiz-adv-x="910" d="M475 568 L351 709 L434 709 L539 568 L475 568 Z " />
<glyph glyph-name="uniFF41" unicode="&#xff41;" horiz-adv-x="910" d="M423 -34 Q346 -34 298 7 Q250 48 250 120 L250 142 Q250 208 298 249 Q346 290 440 290 L592 290 L592 340 Q592 399 559.5 430.5 Q527 462 464 462 Q420 462 380 446.5 Q340 431 305 407 L272 459 Q310 485 356.5 504 Q403 523 465 523 Q556 523 607.5 478 Q659 433 659 351 L659 -26 L593 -26 L593 40 L592 40 Q584 27 568.5 13.5 Q553 0 532 -11 Q486 -34 423 -34 Z M592 233 L441 233 Q376 233 347 207 Q318 181 318 139 L318 123 Q318 97 328 78.5 Q338 60 354.5 48 Q371 36 391.5 30.5 Q412 25 433 25 Q465 25 491 33 Q517 41 541 56 Q563 70 577.5 90.5 Q592 111 592 142 L592 233 Z " />
<glyph glyph-name="uniFF42" unicode="&#xff42;" horiz-adv-x="910" d="M320 38 L320 -26 L253 -26 L253 730 L321 730 L321 437 Q345 478 388 500.5 Q431 523 482 523 Q530 523 569.5 507.5 Q609 492 637 462.5 Q665 433 680.5 390 Q696 347 696 292 L696 197 Q696 142 680 99 Q664 56 635.5 26.5 Q607 -3 567.5 -18.5 Q528 -34 482 -34 Q425 -34 384 -12.5 Q343 9 321 38 L320 38 Z M628 282 Q628 369 587.5 415 Q547 461 478 461 Q450 461 422 451 Q394 441 371.5 421.5 Q349 402 335 374.5 Q321 347 321 311 L321 153 Q321 129 332.5 106.5 Q344 84 365 66 Q386 48 414.5 37 Q443 26 478 26 Q547 26 587.5 73.5 Q628 121 628 207 L628 282 Z " />
<glyph glyph-name="uniFF43" unicode="&#xff43;" horiz-adv-x="910" d="M480 523 Q537 523 580 509.5 Q623 496 657 470 L626 417 Q588 443 553 452.5 Q518 462 480 462 Q408 462 367 414.5 Q326 367 326 282 L326 213 Q326 124 368 76 Q410 28 482 28 Q538 28 574.5 43.5 Q611 59 640 81 L672 27 Q657 16 639 5 Q621 -6 598 -14.5 Q575 -23 546 -28.5 Q517 -34 481 -34 Q375 -34 316 30.5 Q257 95 257 213 L257 280 Q257 339 273.5 384.5 Q290 430 319 460.5 Q348 491 389 507 Q430 523 480 523 Z " />
<glyph glyph-name="uniFF44" unicode="&#xff44;" horiz-adv-x="910" d="M590 45 L589 45 Q566 4 521 -15 Q476 -34 429 -34 Q382 -34 343 -18.5 Q304 -3 275 26.5 Q246 56 230 99 Q214 142 214 197 L214 292 Q214 347 230 390 Q246 433 274.5 462.5 Q303 492 342.5 507.5 Q382 523 428 523 Q488 523 528 500 Q568 477 589 447 L589 730 L657 730 L657 -26 L590 -26 L590 45 Z M282 207 Q282 120 323 73 Q364 26 432 26 Q465 26 493.5 34.5 Q522 43 543 60.5 Q564 78 576.5 104.5 Q589 131 589 167 L589 329 Q589 353 577.5 376.5 Q566 400 545 419.5 Q524 439 495 451 Q466 463 432 463 Q363 463 322.5 415.5 Q282 368 282 282 L282 207 Z " />
<glyph glyph-name="uniFF45" unicode="&#xff45;" horiz-adv-x="910" d="M605 279 L605 288 Q605 373 566 418 Q527 463 456 463 Q384 463 344.5 415.5 Q305 368 305 288 L305 279 L605 279 Z M661 27 Q629 4 581 -15 Q533 -34 465 -34 Q357 -34 297 30.5 Q237 95 237 213 L237 280 Q237 395 295.5 459 Q354 523 456 523 Q562 523 617.5 457.5 Q673 392 673 278 L673 222 L305 222 L305 213 Q305 123 348 74.5 Q391 26 466 26 Q520 26 561 42 Q602 58 631 79 L661 27 Z " />
<glyph glyph-name="uniFF46" unicode="&#xff46;" horiz-adv-x="910" d="M386 455 L294 455 L294 513 L386 513 L386 581 Q386 625 395 654.5 Q404 684 421.5 702 Q439 720 465 728 Q491 736 525 736 Q547 736 573.5 732.5 Q600 729 616 723 L606 667 Q570 677 530 677 Q489 677 471.5 655 Q454 633 454 578 L454 513 L603 513 L603 455 L454 455 L454 -26 L386 -26 L386 455 Z " />
<glyph glyph-name="uniFF47" unicode="&#xff47;" horiz-adv-x="910" d="M589 55 L588 55 Q565 14 520.5 -5 Q476 -24 429 -24 Q382 -24 343 -8.5 Q304 7 275 36.5 Q246 66 230 109 Q214 152 214 207 L214 292 Q214 347 230 390 Q246 433 274.5 462.5 Q303 492 342.5 507.5 Q382 523 428 523 Q488 523 528.5 500 Q569 477 590 447 L590 513 L657 513 L657 -17 Q657 -132 597.5 -190.5 Q538 -249 437 -249 Q380 -249 335.5 -234 Q291 -219 257 -193 L288 -140 Q307 -153 324 -161.5 Q341 -170 358.5 -175.5 Q376 -181 395 -183 Q414 -185 437 -185 Q512 -185 550.5 -144.5 Q589 -104 589 -19 L589 55 Z M282 217 Q282 130 323 83 Q364 36 432 36 Q465 36 493.5 44.5 Q522 53 543 70.5 Q564 88 576.5 114.5 Q589 141 589 177 L589 329 Q589 353 577.5 376.5 Q566 400 545 419.5 Q524 439 495 451 Q466 463 432 463 Q363 463 322.5 415.5 Q282 368 282 282 L282 217 Z " />
<glyph glyph-name="uniFF48" unicode="&#xff48;" horiz-adv-x="910" d="M474 523 Q567 523 617.5 472.5 Q668 422 668 337 L668 -26 L600 -26 L600 320 Q600 349 594 374.5 Q588 400 572.5 419.5 Q557 439 530.5 450 Q504 461 464 461 Q430 461 401.5 448.5 Q373 436 353 416 Q333 396 321.5 372 Q310 348 310 324 L310 -26 L242 -26 L242 730 L310 730 L310 438 Q319 453 334 468.5 Q349 484 369.5 496 Q390 508 416 515.5 Q442 523 474 523 Z " />
<glyph glyph-name="uniFF49" unicode="&#xff49;" horiz-adv-x="910" d="M421 513 L489 513 L489 -26 L421 -26 L421 513 Z M418 692 L492 692 L492 616 L418 616 L418 692 Z " />
<glyph glyph-name="uniFF4A" unicode="&#xff4a;" horiz-adv-x="910" d="M497 692 L571 692 L571 616 L497 616 L497 692 Z M568 -92 Q568 -180 532.5 -214.5 Q497 -249 429 -249 Q407 -249 380.5 -245.5 Q354 -242 338 -236 L348 -180 Q384 -190 424 -190 Q465 -190 482.5 -167 Q500 -144 500 -89 L500 513 L568 513 L568 -92 Z " />
<glyph glyph-name="uniFF4B" unicode="&#xff4b;" horiz-adv-x="910" d="M439 306 L674 -26 L591 -26 L391 261 L304 177 L304 -26 L236 -26 L236 730 L304 730 L304 258 L564 513 L655 513 L439 306 Z " />
<glyph glyph-name="uniFF4C" unicode="&#xff4c;" horiz-adv-x="910" d="M421 730 L489 730 L489 -26 L421 -26 L421 730 Z " />
<glyph glyph-name="uniFF4D" unicode="&#xff4d;" horiz-adv-x="910" d="M639 523 Q731 523 773.5 473 Q816 423 816 337 L816 -26 L748 -26 L748 319 Q748 352 742.5 378 Q737 404 723.5 422.5 Q710 441 686.5 451 Q663 461 627 461 Q594 461 569 449 Q544 437 526.5 418 Q509 399 499.5 375 Q490 351 489 328 L489 -26 L421 -26 L421 319 Q421 352 415.5 378 Q410 404 396.5 422.5 Q383 441 359.5 451 Q336 461 300 461 Q267 461 241 448.5 Q215 436 197.5 416 Q180 396 171 372 Q162 348 162 324 L162 -26 L94 -26 L94 513 L161 513 L161 438 Q170 454 183.5 469.5 Q197 485 216 497 Q235 509 258.5 516 Q282 523 312 523 Q377 523 417 497.5 Q457 472 475 425 Q484 442 498.5 459.5 Q513 477 533.5 491 Q554 505 580.5 514 Q607 523 639 523 Z " />
<glyph glyph-name="uniFF4E" unicode="&#xff4e;" horiz-adv-x="910" d="M474 523 Q567 523 617.5 472.5 Q668 422 668 337 L668 -26 L600 -26 L600 320 Q600 349 594 374.5 Q588 400 572.5 419.5 Q557 439 530.5 450 Q504 461 464 461 Q430 461 401.5 448.5 Q373 436 353 416 Q333 396 321.5 372 Q310 348 310 324 L310 -26 L242 -26 L242 513 L309 513 L309 438 Q318 453 333 468.5 Q348 484 369 496 Q390 508 416 515.5 Q442 523 474 523 Z " />
<glyph glyph-name="uniFF4F" unicode="&#xff4f;" horiz-adv-x="910" d="M455 523 Q564 523 624 459 Q684 395 684 278 L684 211 Q684 94 624 30 Q564 -34 455 -34 Q346 -34 286 30 Q226 94 226 211 L226 278 Q226 396 286 459.5 Q346 523 455 523 Z M455 26 Q530 26 572.5 72.5 Q615 119 615 215 L615 274 Q615 370 572.5 416.5 Q530 463 455 463 Q380 463 337.5 416.5 Q295 370 295 274 L295 215 Q295 119 337.5 72.5 Q380 26 455 26 Z " />
<glyph glyph-name="uniFF50" unicode="&#xff50;" horiz-adv-x="910" d="M321 38 L321 -240 L253 -240 L253 513 L320 513 L320 437 Q344 478 387.5 500.5 Q431 523 482 523 Q530 523 569.5 507.5 Q609 492 637 462.5 Q665 433 680.5 390 Q696 347 696 292 L696 197 Q696 142 680 99 Q664 56 635.5 26.5 Q607 -3 567.5 -18.5 Q528 -34 482 -34 Q425 -34 384.5 -12.5 Q344 9 322 38 L321 38 Z M628 282 Q628 369 587.5 415 Q547 461 478 461 Q450 461 422 451 Q394 441 371.5 421.5 Q349 402 335 374.5 Q321 347 321 311 L321 153 Q321 129 332.5 106.5 Q344 84 365 66 Q386 48 414.5 37 Q443 26 478 26 Q547 26 587.5 73.5 Q628 121 628 207 L628 282 Z " />
<glyph glyph-name="uniFF51" unicode="&#xff51;" horiz-adv-x="910" d="M589 45 L588 45 Q565 4 520.5 -15 Q476 -34 429 -34 Q382 -34 343 -18.5 Q304 -3 275 26.5 Q246 56 230 99 Q214 142 214 197 L214 292 Q214 347 230 390 Q246 433 274.5 462.5 Q303 492 342.5 507.5 Q382 523 428 523 Q488 523 528.5 500 Q569 477 590 447 L590 513 L657 513 L657 -240 L589 -240 L589 45 Z M282 207 Q282 120 323 73 Q364 26 432 26 Q465 26 493.5 34.5 Q522 43 543 60.5 Q564 78 576.5 104.5 Q589 131 589 167 L589 329 Q589 353 577.5 376.5 Q566 400 545 419.5 Q524 439 495 451 Q466 463 432 463 Q363 463 322.5 415.5 Q282 368 282 282 L282 207 Z " />
<glyph glyph-name="uniFF52" unicode="&#xff52;" horiz-adv-x="910" d="M583 443 Q555 454 518 454 Q485 454 458 441 Q431 428 412 405 Q393 382 383 350 Q373 318 373 280 L373 -26 L305 -26 L305 513 L372 513 L372 418 Q381 437 394.5 456 Q408 475 427.5 490 Q447 505 471.5 514 Q496 523 527 523 Q550 523 568.5 520.5 Q587 518 604 512 L583 443 Z " />
<glyph glyph-name="uniFF53" unicode="&#xff53;" horiz-adv-x="910" d="M455 27 Q521 27 555 53 Q589 79 589 114 L589 124 Q589 165 555.5 186 Q522 207 444 222 Q403 230 370 241 Q337 252 314 269 Q291 286 278 309.5 Q265 333 265 366 L265 380 Q265 409 277 435 Q289 461 313 480.5 Q337 500 373.5 511.5 Q410 523 460 523 Q522 523 567 507.5 Q612 492 645 467 L614 416 Q580 439 545 451 Q510 463 458 463 Q397 463 365 438.5 Q333 414 333 379 L333 368 Q333 333 368.5 313 Q404 293 468 281 Q568 262 612.5 227 Q657 192 657 127 L657 112 Q657 80 642 53 Q627 26 600.5 6.5 Q574 -13 538 -23.5 Q502 -34 459 -34 Q393 -34 341.5 -16.5 Q290 1 252 29 L285 83 Q322 58 364.5 42.5 Q407 27 455 27 Z " />
<glyph glyph-name="uniFF54" unicode="&#xff54;" horiz-adv-x="910" d="M386 455 L294 455 L294 513 L386 513 L386 652 L454 652 L454 513 L603 513 L603 455 L454 455 L454 127 Q454 72 471.5 50 Q489 28 530 28 Q570 28 606 38 L616 -18 Q600 -24 573.5 -27.5 Q547 -31 525 -31 Q490 -31 463.5 -23 Q437 -15 420 3 Q403 21 394.5 50.5 Q386 80 386 124 L386 455 Z " />
<glyph glyph-name="uniFF55" unicode="&#xff55;" horiz-adv-x="910" d="M432 -34 Q340 -34 292 17 Q244 68 244 152 L244 513 L312 513 L312 169 Q312 140 317.5 114.5 Q323 89 337 69.5 Q351 50 376.5 39 Q402 28 442 28 Q476 28 504.5 40 Q533 52 553.5 71.5 Q574 91 585.5 115 Q597 139 597 163 L597 513 L665 513 L665 -26 L598 -26 L598 49 Q579 18 537.5 -8 Q496 -34 432 -34 Z " />
<glyph glyph-name="uniFF56" unicode="&#xff56;" horiz-adv-x="910" d="M418 -26 L221 513 L294 513 L457 44 L617 513 L688 513 L494 -26 L418 -26 Z " />
<glyph glyph-name="uniFF57" unicode="&#xff57;" horiz-adv-x="910" d="M245 -26 L98 513 L167 513 L286 42 L418 513 L495 513 L630 42 L746 513 L812 513 L668 -26 L589 -26 L455 437 L324 -26 L245 -26 Z " />
<glyph glyph-name="uniFF58" unicode="&#xff58;" horiz-adv-x="910" d="M497 253 L687 -26 L608 -26 L455 211 L297 -26 L222 -26 L414 253 L233 513 L309 513 L457 293 L604 513 L678 513 L497 253 Z " />
<glyph glyph-name="uniFF59" unicode="&#xff59;" horiz-adv-x="910" d="M289 513 L456 50 L620 513 L690 513 L410 -249 L352 -228 L421 -35 L219 513 L289 513 Z " />
<glyph glyph-name="uniFF5A" unicode="&#xff5a;" horiz-adv-x="910" d="M652 467 L323 30 L666 30 L666 -26 L243 -26 L243 26 L568 457 L263 457 L263 513 L652 513 L652 467 Z " />
<glyph glyph-name="uniFF5B" unicode="&#xff5b;" horiz-adv-x="910" d="M529 343 Q584 344 609.5 363.5 Q635 383 635 426 L635 627 Q635 701 668.5 733.5 Q702 766 779 766 L872 766 L872 705 L788 705 Q745 705 723.5 690.5 Q702 676 702 625 L702 433 Q702 415 699.5 396 Q697 377 689 360 Q681 343 665.5 329.5 Q650 316 624 310 Q649 304 664.5 291.5 Q680 279 688.5 262 Q697 245 699.5 225.5 Q702 206 702 187 L702 -35 Q702 -61 707.5 -75.5 Q713 -90 724 -97.5 Q735 -105 751 -107 Q767 -109 788 -109 L872 -109 L872 -170 L779 -170 Q702 -170 668.5 -140 Q635 -110 635 -37 L635 193 Q635 237 609.5 257 Q584 277 529 278 L529 343 Z " />
<glyph glyph-name="uniFF5C" unicode="&#xff5c;" horiz-adv-x="910" d="M485 -170 L424 -170 L424 765 L485 765 L485 -170 Z " />
<glyph glyph-name="uniFF5D" unicode="&#xff5d;" horiz-adv-x="910" d="M381 278 Q326 277 300.5 257 Q275 237 275 193 L275 -37 Q275 -110 241.5 -140 Q208 -170 131 -170 L38 -170 L38 -109 L122 -109 Q143 -109 159 -107 Q175 -105 186 -97.5 Q197 -90 202.5 -75.5 Q208 -61 208 -35 L208 187 Q208 206 210.5 225.5 Q213 245 221.5 262 Q230 279 245 291.5 Q260 304 286 310 Q260 316 244.5 329.5 Q229 343 221 360 Q213 377 210.5 396 Q208 415 208 433 L208 625 Q208 676 186.5 690.5 Q165 705 122 705 L38 705 L38 766 L131 766 Q208 766 241.5 733.5 Q275 701 275 627 L275 426 Q275 383 300.5 363.5 Q326 344 381 343 L381 278 Z " />
<glyph glyph-name="&amp;#x203e;" unicode="&#x203e;" horiz-adv-x="910" d="M905 723 L5 723 L5 762 L905 762 L905 723 Z " />
<glyph glyph-name="&amp;#xffe3;" unicode="&#xffe3;" horiz-adv-x="910" d="M905 723 L5 723 L5 762 L905 762 L905 723 Z " />
<glyph glyph-name="uni3131" unicode="&#x3131;" horiz-adv-x="910" d="M656 60 L656 475 L153 475 L153 540 L728 540 L728 60 L656 60 Z " />
<glyph glyph-name="uni3132" unicode="&#x3132;" horiz-adv-x="910" d="M348 60 L348 475 L114 475 L114 540 L420 540 L420 60 L348 60 Z M701 60 L701 475 L467 475 L467 540 L773 540 L773 60 L701 60 Z " />
<glyph glyph-name="uni3133" unicode="&#x3133;" horiz-adv-x="910" d="M339 60 L339 471 L135 471 L135 536 L411 536 L411 60 L339 60 Z M656 258 Q655 252 646.5 234 Q638 216 618 190 Q609 178 599.5 166 Q590 154 577 138 Q564 122 545.5 100.5 Q527 79 499 49 L452 96 Q476 121 493.5 141.5 Q511 162 525.5 178.5 Q540 195 551 209.5 Q562 224 572 238 Q588 260 597 276 Q606 292 611 307 Q616 322 617.5 339 Q619 356 619 382 L619 544 L693 544 L693 382 Q693 356 694.5 339 Q696 322 700.5 307 Q705 292 714 276 Q723 260 739 238 Q749 224 760 209.5 Q771 195 785.5 178.5 Q800 162 817.5 141.5 Q835 121 859 96 L813 49 Q785 79 766.5 100.5 Q748 122 735 138 Q722 154 713 166 Q704 178 695 190 Q675 216 666.5 234 Q658 252 657 258 L656 258 Z " />
<glyph glyph-name="uni3134" unicode="&#x3134;" horiz-adv-x="910" d="M254 550 L254 125 L766 125 L766 60 L182 60 L182 550 L254 550 Z " />
<glyph glyph-name="uni3135" unicode="&#x3135;" horiz-adv-x="910" d="M613 262 Q611 252 605 235.5 Q599 219 581 190 Q573 178 564.5 165 Q556 152 543.5 136 Q531 120 513.5 98 Q496 76 470 46 L422 87 Q444 112 460.5 132.5 Q477 153 490 170 Q503 187 513 202 Q523 217 532 232 Q545 254 553.5 270.5 Q562 287 567 302.5 Q572 318 573.5 335.5 Q575 353 575 379 L575 482 L443 482 L443 543 L779 543 L779 482 L648 482 L648 379 Q648 353 650 335.5 Q652 318 656.5 302.5 Q661 287 669.5 270.5 Q678 254 692 232 Q701 217 711 202.5 Q721 188 734 170.5 Q747 153 763.5 132.5 Q780 112 802 87 L755 46 Q729 76 712 98 Q695 120 683 136 Q671 152 662.5 165 Q654 178 646 190 Q628 219 622 235.5 Q616 252 614 262 L613 262 Z M229 115 L261 115 Q294 115 332.5 117.5 Q371 120 408 125 L414 61 Q372 55 332 52.5 Q292 50 250 50 L157 50 L157 540 L229 540 L229 115 Z " />
<glyph glyph-name="uni3136" unicode="&#x3136;" horiz-adv-x="910" d="M748 187 Q748 158 738.5 131 Q729 104 709.5 83 Q690 62 660.5 49.5 Q631 37 592 37 Q553 37 523.5 49.5 Q494 62 474.5 83 Q455 104 445.5 131 Q436 158 436 187 L436 221 Q436 249 445.5 276 Q455 303 474.5 324 Q494 345 523.5 358 Q553 371 592 371 Q631 371 660.5 358 Q690 345 709.5 324 Q729 303 738.5 276 Q748 249 748 221 L748 187 Z M221 115 L268 115 Q301 115 339.5 117.5 Q378 120 415 125 L421 61 Q379 55 339 52.5 Q299 50 257 50 L149 50 L149 540 L221 540 L221 115 Z M682 217 Q682 256 659.5 282.5 Q637 309 592 309 Q547 309 524.5 282.5 Q502 256 502 217 L502 191 Q502 152 524.5 125.5 Q547 99 592 99 Q637 99 659.5 125.5 Q682 152 682 191 L682 217 Z M627 474 L781 474 L781 414 L403 414 L403 474 L557 474 L557 566 L627 566 L627 474 Z " />
<glyph glyph-name="uni3137" unicode="&#x3137;" horiz-adv-x="910" d="M172 58 L172 542 L742 542 L742 477 L244 477 L244 123 L747 123 L747 58 L172 58 Z " />
<glyph glyph-name="uni3138" unicode="&#x3138;" horiz-adv-x="910" d="M158 58 L158 542 L433 542 L433 477 L230 477 L230 123 L436 123 L436 58 L158 58 Z M487 58 L487 542 L774 542 L774 477 L559 477 L559 123 L777 123 L777 58 L487 58 Z " />
<glyph glyph-name="uni3139" unicode="&#x3139;" horiz-adv-x="910" d="M175 47 L175 335 L681 335 L681 489 L175 489 L175 553 L753 553 L753 271 L247 271 L247 111 L768 111 L768 47 L175 47 Z " />
<glyph glyph-name="uni313A" unicode="&#x313a;" horiz-adv-x="910" d="M145 59 L145 332 L366 332 L366 479 L145 479 L145 543 L437 543 L437 270 L216 270 L216 123 L448 123 L448 59 L145 59 Z M712 59 L712 478 L486 478 L486 543 L784 543 L784 59 L712 59 Z " />
<glyph glyph-name="uni313B" unicode="&#x313b;" horiz-adv-x="910" d="M135 58 L135 332 L348 332 L348 479 L135 479 L135 543 L419 543 L419 270 L206 270 L206 122 L427 122 L427 58 L135 58 Z M478 58 L478 543 L783 543 L783 58 L478 58 Z M711 478 L550 478 L550 123 L711 123 L711 478 Z " />
<glyph glyph-name="uni313C" unicode="&#x313c;" horiz-adv-x="910" d="M135 58 L135 332 L348 332 L348 479 L135 479 L135 543 L419 543 L419 270 L206 270 L206 122 L427 122 L427 58 L135 58 Z M479 58 L479 543 L551 543 L551 368 L712 368 L712 543 L784 543 L784 58 L479 58 Z M712 304 L551 304 L551 123 L712 123 L712 304 Z " />
<glyph glyph-name="uni313D" unicode="&#x313d;" horiz-adv-x="910" d="M137 58 L137 332 L350 332 L350 479 L137 479 L137 543 L421 543 L421 270 L208 270 L208 122 L425 122 L425 58 L137 58 Z M639 259 Q638 253 629.5 234 Q621 215 601 189 Q592 177 583 165 Q574 153 561 137.5 Q548 122 529.5 100.5 Q511 79 484 49 L437 96 Q461 121 478.5 141.5 Q496 162 509.5 179 Q523 196 534 210.5 Q545 225 555 239 Q571 261 580 277 Q589 293 594 307.5 Q599 322 600.5 339 Q602 356 602 382 L602 544 L676 544 L676 382 Q676 356 677.5 339 Q679 322 683.5 307.5 Q688 293 697 277 Q706 261 722 239 Q732 225 743 210.5 Q754 196 767.5 179 Q781 162 798.5 141.5 Q816 121 840 96 L794 49 Q767 79 748.5 100.5 Q730 122 717.5 137.5 Q705 153 696 165 Q687 177 678 189 Q658 215 649.5 234 Q641 253 640 259 L639 259 Z " />
<glyph glyph-name="uni313E" unicode="&#x313e;" horiz-adv-x="910" d="M472 58 L472 543 L772 543 L772 478 L544 478 L544 332 L763 332 L763 269 L544 269 L544 123 L777 123 L777 58 L472 58 Z M132 58 L132 332 L345 332 L345 479 L132 479 L132 543 L416 543 L416 270 L203 270 L203 122 L424 122 L424 58 L132 58 Z " />
<glyph glyph-name="uni313F" unicode="&#x313f;" horiz-adv-x="910" d="M775 482 L716 482 L716 122 L779 122 L779 58 L446 58 L446 122 L508 122 L508 482 L450 482 L450 543 L775 543 L775 482 Z M130 58 L130 332 L333 332 L333 479 L130 479 L130 543 L404 543 L404 270 L201 270 L201 122 L412 122 L412 58 L130 58 Z M650 122 L650 482 L574 482 L574 122 L650 122 Z " />
<glyph glyph-name="uni3140" unicode="&#x3140;" horiz-adv-x="910" d="M763 187 Q763 158 753.5 131 Q744 104 724.5 83 Q705 62 675.5 49.5 Q646 37 607 37 Q568 37 538.5 49.5 Q509 62 489.5 83 Q470 104 460.5 131 Q451 158 451 187 L451 221 Q451 249 460.5 276 Q470 303 489.5 324 Q509 345 538.5 358 Q568 371 607 371 Q646 371 675.5 358 Q705 345 724.5 324 Q744 303 753.5 276 Q763 249 763 221 L763 187 Z M126 58 L126 332 L327 332 L327 479 L126 479 L126 543 L398 543 L398 270 L197 270 L197 122 L414 122 L414 58 L126 58 Z M697 217 Q697 256 674.5 282.5 Q652 309 607 309 Q562 309 539.5 282.5 Q517 256 517 217 L517 191 Q517 152 539.5 125.5 Q562 99 607 99 Q652 99 674.5 125.5 Q697 152 697 191 L697 217 Z M642 474 L791 474 L791 414 L427 414 L427 474 L572 474 L572 566 L642 566 L642 474 Z " />
<glyph glyph-name="uni3141" unicode="&#x3141;" horiz-adv-x="910" d="M167 58 L167 544 L743 544 L743 58 L167 58 Z M671 479 L239 479 L239 123 L671 123 L671 479 Z " />
<glyph glyph-name="uni3142" unicode="&#x3142;" horiz-adv-x="910" d="M167 57 L167 553 L239 553 L239 367 L671 367 L671 553 L743 553 L743 57 L167 57 Z M671 303 L239 303 L239 122 L671 122 L671 303 Z " />
<glyph glyph-name="uni3143" unicode="&#x3143;" horiz-adv-x="910" d="M138 58 L138 552 L206 552 L206 363 L354 363 L354 552 L422 552 L422 58 L138 58 Z M354 300 L206 300 L206 122 L354 122 L354 300 Z M488 58 L488 552 L556 552 L556 363 L704 363 L704 552 L772 552 L772 58 L488 58 Z M704 300 L556 300 L556 122 L704 122 L704 300 Z " />
<glyph glyph-name="uni3144" unicode="&#x3144;" horiz-adv-x="910" d="M639 258 Q638 252 629.5 234 Q621 216 601 190 Q592 178 582.5 166 Q573 154 560 138 Q547 122 528.5 100.5 Q510 79 482 49 L435 96 Q459 121 476.5 141.5 Q494 162 508.5 178.5 Q523 195 534 209.5 Q545 224 555 238 Q571 260 580 276 Q589 292 594 307 Q599 322 600.5 339 Q602 356 602 382 L602 552 L676 552 L676 382 Q676 356 677.5 339 Q679 322 683.5 307 Q688 292 697 276 Q706 260 722 238 Q732 224 743 209.5 Q754 195 768.5 178.5 Q783 162 800.5 141.5 Q818 121 842 96 L796 49 Q768 79 749.5 100.5 Q731 122 718 138 Q705 154 696 166 Q687 178 678 190 Q658 216 649.5 234 Q641 252 640 258 L639 258 Z M131 58 L131 552 L201 552 L201 363 L354 363 L354 552 L424 552 L424 58 L131 58 Z M354 300 L201 300 L201 122 L354 122 L354 300 Z " />
<glyph glyph-name="uni3145" unicode="&#x3145;" horiz-adv-x="910" d="M491 443 Q491 406 494 380.5 Q497 355 508.5 332.5 Q520 310 543.5 286.5 Q567 263 608 231 Q640 207 682 179 Q724 151 785 113 L745 56 Q676 102 627.5 135.5 Q579 169 546 195 Q505 227 485 248.5 Q465 270 455 287 L454 287 Q444 269 424 247.5 Q404 226 363 194 Q330 168 281.5 134.5 Q233 101 164 55 L124 113 Q185 151 227 179 Q269 207 301 231 Q342 263 365.5 286.5 Q389 310 400.5 332.5 Q412 355 415 380.5 Q418 406 418 443 L418 560 L491 560 L491 443 Z " />
<glyph glyph-name="uni3146" unicode="&#x3146;" horiz-adv-x="910" d="M319 562 L319 412 Q319 368 323 339 Q327 310 341.5 284 Q356 258 383 227.5 Q410 197 455 149 Q500 197 527 227.5 Q554 258 568.5 284 Q583 310 587 339 Q591 368 591 412 L591 562 L660 562 L660 412 Q660 368 666.5 336 Q673 304 693.5 271.5 Q714 239 752 200 Q790 161 852 104 L809 59 Q723 134 680 184 Q637 234 625 260 L624 260 Q616 238 575.5 190.5 Q535 143 455 64 Q375 143 334.5 190.5 Q294 238 286 260 L285 260 Q273 234 230 184 Q187 134 101 59 L58 104 Q120 161 158 200 Q196 239 216.5 271.5 Q237 304 243.5 336 Q250 368 250 412 L250 562 L319 562 Z " />
<glyph glyph-name="uni3147" unicode="&#x3147;" horiz-adv-x="910" d="M170 330 Q170 378 191.5 419.5 Q213 461 251.5 491.5 Q290 522 342 539.5 Q394 557 455 557 Q516 557 568 539.5 Q620 522 658 491.5 Q696 461 718 419.5 Q740 378 740 330 L740 281 Q740 233 718 191.5 Q696 150 658 119.5 Q620 89 568 71.5 Q516 54 455 54 Q394 54 342 71.5 Q290 89 251.5 119.5 Q213 150 191.5 191.5 Q170 233 170 281 L170 330 Z M455 493 Q406 493 366 480 Q326 467 297.5 444.5 Q269 422 253.5 391.5 Q238 361 238 327 L238 284 Q238 250 253.5 219.5 Q269 189 297.5 166.5 Q326 144 366 131 Q406 118 455 118 Q504 118 544 131 Q584 144 612.5 166.5 Q641 189 656.5 219.5 Q672 250 672 284 L672 327 Q672 361 656.5 391.5 Q641 422 612.5 444.5 Q584 467 544 480 Q504 493 455 493 Z " />
<glyph glyph-name="uni3148" unicode="&#x3148;" horiz-adv-x="910" d="M160 551 L750 551 L750 490 L491 490 L491 440 Q491 403 494 377.5 Q497 352 508.5 329.5 Q520 307 543.5 283.5 Q567 260 608 228 Q640 204 682 176 Q724 148 785 110 L745 53 Q676 99 627.5 132.5 Q579 166 546 192 Q505 224 485 245.5 Q465 267 455 284 L454 284 Q444 266 424 244.5 Q404 223 363 191 Q330 165 281.5 131.5 Q233 98 164 52 L124 110 Q185 148 227 176 Q269 204 301 228 Q342 260 365.5 283.5 Q389 307 400.5 329.5 Q412 352 415 377.5 Q418 403 418 440 L418 490 L160 490 L160 551 Z " />
<glyph glyph-name="uni3149" unicode="&#x3149;" horiz-adv-x="910" d="M125 551 L785 551 L785 490 L650 490 L650 412 Q650 372 654 343 Q658 314 676 283.5 Q694 253 730.5 214 Q767 175 832 114 L789 69 Q747 107 716.5 136.5 Q686 166 665.5 189 Q645 212 633 229.5 Q621 247 615 260 L614 260 Q610 249 599.5 234 Q589 219 570.5 196.5 Q552 174 523.5 144 Q495 114 455 74 Q415 114 386.5 144 Q358 174 339.5 196.5 Q321 219 310.5 234 Q300 249 296 260 L295 260 Q289 247 277 229.5 Q265 212 244.5 189 Q224 166 193.5 136 Q163 106 121 69 L78 114 Q143 175 179.5 214 Q216 253 234 283.5 Q252 314 256 343 Q260 372 260 412 L260 490 L125 490 L125 551 Z M329 412 Q329 372 331.5 346 Q334 320 346.5 295 Q359 270 384.5 239 Q410 208 455 159 Q500 208 525.5 239 Q551 270 563.5 295 Q576 320 578.5 346 Q581 372 581 412 L581 490 L329 490 L329 412 Z " />
<glyph glyph-name="uni314A" unicode="&#x314a;" horiz-adv-x="910" d="M491 501 L761 501 L761 439 L491 439 Q491 403 494 377 Q497 351 508.5 328.5 Q520 306 543.5 282.5 Q567 259 608 228 Q640 204 680.5 177 Q721 150 782 112 L742 55 Q673 101 626 133.5 Q579 166 546 192 Q505 224 485 245.5 Q465 267 455 284 L454 284 Q444 266 424 244.5 Q404 223 363 191 Q330 165 283 132.5 Q236 100 167 54 L127 112 Q188 150 228.5 177 Q269 204 301 228 Q342 259 365.5 282.5 Q389 306 400.5 328.5 Q412 351 415 377 Q418 403 418 439 L149 439 L149 501 L418 501 L418 625 L491 625 L491 501 Z " />
<glyph glyph-name="uni314B" unicode="&#x314b;" horiz-adv-x="910" d="M666 325 L666 487 L163 487 L163 552 L740 552 L740 51 L666 51 L666 265 L152 255 L150 318 L666 325 Z " />
<glyph glyph-name="uni314C" unicode="&#x314c;" horiz-adv-x="910" d="M761 56 L173 56 L173 544 L753 544 L753 479 L246 479 L246 333 L742 333 L742 268 L246 268 L246 121 L761 121 L761 56 Z " />
<glyph glyph-name="uni314D" unicode="&#x314d;" horiz-adv-x="910" d="M769 540 L769 479 L636 479 L636 118 L778 118 L778 57 L132 57 L132 118 L274 118 L274 479 L141 479 L141 540 L769 540 Z M344 118 L566 118 L566 479 L344 479 L344 118 Z " />
<glyph glyph-name="uni314E" unicode="&#x314e;" horiz-adv-x="910" d="M455 17 Q398 17 351.5 28.5 Q305 40 271 61 Q237 82 218.5 112.5 Q200 143 200 182 L200 216 Q200 254 218.5 284.5 Q237 315 271 336.5 Q305 358 351.5 369.5 Q398 381 455 381 Q512 381 558.5 369.5 Q605 358 639 336.5 Q673 315 691.5 284.5 Q710 254 710 216 L710 182 Q710 143 691.5 112.5 Q673 82 639 61 Q605 40 558.5 28.5 Q512 17 455 17 Z M455 319 Q365 319 317 289.5 Q269 260 269 211 L269 187 Q269 138 317 108.5 Q365 79 455 79 Q545 79 593 108.5 Q641 138 641 187 L641 211 Q641 260 593 289.5 Q545 319 455 319 Z M491 500 L764 500 L764 439 L146 439 L146 500 L419 500 L419 625 L491 625 L491 500 Z " />
<glyph glyph-name="uni314F" unicode="&#x314f;" horiz-adv-x="910" d="M464 399 L664 399 L664 336 L464 336 L464 -136 L393 -136 L393 778 L464 778 L464 399 Z " />
<glyph glyph-name="uni3150" unicode="&#x3150;" horiz-adv-x="910" d="M379 399 L531 399 L531 778 L601 778 L601 -136 L531 -136 L531 336 L379 336 L379 -91 L309 -91 L309 759 L379 759 L379 399 Z " />
<glyph glyph-name="uni3151" unicode="&#x3151;" horiz-adv-x="910" d="M464 508 L654 508 L654 445 L464 445 L464 281 L654 281 L654 218 L464 218 L464 -136 L393 -136 L393 778 L464 778 L464 508 Z " />
<glyph glyph-name="uni3152" unicode="&#x3152;" horiz-adv-x="910" d="M379 508 L531 508 L531 778 L601 778 L601 -136 L531 -136 L531 218 L379 218 L379 -91 L309 -91 L309 759 L379 759 L379 508 Z M379 281 L531 281 L531 445 L379 445 L379 281 Z " />
<glyph glyph-name="uni3153" unicode="&#x3153;" horiz-adv-x="910" d="M599 -136 L529 -136 L529 336 L327 336 L327 399 L529 399 L529 778 L599 778 L599 -136 Z " />
<glyph glyph-name="uni3154" unicode="&#x3154;" horiz-adv-x="910" d="M431 399 L431 759 L501 759 L501 -91 L431 -91 L431 336 L254 336 L254 399 L431 399 Z M667 -136 L597 -136 L597 778 L667 778 L667 -136 Z " />
<glyph glyph-name="uni3155" unicode="&#x3155;" horiz-adv-x="910" d="M528 508 L528 778 L599 778 L599 -136 L528 -136 L528 218 L338 218 L338 281 L528 281 L528 445 L338 445 L338 508 L528 508 Z " />
<glyph glyph-name="uni3156" unicode="&#x3156;" horiz-adv-x="910" d="M431 512 L431 759 L501 759 L501 -91 L431 -91 L431 222 L254 222 L254 285 L431 285 L431 449 L254 449 L254 512 L431 512 Z M667 -136 L597 -136 L597 778 L667 778 L667 -136 Z " />
<glyph glyph-name="uni3157" unicode="&#x3157;" horiz-adv-x="910" d="M490 136 L875 136 L875 75 L35 75 L35 136 L420 136 L420 486 L490 486 L490 136 Z " />
<glyph glyph-name="uni3158" unicode="&#x3158;" horiz-adv-x="910" d="M754 420 L899 420 L899 357 L754 357 L754 -136 L683 -136 L683 778 L754 778 L754 420 Z M619 84 Q557 78 500 73.5 Q443 69 376.5 66 Q310 63 226.5 62 Q143 61 28 61 L28 123 Q100 123 160 123 Q220 123 272 125 L272 403 L343 403 L343 126 Q421 129 484.5 133 Q548 137 613 145 L619 84 Z " />
<glyph glyph-name="uni3159" unicode="&#x3159;" horiz-adv-x="910" d="M657 412 L771 412 L771 778 L841 778 L841 -136 L771 -136 L771 352 L657 352 L657 -111 L587 -111 L587 762 L657 762 L657 412 Z M318 142 Q373 144 424.5 145.5 Q476 147 536 151 L539 91 Q488 88 436.5 85.5 Q385 83 326.5 82 Q268 81 200 80.5 Q132 80 49 80 L49 141 L247 141 L247 403 L318 403 L318 142 Z " />
<glyph glyph-name="uni315A" unicode="&#x315a;" horiz-adv-x="910" d="M805 -136 L734 -136 L734 778 L805 778 L805 -136 Z M382 126 Q464 129 531.5 133 Q599 137 664 145 L670 84 Q608 78 547.5 73.5 Q487 69 416.5 66 Q346 63 259.5 62 Q173 61 58 61 L58 123 Q131 123 193.5 123 Q256 123 311 125 L311 403 L382 403 L382 126 Z " />
<glyph glyph-name="uni315B" unicode="&#x315b;" horiz-adv-x="910" d="M627 136 L875 136 L875 75 L35 75 L35 136 L283 136 L283 486 L353 486 L353 136 L557 136 L557 486 L627 486 L627 136 Z " />
<glyph glyph-name="uni315C" unicode="&#x315c;" horiz-adv-x="910" d="M875 317 L875 256 L490 256 L490 -99 L420 -99 L420 256 L35 256 L35 317 L875 317 Z " />
<glyph glyph-name="uni315D" unicode="&#x315d;" horiz-adv-x="910" d="M729 146 L729 778 L800 778 L800 -136 L729 -136 L729 83 L509 83 L509 146 L729 146 Z M665 278 Q595 271 526.5 266.5 Q458 262 372 259 L372 -107 L300 -107 L300 257 Q247 256 186.5 255.5 Q126 255 54 255 L54 317 Q162 317 251.5 318.5 Q341 320 414.5 322.5 Q488 325 548.5 329 Q609 333 659 339 L665 278 Z " />
<glyph glyph-name="uni315E" unicode="&#x315e;" horiz-adv-x="910" d="M584 167 L584 762 L654 762 L654 -111 L584 -111 L584 105 L417 105 L417 167 L584 167 Z M826 -136 L756 -136 L756 778 L826 778 L826 -136 Z M525 259 Q476 256 424 253.5 Q372 251 311 250 L311 -77 L240 -77 L240 249 Q194 248 143 248 Q92 248 34 248 L34 310 Q125 310 191.5 310.5 Q258 311 313 312 Q368 313 417 315 Q466 317 522 320 L525 259 Z " />
<glyph glyph-name="uni315F" unicode="&#x315f;" horiz-adv-x="910" d="M800 -136 L729 -136 L729 778 L800 778 L800 -136 Z M665 247 Q597 240 529 236 Q461 232 379 229 L379 -107 L307 -107 L307 226 Q253 225 191 224.5 Q129 224 54 224 L54 286 Q162 286 251.5 287.5 Q341 289 414.5 291.5 Q488 294 548.5 298 Q609 302 659 308 L665 247 Z " />
<glyph glyph-name="uni3160" unicode="&#x3160;" horiz-adv-x="910" d="M627 256 L627 -99 L557 -99 L557 256 L353 256 L353 -99 L283 -99 L283 256 L35 256 L35 317 L875 317 L875 256 L627 256 Z " />
<glyph glyph-name="uni3161" unicode="&#x3161;" horiz-adv-x="910" d="M875 166 L875 105 L35 105 L35 166 L875 166 Z " />
<glyph glyph-name="uni3162" unicode="&#x3162;" horiz-adv-x="910" d="M805 -136 L734 -136 L734 778 L805 778 L805 -136 Z M670 118 Q608 112 547.5 107.5 Q487 103 416.5 100 Q346 97 259.5 96 Q173 95 58 95 L58 157 Q167 157 253.5 158 Q340 159 412 161.5 Q484 164 545 168.5 Q606 173 664 179 L670 118 Z " />
<glyph glyph-name="uni3163" unicode="&#x3163;" horiz-adv-x="910" d="M490 -136 L419 -136 L419 778 L490 778 L490 -136 Z " />
<glyph glyph-name="uni3165" unicode="&#x3165;" horiz-adv-x="910" d="M222 540 L222 125 L425 125 L425 60 L150 60 L150 540 L222 540 Z M541 540 L541 125 L759 125 L759 60 L469 60 L469 540 L541 540 Z " />
<glyph glyph-name="uni3166" unicode="&#x3166;" horiz-adv-x="910" d="M222 540 L222 125 L422 125 L422 60 L150 60 L150 540 L222 540 Z M468 60 L468 541 L750 541 L750 476 L540 476 L540 125 L760 125 L760 60 L468 60 Z " />
<glyph glyph-name="uni3167" unicode="&#x3167;" horiz-adv-x="910" d="M178 540 L178 125 L386 125 L386 60 L106 60 L106 540 L178 540 Z M599 254 Q598 248 589.5 230 Q581 212 561 186 Q552 174 542.5 162 Q533 150 520 134 Q507 118 488.5 96.5 Q470 75 442 45 L395 92 Q419 117 436.5 137.5 Q454 158 468.5 174.5 Q483 191 494 205.5 Q505 220 515 234 Q531 256 540 272 Q549 288 554 303 Q559 318 560.5 335 Q562 352 562 378 L562 540 L636 540 L636 378 Q636 352 637.5 335 Q639 318 643.5 303 Q648 288 657 272 Q666 256 682 234 Q692 220 703 205.5 Q714 191 728.5 174.5 Q743 158 760.5 137.5 Q778 117 802 92 L756 45 Q728 75 709.5 96.5 Q691 118 678 134 Q665 150 656 162 Q647 174 638 186 Q618 212 609.5 230 Q601 248 600 254 L599 254 Z " />
<glyph glyph-name="uni3168" unicode="&#x3168;" horiz-adv-x="910" d="M202 540 L202 125 L410 125 L410 60 L130 60 L130 540 L202 540 Z M779 60 L434 60 L606 581 L779 60 Z M691 123 L606 393 L521 123 L691 123 Z " />
<glyph glyph-name="uni3169" unicode="&#x3169;" horiz-adv-x="910" d="M533 112 Q573 162 596 196.5 Q619 231 633 261 Q642 281 647 294.5 Q652 308 654 320 Q656 332 656 346 Q656 360 656 380 L656 544 L728 544 L728 380 Q728 360 728 346 Q728 332 730 320 Q732 308 737 294.5 Q742 281 751 261 Q766 229 791.5 190.5 Q817 152 864 96 L819 53 Q793 85 776 107.5 Q759 130 747.5 146.5 Q736 163 728 175.5 Q720 188 713 201 Q705 214 700 224.5 Q695 235 693 243 Q691 235 685.5 224 Q680 213 673 201 Q665 188 657.5 175.5 Q650 163 638.5 146.5 Q627 130 610 107.5 Q593 85 567 53 L533 84 L533 59 L462 59 L462 481 L304 481 L304 546 L533 546 L533 112 Z M46 59 L46 333 L201 333 L201 482 L46 482 L46 546 L272 546 L272 271 L117 271 L117 123 L308 123 L308 59 L46 59 Z " />
<glyph glyph-name="uni316A" unicode="&#x316a;" horiz-adv-x="910" d="M147 58 L147 332 L362 332 L362 479 L147 479 L147 543 L433 543 L433 270 L218 270 L218 122 L441 122 L441 58 L147 58 Z M483 60 L483 541 L753 541 L753 476 L555 476 L555 125 L763 125 L763 60 L483 60 Z " />
<glyph glyph-name="uni316B" unicode="&#x316b;" horiz-adv-x="910" d="M319 58 L319 552 L388 552 L388 359 L485 359 L485 552 L554 552 L554 112 Q589 163 609 201 Q629 239 643 268 Q654 291 655 317.5 Q656 344 656 385 L656 544 L728 544 L728 385 Q728 344 729 317.5 Q730 291 741 268 Q756 236 779 193 Q802 150 844 92 L797 53 Q778 79 765.5 98 Q753 117 743.5 132.5 Q734 148 726.5 161.5 Q719 175 711 190 Q703 203 699 213 Q695 223 693 231 Q689 217 675 190 Q667 175 659.5 161.5 Q652 148 642.5 132.5 Q633 117 620.5 98 Q608 79 589 53 L554 81 L554 58 L319 58 Z M65 59 L65 333 L200 333 L200 482 L65 482 L65 546 L271 546 L271 271 L136 271 L136 123 L288 123 L288 59 L65 59 Z M485 297 L388 297 L388 121 L485 121 L485 297 Z " />
<glyph glyph-name="uni316C" unicode="&#x316c;" horiz-adv-x="910" d="M777 60 L432 60 L604 581 L777 60 Z M689 123 L604 393 L519 123 L689 123 Z M132 60 L132 332 L338 332 L338 479 L132 479 L132 543 L409 543 L409 270 L203 270 L203 124 L425 124 L425 60 L132 60 Z " />
<glyph glyph-name="uni316D" unicode="&#x316d;" horiz-adv-x="910" d="M135 60 L135 332 L349 332 L349 479 L135 479 L135 543 L420 543 L420 270 L206 270 L206 124 L445 124 L445 60 L135 60 Z M775 479 L461 479 L461 543 L775 543 L775 479 Z M775 191 Q775 162 765.5 135 Q756 108 736.5 87 Q717 66 687.5 53.5 Q658 41 619 41 Q580 41 550.5 53.5 Q521 66 501.5 87 Q482 108 472.5 135 Q463 162 463 191 L463 225 Q463 253 472.5 280 Q482 307 501.5 328 Q521 349 550.5 362 Q580 375 619 375 Q658 375 687.5 362 Q717 349 736.5 328 Q756 307 765.5 280 Q775 253 775 225 L775 191 Z M709 221 Q709 260 686.5 286.5 Q664 313 619 313 Q574 313 551.5 286.5 Q529 260 529 221 L529 195 Q529 156 551.5 129.5 Q574 103 619 103 Q664 103 686.5 129.5 Q709 156 709 195 L709 221 Z " />
<glyph glyph-name="uni316E" unicode="&#x316e;" horiz-adv-x="910" d="M479 58 L479 543 L550 543 L550 368 L693 368 L693 543 L764 543 L764 58 L479 58 Z M693 304 L550 304 L550 123 L693 123 L693 304 Z M145 58 L145 543 L427 543 L427 58 L145 58 Z M356 478 L216 478 L216 123 L356 123 L356 478 Z " />
<glyph glyph-name="uni316F" unicode="&#x316f;" horiz-adv-x="910" d="M107 58 L107 543 L397 543 L397 58 L107 58 Z M326 478 L178 478 L178 123 L326 123 L326 478 Z M608 252 Q607 246 598.5 229 Q590 212 570 186 Q561 174 551.5 162 Q542 150 529 134 Q516 118 497.5 96.5 Q479 75 451 45 L404 92 Q428 117 445.5 137.5 Q463 158 477.5 174.5 Q492 191 503 205.5 Q514 220 524 234 Q540 256 549 272 Q558 288 563 303 Q568 318 569.5 335 Q571 352 571 378 L571 540 L645 540 L645 378 Q645 352 646.5 335 Q648 318 652.5 303 Q657 288 666 272 Q675 256 691 234 Q701 220 712 205.5 Q723 191 737.5 174.5 Q752 158 769.5 137.5 Q787 117 811 92 L765 45 Q737 75 718.5 96.5 Q700 118 687 134 Q674 150 665 162 Q656 174 647 186 Q627 212 618.5 229 Q610 246 609 252 L608 252 Z " />
<glyph glyph-name="uni3170" unicode="&#x3170;" horiz-adv-x="910" d="M782 60 L437 60 L609 581 L782 60 Z M694 123 L609 393 L524 123 L694 123 Z M128 58 L128 543 L418 543 L418 58 L128 58 Z M347 478 L199 478 L199 123 L347 123 L347 478 Z " />
<glyph glyph-name="uni3171" unicode="&#x3171;" horiz-adv-x="910" d="M227 293 L227 656 L682 656 L682 293 L227 293 Z M611 592 L298 592 L298 357 L611 357 L611 592 Z M617 87 Q617 66 606.5 44.5 Q596 23 576 6.5 Q556 -10 525.5 -20.5 Q495 -31 455 -31 Q415 -31 385 -20.5 Q355 -10 334.5 6.5 Q314 23 304 44.5 Q294 66 294 87 L294 115 Q294 136 304 157.5 Q314 179 334.5 195.5 Q355 212 385 222.5 Q415 233 455 233 Q495 233 525.5 222.5 Q556 212 576 195.5 Q596 179 606.5 157.5 Q617 136 617 115 L617 87 Z M545 111 Q545 140 520 156.5 Q495 173 455 173 Q416 173 391 156.5 Q366 140 366 111 L366 91 Q366 62 391 45.5 Q416 29 455 29 Q495 29 520 45.5 Q545 62 545 91 L545 111 Z " />
<glyph glyph-name="uni3172" unicode="&#x3172;" horiz-adv-x="910" d="M144 59 L144 543 L215 543 L215 362 L366 362 L366 543 L437 543 L437 59 L144 59 Z M366 298 L215 298 L215 124 L366 124 L366 298 Z M695 58 L695 478 L479 478 L479 543 L766 543 L766 58 L695 58 Z " />
<glyph glyph-name="uni3173" unicode="&#x3173;" horiz-adv-x="910" d="M153 59 L153 543 L224 543 L224 362 L361 362 L361 543 L432 543 L432 59 L153 59 Z M361 298 L224 298 L224 124 L361 124 L361 298 Z M487 60 L487 541 L746 541 L746 476 L559 476 L559 125 L756 125 L756 60 L487 60 Z " />
<glyph glyph-name="uni3174" unicode="&#x3174;" horiz-adv-x="910" d="M326 112 Q366 162 389 196.5 Q412 231 426 261 Q435 281 440 294.5 Q445 308 447 320 Q449 332 449 346 Q449 360 449 380 L449 544 L521 544 L521 380 Q521 360 521 346 Q521 332 523 320 Q525 308 530 294.5 Q535 281 544 261 Q559 229 584.5 190.5 Q610 152 657 96 L612 53 Q586 85 569 107.5 Q552 130 540.5 146.5 Q529 163 521 175.5 Q513 188 506 201 Q498 214 493 224.5 Q488 235 486 243 Q484 235 478.5 224 Q473 213 466 201 Q458 188 450.5 175.5 Q443 163 431.5 146.5 Q420 130 403 107.5 Q386 85 360 53 L326 84 L326 58 L91 58 L91 543 L160 543 L160 359 L257 359 L257 543 L326 543 L326 112 Z M747 59 L747 478 L586 478 L586 543 L818 543 L818 59 L747 59 Z M257 297 L160 297 L160 121 L257 121 L257 297 Z " />
<glyph glyph-name="uni3175" unicode="&#x3175;" horiz-adv-x="910" d="M326 107 Q362 159 383 198.5 Q404 238 418 268 Q429 291 430 317.5 Q431 344 431 385 L431 544 L503 544 L503 385 Q503 344 504 317.5 Q505 291 516 268 Q530 237 551.5 197.5 Q573 158 610 104 L610 543 L808 543 L808 478 L682 478 L682 125 L819 125 L819 60 L610 60 L610 84 L572 53 Q553 79 540.5 98 Q528 117 518.5 132.5 Q509 148 501.5 161.5 Q494 175 486 190 Q478 203 474 213 Q470 223 468 231 Q464 217 450 190 Q442 175 434.5 161.5 Q427 148 417.5 132.5 Q408 117 395.5 98 Q383 79 364 53 L326 83 L326 58 L91 58 L91 543 L160 543 L160 359 L257 359 L257 543 L326 543 L326 107 Z M257 121 L257 297 L160 297 L160 121 L257 121 Z " />
<glyph glyph-name="uni3176" unicode="&#x3176;" horiz-adv-x="910" d="M121 58 L121 543 L192 543 L192 362 L336 362 L336 543 L407 543 L407 58 L121 58 Z M608 260 Q606 250 599.5 236 Q593 222 575 190 Q567 177 559 164.5 Q551 152 539.5 135.5 Q528 119 511.5 97.5 Q495 76 470 46 L422 87 Q463 138 486.5 170 Q510 202 527 232 Q540 256 548.5 272 Q557 288 562 303.5 Q567 319 568.5 336 Q570 353 570 379 L570 482 L448 482 L448 543 L764 543 L764 482 L643 482 L643 379 Q643 353 645 336 Q647 319 651.5 303.5 Q656 288 664.5 272 Q673 256 687 232 Q703 203 727 170.5 Q751 138 792 87 L745 46 Q721 76 704.5 97.5 Q688 119 676.5 135.5 Q665 152 657 164.5 Q649 177 642 190 Q624 222 617.5 236 Q611 250 609 260 L608 260 Z M336 298 L192 298 L192 123 L336 123 L336 298 Z " />
<glyph glyph-name="uni3177" unicode="&#x3177;" horiz-adv-x="910" d="M431 59 L152 59 L152 543 L223 543 L223 362 L360 362 L360 543 L431 543 L431 59 Z M360 124 L360 298 L223 298 L223 124 L360 124 Z M741 268 L559 268 L559 124 L757 124 L757 59 L488 59 L488 541 L747 541 L747 476 L559 476 L559 333 L741 333 L741 268 Z " />
<glyph glyph-name="uni3178" unicode="&#x3178;" horiz-adv-x="910" d="M227 302 L227 663 L298 663 L298 548 L611 548 L611 663 L682 663 L682 302 L227 302 Z M611 484 L298 484 L298 367 L611 367 L611 484 Z M617 87 Q617 66 606.5 44.5 Q596 23 576 6.5 Q556 -10 525.5 -20.5 Q495 -31 455 -31 Q415 -31 385 -20.5 Q355 -10 334.5 6.5 Q314 23 304 44.5 Q294 66 294 87 L294 115 Q294 136 304 157.5 Q314 179 334.5 195.5 Q355 212 385 222.5 Q415 233 455 233 Q495 233 525.5 222.5 Q556 212 576 195.5 Q596 179 606.5 157.5 Q617 136 617 115 L617 87 Z M545 111 Q545 140 520 156.5 Q495 173 455 173 Q416 173 391 156.5 Q366 140 366 111 L366 91 Q366 62 391 45.5 Q416 29 455 29 Q495 29 520 45.5 Q545 62 545 91 L545 111 Z " />
<glyph glyph-name="uni3179" unicode="&#x3179;" horiz-adv-x="910" d="M199 291 L199 647 L265 647 L265 526 L366 526 L366 647 L432 647 L432 291 L199 291 Z M366 465 L265 465 L265 353 L366 353 L366 465 Z M477 291 L477 647 L543 647 L543 526 L644 526 L644 647 L710 647 L710 291 L477 291 Z M644 465 L543 465 L543 353 L644 353 L644 465 Z M617 87 Q617 66 606.5 44.5 Q596 23 576 6.5 Q556 -10 525.5 -20.5 Q495 -31 455 -31 Q415 -31 385 -20.5 Q355 -10 334.5 6.5 Q314 23 304 44.5 Q294 66 294 87 L294 115 Q294 136 304 157.5 Q314 179 334.5 195.5 Q355 212 385 222.5 Q415 233 455 233 Q495 233 525.5 222.5 Q556 212 576 195.5 Q596 179 606.5 157.5 Q617 136 617 115 L617 87 Z M545 111 Q545 140 520 156.5 Q495 173 455 173 Q416 173 391 156.5 Q366 140 366 111 L366 91 Q366 62 391 45.5 Q416 29 455 29 Q495 29 520 45.5 Q545 62 545 91 L545 111 Z " />
<glyph glyph-name="uni317A" unicode="&#x317a;" horiz-adv-x="910" d="M706 60 L706 476 L474 476 L474 541 L778 541 L778 60 L706 60 Z M337 258 Q336 252 327.5 234 Q319 216 299 190 Q290 178 280.5 166 Q271 154 258 138 Q245 122 226.5 100.5 Q208 79 180 49 L133 96 Q157 121 174.5 141.5 Q192 162 206.5 178.5 Q221 195 232 209.5 Q243 224 253 238 Q269 260 278 276 Q287 292 292 307 Q297 322 298.5 339 Q300 356 300 382 L300 544 L374 544 L374 382 Q374 356 375.5 339 Q377 322 381.5 307 Q386 292 395 276 Q404 260 420 238 Q430 224 441 209.5 Q452 195 466.5 178.5 Q481 162 498.5 141.5 Q516 121 540 96 L494 49 Q466 79 447.5 100.5 Q429 122 416 138 Q403 154 394 166 Q385 178 376 190 Q356 216 347.5 234 Q339 252 338 258 L337 258 Z " />
<glyph glyph-name="uni317B" unicode="&#x317b;" horiz-adv-x="910" d="M306 258 Q305 252 296.5 235 Q288 218 268 190 Q259 178 250.5 166 Q242 154 230 138 Q218 122 200 100.5 Q182 79 154 49 L107 93 Q131 118 148 138.5 Q165 159 178.5 176.5 Q192 194 202 209 Q212 224 222 238 Q238 262 247 277.5 Q256 293 261 308 Q266 323 267.5 339.5 Q269 356 269 382 L269 540 L343 540 L343 382 Q343 356 344.5 339.5 Q346 323 350.5 308 Q355 293 364 277.5 Q373 262 389 238 Q399 224 409 209 Q419 194 432.5 176.5 Q446 159 463 138.5 Q480 118 504 93 L458 49 Q430 79 412 100.5 Q394 122 382 138 Q370 154 362 166 Q354 178 345 190 Q325 218 316.5 235 Q308 252 307 258 L306 258 Z M586 540 L586 125 L802 125 L802 60 L514 60 L514 540 L586 540 Z " />
<glyph glyph-name="uni317C" unicode="&#x317c;" horiz-adv-x="910" d="M515 60 L515 541 L789 541 L789 476 L587 476 L587 125 L799 125 L799 60 L515 60 Z M306 258 Q305 252 296.5 235 Q288 218 268 190 Q259 178 250.5 166 Q242 154 230 138 Q218 122 200 100.5 Q182 79 154 49 L107 93 Q131 118 148 138.5 Q165 159 178.5 176.5 Q192 194 202 209 Q212 224 222 238 Q238 262 247 277.5 Q256 293 261 308 Q266 323 267.5 339.5 Q269 356 269 382 L269 540 L343 540 L343 382 Q343 356 344.5 339.5 Q346 323 350.5 308 Q355 293 364 277.5 Q373 262 389 238 Q399 224 409 209 Q419 194 432.5 176.5 Q446 159 463 138.5 Q480 118 504 93 L458 49 Q430 79 412 100.5 Q394 122 382 138 Q370 154 362 166 Q354 178 345 190 Q325 218 316.5 235 Q308 252 307 258 L306 258 Z " />
<glyph glyph-name="uni317D" unicode="&#x317d;" horiz-adv-x="910" d="M511 58 L511 543 L582 543 L582 362 L726 362 L726 543 L797 543 L797 58 L511 58 Z M726 298 L582 298 L582 123 L726 123 L726 298 Z M306 258 Q305 252 296.5 235 Q288 218 268 190 Q259 178 250.5 166 Q242 154 230 138 Q218 122 200 100.5 Q182 79 154 49 L107 93 Q131 118 148 138.5 Q165 159 178.5 176.5 Q192 194 202 209 Q212 224 222 238 Q238 262 247 277.5 Q256 293 261 308 Q266 323 267.5 339.5 Q269 356 269 382 L269 540 L343 540 L343 382 Q343 356 344.5 339.5 Q346 323 350.5 308 Q355 293 364 277.5 Q373 262 389 238 Q399 224 409 209 Q419 194 432.5 176.5 Q446 159 463 138.5 Q480 118 504 93 L458 49 Q430 79 412 100.5 Q394 122 382 138 Q370 154 362 166 Q354 178 345 190 Q325 218 316.5 235 Q308 252 307 258 L306 258 Z " />
<glyph glyph-name="uni317E" unicode="&#x317e;" horiz-adv-x="910" d="M306 258 Q305 252 296.5 235 Q288 218 268 190 Q259 178 250.5 166 Q242 154 230 138 Q218 122 200 100.5 Q182 79 154 49 L107 93 Q131 118 148 138.5 Q165 159 178.5 176.5 Q192 194 202 209 Q212 224 222 238 Q238 262 247 277.5 Q256 293 261 308 Q266 323 267.5 339.5 Q269 356 269 382 L269 540 L343 540 L343 382 Q343 356 344.5 339.5 Q346 323 350.5 308 Q355 293 364 277.5 Q373 262 389 238 Q403 216 420.5 191.5 Q438 167 464 138 Q487 166 502.5 187.5 Q518 209 532 232 Q545 254 553.5 270.5 Q562 287 567 302.5 Q572 318 573.5 335.5 Q575 353 575 379 L575 482 L443 482 L443 543 L779 543 L779 482 L648 482 L648 379 Q648 353 650 335.5 Q652 318 656.5 302.5 Q661 287 669.5 270.5 Q678 254 692 232 Q701 217 711 202.5 Q721 188 734 170.5 Q747 153 763.5 132.5 Q780 112 802 87 L755 46 Q729 76 712 98 Q695 120 683 136 Q671 152 662.5 165 Q654 178 646 190 Q628 219 622 235.5 Q616 252 614 262 L613 262 Q611 252 602.5 234 Q594 216 576 187 Q568 175 556 157.5 Q544 140 529.5 121 Q515 102 498.5 82.5 Q482 63 466 46 L465 46 Q426 87 394 126.5 Q362 166 345 190 Q325 218 316.5 235 Q308 252 307 258 L306 258 Z " />
<glyph glyph-name="uni317F" unicode="&#x317f;" horiz-adv-x="910" d="M683 68 L227 68 L454 616 L683 68 Z M580 129 L454 447 L331 129 L580 129 Z " />
<glyph glyph-name="uni3180" unicode="&#x3180;" horiz-adv-x="910" d="M268 45 Q186 45 146 103.5 Q106 162 106 268 L106 333 Q106 439 146 497.5 Q186 556 268 556 Q352 556 392 497.5 Q432 439 432 333 L432 268 Q432 162 392 103.5 Q352 45 268 45 Z M268 491 Q218 491 196 445.5 Q174 400 174 324 L174 277 Q174 201 196 155.5 Q218 110 268 110 Q319 110 341.5 155.5 Q364 201 364 277 L364 324 Q364 400 341.5 445.5 Q319 491 268 491 Z M638 45 Q556 45 516 103.5 Q476 162 476 268 L476 333 Q476 439 516 497.5 Q556 556 638 556 Q722 556 762 497.5 Q802 439 802 333 L802 268 Q802 162 762 103.5 Q722 45 638 45 Z M638 491 Q588 491 566 445.5 Q544 400 544 324 L544 277 Q544 201 566 155.5 Q588 110 638 110 Q689 110 711.5 155.5 Q734 201 734 277 L734 324 Q734 400 711.5 445.5 Q689 491 638 491 Z " />
</font>
</svg>
