<?xml version="1.0" encoding="UTF-8"?>
<svg xmlns="http://www.w3.org/2000/svg" xmlns:xlink="http://www.w3.org/1999/xlink" version="1.2" >
<font id="NanumSquare ExtraBold">
<font-face  font-family="NanumSquare" units-per-em="1000" ascent="850" descent="-255" font-style="normal" font-weight="800" font-stretch="normal" cap-height="695" x-height="525" underline-position="-75" underline-thickness="50" />
<missing-glyph  horiz-adv-x="910" d="M855 -143 L55 -143 L55 757 L855 757 L855 -143 Z M455 278 L120 -107 L790 -107 L455 278 Z M95 -76 L429 308 L95 692 L95 -76 Z M454 337 L788 721 L121 721 L454 337 Z M815 693 L481 307 L815 -77 L815 693 Z " />
<glyph glyph-name="&amp;#x0;" horiz-adv-x="250" d="" />
<glyph glyph-name="&amp;#x1;" unicode="&#x1;" horiz-adv-x="250" d="" />
<glyph glyph-name="&amp;#x2;" unicode="&#x2;" horiz-adv-x="250" d="" />
<glyph glyph-name="&amp;#x3;" unicode="&#x3;" horiz-adv-x="250" d="" />
<glyph glyph-name="&amp;#x4;" unicode="&#x4;" horiz-adv-x="250" d="" />
<glyph glyph-name="&amp;#x5;" unicode="&#x5;" horiz-adv-x="250" d="" />
<glyph glyph-name="&amp;#x6;" unicode="&#x6;" horiz-adv-x="250" d="" />
<glyph glyph-name="&amp;#x7;" unicode="&#x7;" horiz-adv-x="250" d="" />
<glyph glyph-name="&amp;#x8;" unicode="&#x8;" horiz-adv-x="250" d="" />
<glyph glyph-name="&amp;#x9;" unicode="&#x9;" horiz-adv-x="250" d="" />
<glyph glyph-name="&amp;#xa;" unicode="&#xa;" horiz-adv-x="250" d="" />
<glyph glyph-name="&amp;#xb;" unicode="&#xb;" horiz-adv-x="250" d="" />
<glyph glyph-name="&amp;#xc;" unicode="&#xc;" horiz-adv-x="250" d="" />
<glyph glyph-name="&amp;#xd;" unicode="&#xd;" horiz-adv-x="250" d="" />
<glyph glyph-name="&amp;#xe;" unicode="&#xe;" horiz-adv-x="250" d="" />
<glyph glyph-name="&amp;#xf;" unicode="&#xf;" horiz-adv-x="250" d="" />
<glyph glyph-name="&amp;#x10;" unicode="&#x10;" horiz-adv-x="250" d="" />
<glyph glyph-name="&amp;#x11;" unicode="&#x11;" horiz-adv-x="250" d="" />
<glyph glyph-name="&amp;#x12;" unicode="&#x12;" horiz-adv-x="250" d="" />
<glyph glyph-name="&amp;#x13;" unicode="&#x13;" horiz-adv-x="250" d="" />
<glyph glyph-name="&amp;#x14;" unicode="&#x14;" horiz-adv-x="250" d="" />
<glyph glyph-name="&amp;#x15;" unicode="&#x15;" horiz-adv-x="250" d="" />
<glyph glyph-name="&amp;#x16;" unicode="&#x16;" horiz-adv-x="250" d="" />
<glyph glyph-name="&amp;#x17;" unicode="&#x17;" horiz-adv-x="250" d="" />
<glyph glyph-name="&amp;#x18;" unicode="&#x18;" horiz-adv-x="250" d="" />
<glyph glyph-name="&amp;#x19;" unicode="&#x19;" horiz-adv-x="250" d="" />
<glyph glyph-name="&amp;#x1a;" unicode="&#x1a;" horiz-adv-x="250" d="" />
<glyph glyph-name="&amp;#x1b;" unicode="&#x1b;" horiz-adv-x="250" d="" />
<glyph glyph-name="&amp;#x1c;" unicode="&#x1c;" horiz-adv-x="250" d="" />
<glyph glyph-name="&amp;#x1d;" unicode="&#x1d;" horiz-adv-x="250" d="" />
<glyph glyph-name="&amp;#x1e;" unicode="&#x1e;" horiz-adv-x="250" d="" />
<glyph glyph-name="&amp;#x1f;" unicode="&#x1f;" horiz-adv-x="250" d="" />
<glyph glyph-name="&amp;#x20;" unicode="&#x20;" horiz-adv-x="250" d="" />
<glyph glyph-name="&amp;#xa0;" unicode="&#xa0;" horiz-adv-x="250" d="" />
<glyph glyph-name="exclam" unicode="&#x21;" horiz-adv-x="320" d="M94 58 L226 58 L226 -72 L94 -72 L94 58 Z M108 155 L89 743 L231 743 L212 155 L108 155 Z " />
<glyph glyph-name="quotedbl" unicode="&#x22;" horiz-adv-x="401" d="M57 488 L44 738 L174 738 L161 488 L57 488 Z M240 488 L227 738 L357 738 L344 488 L240 488 Z " />
<glyph glyph-name="numbersign" unicode="&#x23;" horiz-adv-x="643" d="M562 269 L562 160 L457 160 L432 -26 L330 -26 L354 160 L234 160 L210 -26 L107 -26 L131 160 L42 160 L42 269 L146 269 L164 405 L73 405 L73 514 L179 514 L203 695 L306 695 L282 514 L402 514 L426 695 L528 695 L504 514 L593 514 L593 405 L490 405 L471 269 L562 269 Z M389 405 L266 405 L247 269 L371 269 L389 405 Z " />
<glyph glyph-name="dollar" unicode="&#x24;" horiz-adv-x="652" d="M295 -24 Q263 -22 230.5 -15 Q198 -8 167.5 2.5 Q137 13 110.5 26.5 Q84 40 65 56 L126 149 Q165 121 204.5 105 Q244 89 295 81 L295 291 Q259 300 222 312.5 Q185 325 154.5 347.5 Q124 370 104.5 405.5 Q85 441 85 495 L85 513 Q85 542 95.5 572 Q106 602 130 627.5 Q154 653 194.5 671 Q235 689 295 694 L295 751 L369 751 L369 695 Q423 692 476 675.5 Q529 659 564 628 L505 543 Q470 567 436 578 Q402 589 369 591 L369 388 Q435 370 477.5 350.5 Q520 331 544.5 306.5 Q569 282 578.5 251.5 Q588 221 588 183 L588 175 Q588 120 571 83.5 Q554 47 524.5 24 Q495 1 455 -10 Q415 -21 369 -24 L369 -93 L295 -93 L295 -24 Z M463 174 Q463 191 460.5 205.5 Q458 220 448 232 Q438 244 419.5 254 Q401 264 369 273 L369 80 Q422 86 442.5 110.5 Q463 135 463 164 L463 174 Z M208 500 Q208 478 213 463.5 Q218 449 228.5 438.5 Q239 428 255.5 420.5 Q272 413 295 406 L295 589 Q265 586 247.5 577 Q230 568 221 557 Q212 546 210 535 Q208 524 208 517 L208 500 Z " />
<glyph glyph-name="percent" unicode="&#x25;" horiz-adv-x="917" d="M185 -25 L616 695 L731 695 L301 -25 L185 -25 Z M229 709 Q308 709 354 662.5 Q400 616 400 537 L400 498 Q400 419 354 372.5 Q308 326 229 326 Q150 326 104 372.5 Q58 419 58 498 L58 537 Q58 616 104 662.5 Q150 709 229 709 Z M229 411 Q271 411 286 435 Q301 459 301 500 L301 535 Q301 575 286 599.5 Q271 624 229 624 Q187 624 172 599.5 Q157 575 157 535 L157 500 Q157 459 172 435 Q187 411 229 411 Z M688 349 Q767 349 813 302.5 Q859 256 859 177 L859 138 Q859 59 813 12.5 Q767 -34 688 -34 Q609 -34 563 12.5 Q517 59 517 138 L517 177 Q517 256 563 302.5 Q609 349 688 349 Z M688 51 Q730 51 745 75 Q760 99 760 140 L760 175 Q760 215 745 239.5 Q730 264 688 264 Q646 264 631 239.5 Q616 215 616 175 L616 140 Q616 99 631 75 Q646 51 688 51 Z " />
<glyph glyph-name="ampersand" unicode="&#x26;" horiz-adv-x="690" d="M631 371 Q631 293 617.5 232 Q604 171 575 122 L697 -25 L544 -25 L496 35 Q452 -2 401.5 -19.5 Q351 -37 299 -37 L291 -37 Q246 -37 201 -26.5 Q156 -16 120 7 Q84 30 62 67.5 Q40 105 40 158 L40 177 Q40 213 52 243 Q64 273 85 297.5 Q106 322 136 342.5 Q166 363 202 380 L178 407 Q149 440 136 470.5 Q123 501 123 537 L123 549 Q123 618 173 662 Q223 706 314 706 Q361 706 396.5 693 Q432 680 455.5 658 Q479 636 491 606.5 Q503 577 503 545 L503 534 Q503 486 476 440.5 Q449 395 376 350 L494 215 Q499 227 503 240.5 Q507 254 509.5 271.5 Q512 289 513 313 Q514 337 514 371 L631 371 Z M296 75 Q375 75 422 121 L272 298 Q211 267 188.5 237.5 Q166 208 166 175 L166 161 Q166 125 201 100 Q236 75 296 75 Z M244 535 Q244 516 264 488.5 Q284 461 308 434 Q332 449 346.5 461.5 Q361 474 369.5 485.5 Q378 497 381 508.5 Q384 520 384 533 L384 540 Q384 564 366 582.5 Q348 601 314 601 Q276 601 260 583.5 Q244 566 244 545 L244 535 Z " />
<glyph glyph-name="quotesingle" unicode="&#x27;" horiz-adv-x="218" d="M57 488 L44 738 L174 738 L161 488 L57 488 Z " />
<glyph glyph-name="parenleft" unicode="&#x28;" horiz-adv-x="361" d="M190 274 Q190 160 220 48 Q250 -64 327 -170 L207 -170 Q132 -81 96 33 Q60 147 60 279 L60 319 Q60 451 96 564 Q132 677 207 766 L327 766 Q253 666 221.5 555.5 Q190 445 190 324 L190 274 Z " />
<glyph glyph-name="parenright" unicode="&#x29;" horiz-adv-x="361" d="M171 324 Q171 445 139.5 555.5 Q108 666 34 766 L154 766 Q229 677 265 564 Q301 451 301 319 L301 279 Q301 147 265 33 Q229 -81 154 -170 L34 -170 Q111 -64 141 48 Q171 160 171 274 L171 324 Z " />
<glyph glyph-name="asterisk" unicode="&#x2a;" horiz-adv-x="479" d="M92 392 L41 489 L177 538 L41 586 L92 683 L203 600 L187 733 L293 733 L276 600 L388 683 L438 586 L302 538 L438 489 L388 392 L276 475 L293 343 L187 343 L204 475 L92 392 Z " />
<glyph glyph-name="plus" unicode="&#x2b;" horiz-adv-x="600" d="M356 574 L356 369 L558 369 L558 265 L356 265 L356 46 L244 46 L244 265 L42 265 L42 369 L244 369 L244 574 L356 574 Z " />
<glyph glyph-name="comma" unicode="&#x2c;" horiz-adv-x="343" d="M111 57 L253 57 L171 -175 L69 -175 L111 57 Z " />
<glyph glyph-name="hyphen" unicode="&#x2d;" horiz-adv-x="428" d="M44 386 L384 386 L384 282 L44 282 L44 386 Z " />
<glyph glyph-name="period" unicode="&#x2e;" horiz-adv-x="343" d="M108 58 L235 58 L235 -72 L108 -72 L108 58 Z " />
<glyph glyph-name="slash" unicode="&#x2f;" horiz-adv-x="485" d="M459 777 L149 -131 L26 -131 L335 777 L459 777 Z " />
<glyph glyph-name="zero" unicode="0" horiz-adv-x="620" d="M575 279 Q575 125 510 44 Q445 -37 314 -37 Q185 -37 115 45 Q45 127 45 279 L45 391 Q45 543 114.5 624.5 Q184 706 311 706 Q439 706 507 624.5 Q575 543 575 391 L575 279 Z M446 392 Q446 454 434.5 492 Q423 530 404.5 550.5 Q386 571 361.5 578 Q337 585 311 585 Q286 585 261.5 578 Q237 571 217.5 550 Q198 529 186 491 Q174 453 174 392 L174 278 Q174 216 186.5 178 Q199 140 219 119 Q239 98 264 91 Q289 84 314 84 Q340 84 364 91 Q388 98 406 118.5 Q424 139 435 177 Q446 215 446 278 L446 392 Z " />
<glyph glyph-name="one" unicode="1" horiz-adv-x="620" d="M338 -26 L338 551 L174 457 L112 561 L353 695 L466 695 L466 -26 L338 -26 Z " />
<glyph glyph-name="two" unicode="2" horiz-adv-x="620" d="M316 343 Q347 375 365 399 Q383 423 392 442 Q401 461 403 477 Q405 493 405 508 L405 516 Q405 545 381.5 568.5 Q358 592 302 592 Q282 592 262.5 588 Q243 584 224 573 Q205 562 186.5 542 Q168 522 150 491 L54 554 Q67 577 86.5 604 Q106 631 135.5 653.5 Q165 676 205.5 691 Q246 706 301 706 Q362 706 406 691 Q450 676 478.5 650.5 Q507 625 520.5 591.5 Q534 558 534 521 L534 511 Q534 452 507.5 398.5 Q481 345 430 294 L218 80 L561 80 L561 -26 L51 -26 L51 70 L316 343 Z " />
<glyph glyph-name="three" unicode="3" horiz-adv-x="620" d="M66 602 Q102 649 152 677.5 Q202 706 280 706 Q331 706 372 693 Q413 680 442 656.5 Q471 633 487 599.5 Q503 566 503 526 L503 516 Q503 495 498.5 470.5 Q494 446 482 423.5 Q470 401 450 382 Q430 363 399 351 Q471 338 505 294 Q539 250 539 188 L539 173 Q539 132 523 94 Q507 56 474.5 27 Q442 -2 392.5 -19.5 Q343 -37 277 -37 Q214 -37 155.5 -17.5 Q97 2 46 43 L109 143 Q135 124 156.5 111 Q178 98 198 90.5 Q218 83 237 80 Q256 77 278 77 Q346 77 378 104 Q410 131 410 179 L410 192 Q410 245 379 269.5 Q348 294 279 294 L182 294 L182 404 L268 404 Q302 404 323.5 411.5 Q345 419 357 432.5 Q369 446 373.5 465.5 Q378 485 378 508 L378 516 Q378 557 351.5 575.5 Q325 594 280 594 Q234 594 205.5 577 Q177 560 153 534 L66 602 Z " />
<glyph glyph-name="four" unicode="4" horiz-adv-x="620" d="M500 443 L500 227 L598 227 L598 124 L500 124 L500 -26 L374 -26 L374 124 L15 124 L15 207 L343 695 L481 695 L166 227 L374 227 L374 443 L500 443 Z " />
<glyph glyph-name="five" unicode="5" horiz-adv-x="620" d="M443 215 Q443 273 409.5 304 Q376 335 316 335 Q270 335 236.5 318 Q203 301 179 278 L93 278 L116 695 L525 695 L525 589 L231 589 L223 401 Q248 416 280 427 Q312 438 357 438 Q409 438 449 420 Q489 402 516.5 371.5 Q544 341 558 301 Q572 261 572 218 L572 203 Q572 160 557.5 117 Q543 74 511.5 40 Q480 6 431.5 -15.5 Q383 -37 315 -37 Q237 -37 175 -19.5 Q113 -2 59 43 L121 144 Q146 124 170 111 Q194 98 217.5 91 Q241 84 265 81.5 Q289 79 314 79 Q380 79 411.5 114.5 Q443 150 443 204 L443 215 Z " />
<glyph glyph-name="six" unicode="6" horiz-adv-x="620" d="M489 550 Q455 570 418 580 Q381 590 336 590 Q308 590 282.5 580 Q257 570 236.5 546.5 Q216 523 202 484.5 Q188 446 185 388 Q211 419 255.5 435 Q300 451 347 451 Q399 451 441 434.5 Q483 418 512 387.5 Q541 357 556.5 314 Q572 271 572 219 L572 199 Q572 149 554.5 105.5 Q537 62 504 30.5 Q471 -1 423.5 -19 Q376 -37 316 -37 Q247 -37 198 -15.5 Q149 6 118 46 Q87 86 72.5 142.5 Q58 199 58 268 L58 314 Q58 433 80.5 509.5 Q103 586 142 629.5 Q181 673 233 689.5 Q285 706 344 706 Q393 706 444 694.5 Q495 683 536 656 L489 550 Z M187 203 Q187 144 219 111.5 Q251 79 313 79 Q379 79 412.5 111.5 Q446 144 446 204 L446 215 Q446 278 415 308.5 Q384 339 318 339 Q283 339 258.5 329.5 Q234 320 218 303.5 Q202 287 194.5 265 Q187 243 187 218 L187 203 Z " />
<glyph glyph-name="seven" unicode="7" horiz-adv-x="620" d="M291 -26 L156 -26 L433 587 L52 587 L52 695 L567 695 L567 597 L291 -26 Z " />
<glyph glyph-name="eight" unicode="8" horiz-adv-x="620" d="M210 491 Q210 467 219 449.5 Q228 432 242.5 420.5 Q257 409 275 403.5 Q293 398 311 398 Q330 398 347.5 403.5 Q365 409 379 420.5 Q393 432 401.5 449.5 Q410 467 410 491 L410 501 Q410 548 382.5 571.5 Q355 595 310 595 Q268 595 239 571.5 Q210 548 210 501 L210 491 Z M192 173 Q192 126 225 100.5 Q258 75 312 75 Q366 75 397 100.5 Q428 126 428 173 L428 183 Q428 210 418.5 229 Q409 248 393.5 261 Q378 274 357 280 Q336 286 312 286 Q288 286 266.5 280 Q245 274 228.5 261.5 Q212 249 202 229.5 Q192 210 192 183 L192 173 Z M60 182 Q60 212 70 238.5 Q80 265 96.5 286.5 Q113 308 134 323 Q155 338 178 345 Q152 358 133.5 376.5 Q115 395 103 415.5 Q91 436 85 457 Q79 478 79 496 L79 508 Q79 547 92.5 582.5 Q106 618 134.5 645.5 Q163 673 206.5 689.5 Q250 706 309 706 Q367 706 410.5 689.5 Q454 673 483 645.5 Q512 618 526.5 582.5 Q541 547 541 508 L541 496 Q541 478 535.5 458 Q530 438 518 418 Q506 398 487.5 379 Q469 360 443 345 Q466 338 487.5 322.5 Q509 307 525 286 Q541 265 550.5 238.5 Q560 212 560 182 L560 165 Q560 122 544 85 Q528 48 496.5 21 Q465 -6 419 -21.5 Q373 -37 313 -37 Q251 -37 203.5 -21.5 Q156 -6 124 21 Q92 48 76 85 Q60 122 60 165 L60 182 Z " />
<glyph glyph-name="nine" unicode="9" horiz-adv-x="620" d="M131 119 Q165 99 202 89 Q239 79 284 79 Q319 79 346 89 Q373 99 392 122.5 Q411 146 421.5 184.5 Q432 223 435 281 Q409 250 364.5 234 Q320 218 273 218 Q220 218 178.5 234.5 Q137 251 108 281 Q79 311 63.5 353.5 Q48 396 48 449 L48 469 Q48 519 65.5 562.5 Q83 606 116 638 Q149 670 196.5 688 Q244 706 304 706 Q373 706 422 684.5 Q471 663 502 623 Q533 583 547.5 526.5 Q562 470 562 401 L562 355 Q562 236 541.5 159.5 Q521 83 483.5 39.5 Q446 -4 393 -20.5 Q340 -37 276 -37 Q227 -37 176 -25.5 Q125 -14 84 13 L131 119 Z M433 466 Q433 525 401 557.5 Q369 590 307 590 Q241 590 207.5 557.5 Q174 525 174 465 L174 454 Q174 391 205 360.5 Q236 330 302 330 Q336 330 361 339.5 Q386 349 402 365.5 Q418 382 425.5 404 Q433 426 433 451 L433 466 Z " />
<glyph glyph-name="colon" unicode="&#x3a;" horiz-adv-x="403" d="M138 131 L265 131 L265 1 L138 1 L138 131 Z M138 581 L265 581 L265 451 L138 451 L138 581 Z " />
<glyph glyph-name="semicolon" unicode="&#x3b;" horiz-adv-x="403" d="M138 581 L265 581 L265 451 L138 451 L138 581 Z M141 136 L283 136 L201 -95 L99 -95 L141 136 Z " />
<glyph glyph-name="less" unicode="&#x3c;" horiz-adv-x="620" d="M203 319 L547 148 L547 21 L63 271 L63 370 L547 620 L547 494 L203 325 L203 319 Z " />
<glyph glyph-name="equal" unicode="&#x3d;" horiz-adv-x="620" d="M74 478 L546 478 L546 373 L74 373 L74 478 Z M74 267 L546 267 L546 162 L74 162 L74 267 Z " />
<glyph glyph-name="greater" unicode="&#x3e;" horiz-adv-x="620" d="M417 325 L73 494 L73 620 L557 370 L557 271 L73 21 L73 148 L417 319 L417 325 Z " />
<glyph glyph-name="question" unicode="&#x3f;" horiz-adv-x="557" d="M200 141 L200 185 Q200 210 201.5 230 Q203 250 210 269.5 Q217 289 232.5 310 Q248 331 277 357 Q310 388 330 408.5 Q350 429 360.5 445.5 Q371 462 374 476.5 Q377 491 377 511 L377 521 Q377 552 352.5 575.5 Q328 599 269 599 Q222 599 183.5 581 Q145 563 113 532 L43 620 Q91 668 149.5 690 Q208 712 273 712 Q328 712 371 698 Q414 684 444 659.5 Q474 635 489.5 600.5 Q505 566 505 525 L505 511 Q505 474 495 445.5 Q485 417 468.5 393 Q452 369 430.5 347.5 Q409 326 386 304 Q367 286 354 272.5 Q341 259 333.5 246.5 Q326 234 322.5 219 Q319 204 319 182 L319 141 L200 141 Z M194 58 L326 58 L326 -72 L194 -72 L194 58 Z " />
<glyph glyph-name="at" unicode="&#x40;" horiz-adv-x="1003" d="M763 35 Q723 35 689 54 Q655 73 641 121 L640 121 Q631 97 612 81 Q593 65 571 55 Q549 45 526.5 41 Q504 37 486 37 Q437 37 398.5 51.5 Q360 66 333 93 Q306 120 292 157.5 Q278 195 278 240 L278 320 Q278 366 292 403.5 Q306 441 331 467.5 Q356 494 391 508.5 Q426 523 468 523 Q525 523 556 506.5 Q587 490 598 471 L598 515 L713 515 L713 208 Q713 166 726 145.5 Q739 125 771 125 Q791 125 807 133.5 Q823 142 834 162.5 Q845 183 850.5 216 Q856 249 856 298 L856 306 Q856 390 831.5 454.5 Q807 519 760.5 563.5 Q714 608 646.5 631 Q579 654 493 654 Q419 654 356 630 Q293 606 246.5 560 Q200 514 173.5 447 Q147 380 147 294 L147 280 Q147 187 173 117.5 Q199 48 246.5 1 Q294 -46 361 -69.5 Q428 -93 511 -93 Q583 -93 655.5 -77.5 Q728 -62 789 -30 L824 -111 Q761 -145 682.5 -163.5 Q604 -182 514 -182 Q404 -182 317.5 -149.5 Q231 -117 171.5 -57 Q112 3 81 88.5 Q50 174 50 279 L50 295 Q50 392 81 474 Q112 556 170 615.5 Q228 675 309.5 708.5 Q391 742 493 742 Q604 742 690 711 Q776 680 834.5 623.5 Q893 567 923 487 Q953 407 953 309 L953 299 Q953 254 944.5 207 Q936 160 914.5 122 Q893 84 856 59.5 Q819 35 763 35 Z M401 254 Q401 203 423.5 175 Q446 147 493 147 Q535 147 562.5 171.5 Q590 196 590 243 L590 314 Q590 362 567 389 Q544 416 493 416 Q450 416 425.5 390.5 Q401 365 401 304 L401 254 Z " />
<glyph glyph-name="A" unicode="A" horiz-adv-x="690" d="M672 -26 L533 -26 L463 172 L220 172 L149 -26 L18 -26 L286 695 L401 695 L672 -26 Z M257 279 L426 279 L377 426 Q364 462 356.5 486.5 Q349 511 341 537 Q337 522 333.5 510 Q330 498 326 485.5 Q322 473 317.5 459 Q313 445 306 426 L257 279 Z " />
<glyph glyph-name="B" unicode="B" horiz-adv-x="661" d="M81 695 L361 695 Q588 695 588 519 L588 498 Q588 474 582.5 451.5 Q577 429 563.5 409.5 Q550 390 528 375.5 Q506 361 474 353 Q540 343 580.5 303.5 Q621 264 621 189 L621 164 Q621 75 565 24.5 Q509 -26 392 -26 L81 -26 L81 695 Z M208 80 L324 80 Q366 80 397.5 83.5 Q429 87 449.5 97.5 Q470 108 480 127 Q490 146 490 178 L490 200 Q490 228 480.5 246.5 Q471 265 449 276.5 Q427 288 391.5 292.5 Q356 297 305 297 L208 297 L208 80 Z M208 589 L208 401 L302 401 Q339 401 368.5 403 Q398 405 417.5 414 Q437 423 447.5 441.5 Q458 460 458 494 L458 512 Q458 558 422.5 573.5 Q387 589 306 589 L208 589 Z " />
<glyph glyph-name="C" unicode="C" horiz-adv-x="658" d="M356 706 Q432 706 490.5 688 Q549 670 604 626 L535 528 Q491 565 448 576.5 Q405 588 356 588 Q324 588 293 578.5 Q262 569 238 544 Q214 519 199 476 Q184 433 184 366 L184 292 Q184 235 198 195 Q212 155 235.5 130 Q259 105 290 93.5 Q321 82 355 82 Q405 82 457.5 97.5 Q510 113 553 157 L621 59 Q589 27 553.5 8.5 Q518 -10 483 -20.5 Q448 -31 414 -34 Q380 -37 350 -37 Q291 -37 237.5 -20 Q184 -3 143.5 34 Q103 71 79 128 Q55 185 55 266 L55 395 Q55 476 78.5 534.5 Q102 593 143 631.5 Q184 670 238.5 688 Q293 706 356 706 Z " />
<glyph glyph-name="D" unicode="D" horiz-adv-x="700" d="M332 695 Q493 695 569 615.5 Q645 536 645 386 L645 283 Q645 208 628 150.5 Q611 93 573.5 54 Q536 15 477 -5.5 Q418 -26 334 -26 L81 -26 L81 695 L332 695 Z M208 82 L315 82 Q363 82 400.5 93 Q438 104 463.5 128 Q489 152 502.5 191.5 Q516 231 516 288 L516 381 Q516 495 465.5 541 Q415 587 315 587 L208 587 L208 82 Z " />
<glyph glyph-name="E" unicode="E" horiz-adv-x="608" d="M545 695 L545 589 L208 589 L208 395 L524 395 L524 291 L208 291 L208 80 L552 80 L552 -26 L81 -26 L81 695 L545 695 Z " />
<glyph glyph-name="F" unicode="F" horiz-adv-x="581" d="M81 -26 L81 695 L545 695 L545 587 L209 587 L209 381 L524 381 L524 273 L209 273 L209 -26 L81 -26 Z " />
<glyph glyph-name="G" unicode="G" horiz-adv-x="686" d="M375 706 Q439 706 502 688 Q565 670 621 625 L552 527 Q512 562 466 576 Q420 590 375 590 Q333 590 298 580.5 Q263 571 237.5 546.5 Q212 522 197.5 478.5 Q183 435 183 366 L183 292 Q183 233 198 192.5 Q213 152 239.5 126.5 Q266 101 302.5 90 Q339 79 383 79 Q418 79 446 84 Q474 89 501 100 L501 273 L350 273 L350 380 L628 380 L628 29 Q604 13 574 0.5 Q544 -12 511 -20 Q478 -28 443.5 -32.5 Q409 -37 377 -37 Q308 -37 249.5 -20 Q191 -3 147.5 34 Q104 71 79.5 128 Q55 185 55 266 L55 395 Q55 476 79 534.5 Q103 593 145.5 631.5 Q188 670 247 688 Q306 706 375 706 Z " />
<glyph glyph-name="H" unicode="H" horiz-adv-x="717" d="M508 297 L209 297 L209 -26 L81 -26 L81 695 L209 695 L209 403 L508 403 L508 695 L636 695 L636 -26 L508 -26 L508 297 Z " />
<glyph glyph-name="I" unicode="I" horiz-adv-x="290" d="M81 695 L209 695 L209 -26 L81 -26 L81 695 Z " />
<glyph glyph-name="J" unicode="J" horiz-adv-x="491" d="M283 695 L411 695 L411 179 Q411 119 395.5 77.5 Q380 36 350.5 10.5 Q321 -15 279 -26 Q237 -37 185 -37 Q140 -37 93.5 -21 Q47 -5 12 26 L71 124 Q103 100 127.5 90 Q152 80 187 80 Q234 80 258.5 108 Q283 136 283 210 L283 695 Z " />
<glyph glyph-name="K" unicode="K" horiz-adv-x="666" d="M362 377 L656 -26 L494 -26 L276 284 L209 211 L209 -26 L81 -26 L81 695 L209 695 L209 365 L493 695 L641 695 L362 377 Z " />
<glyph glyph-name="L" unicode="L" horiz-adv-x="558" d="M209 695 L209 82 L538 82 L538 -26 L81 -26 L81 695 L209 695 Z " />
<glyph glyph-name="M" unicode="M" horiz-adv-x="875" d="M237 474 Q229 493 221 518.5 Q213 544 200 583 L200 -26 L81 -26 L81 695 L263 695 L440 247 L610 695 L794 695 L794 -26 L673 -26 L673 583 Q662 538 654 515.5 Q646 493 639 474 L488 94 L386 94 L237 474 Z " />
<glyph glyph-name="N" unicode="N" horiz-adv-x="721" d="M81 695 L228 695 L474 258 Q485 238 498.5 208.5 Q512 179 520 144 L520 695 L640 695 L640 -26 L493 -26 L246 412 Q232 436 220 464 Q208 492 201 523 L201 -26 L81 -26 L81 695 Z " />
<glyph glyph-name="O" unicode="O" horiz-adv-x="720" d="M360 706 Q421 706 476.5 688.5 Q532 671 574 633.5 Q616 596 640.5 537 Q665 478 665 394 L665 275 Q665 190 640.5 130.5 Q616 71 574.5 34 Q533 -3 477.5 -20 Q422 -37 360 -37 Q298 -37 242.5 -20 Q187 -3 145.5 34 Q104 71 79.5 130.5 Q55 190 55 275 L55 394 Q55 478 79.5 537 Q104 596 146 633.5 Q188 671 243.5 688.5 Q299 706 360 706 Z M360 80 Q397 80 429 89.5 Q461 99 485 123 Q509 147 522.5 188 Q536 229 536 291 L536 378 Q536 440 522.5 481 Q509 522 485 546 Q461 570 429 579.5 Q397 589 360 589 Q324 589 292 579.5 Q260 570 236 546 Q212 522 198 481 Q184 440 184 378 L184 291 Q184 229 198 188 Q212 147 236 123 Q260 99 292 89.5 Q324 80 360 80 Z " />
<glyph glyph-name="P" unicode="P" horiz-adv-x="636" d="M81 695 L353 695 Q418 695 464.5 679.5 Q511 664 541 636.5 Q571 609 585.5 571 Q600 533 600 489 L600 468 Q600 424 585 384.5 Q570 345 539 315.5 Q508 286 462 268.5 Q416 251 353 251 L209 251 L209 -26 L81 -26 L81 695 Z M209 588 L209 359 L336 359 Q399 359 435 383 Q471 407 471 470 L471 488 Q471 518 462 537 Q453 556 436.5 567.5 Q420 579 397 583.5 Q374 588 347 588 L209 588 Z " />
<glyph glyph-name="Q" unicode="Q" horiz-adv-x="714" d="M360 706 Q421 706 476.5 688.5 Q532 671 574 633.5 Q616 596 640.5 537 Q665 478 665 394 L665 275 Q665 203 648 151 Q631 99 601 61 L684 -21 L611 -96 L518 -4 Q483 -21 443 -29 Q403 -37 360 -37 Q298 -37 242.5 -20 Q187 -3 145.5 34 Q104 71 79.5 130.5 Q55 190 55 275 L55 394 Q55 478 79.5 537 Q104 596 146 633.5 Q188 671 243.5 688.5 Q299 706 360 706 Z M360 80 Q377 80 393.5 81.5 Q410 83 425 88 L340 173 L413 248 L507 154 Q521 178 528.5 211.5 Q536 245 536 291 L536 378 Q536 440 522.5 481 Q509 522 485 546 Q461 570 429 579.5 Q397 589 360 589 Q324 589 292 579.5 Q260 570 236 546 Q212 522 198 481 Q184 440 184 378 L184 291 Q184 229 198 188 Q212 147 236 123 Q260 99 292 89.5 Q324 80 360 80 Z " />
<glyph glyph-name="R" unicode="R" horiz-adv-x="660" d="M356 263 L209 263 L209 -26 L81 -26 L81 695 L354 695 Q410 695 453.5 680 Q497 665 526.5 639 Q556 613 571.5 576.5 Q587 540 587 497 L587 460 Q587 403 559 357.5 Q531 312 475 287 Q511 208 545.5 130.5 Q580 53 616 -26 L477 -26 L356 263 Z M209 588 L209 370 L327 370 Q401 370 430.5 396 Q460 422 460 463 L460 493 Q460 535 432 561.5 Q404 588 338 588 L209 588 Z " />
<glyph glyph-name="S" unicode="S" horiz-adv-x="626" d="M314 78 Q383 78 414 102.5 Q445 127 445 164 L445 175 Q445 219 412.5 240.5 Q380 262 318 276 Q273 286 227.5 297 Q182 308 145.5 330 Q109 352 86 389.5 Q63 427 63 490 L63 503 Q63 536 76 571.5 Q89 607 119 637 Q149 667 198.5 686.5 Q248 706 321 706 Q381 706 436 693.5 Q491 681 546 646 L486 547 Q442 575 404 583.5 Q366 592 323 592 Q289 592 264 584 Q239 576 222.5 563 Q206 550 198 535 Q190 520 190 505 L190 493 Q190 467 202.5 451 Q215 435 236 424.5 Q257 414 285.5 407.5 Q314 401 346 394 Q410 380 453.5 359.5 Q497 339 523.5 313 Q550 287 561.5 255.5 Q573 224 573 187 L573 174 Q573 114 551.5 73.5 Q530 33 493 8.5 Q456 -16 408 -26.5 Q360 -37 308 -37 Q269 -37 231.5 -30.5 Q194 -24 161 -13 Q128 -2 99.5 13.5 Q71 29 50 46 L112 148 Q145 120 197 99 Q249 78 314 78 Z " />
<glyph glyph-name="T" unicode="T" horiz-adv-x="571" d="M561 695 L561 587 L350 587 L350 -26 L222 -26 L222 587 L10 587 L10 695 L561 695 Z " />
<glyph glyph-name="U" unicode="U" horiz-adv-x="696" d="M348 79 Q387 79 416 88.5 Q445 98 463.5 120.5 Q482 143 491 179.5 Q500 216 500 269 L500 695 L628 695 L628 271 Q628 182 609.5 123 Q591 64 555.5 28.5 Q520 -7 468 -22 Q416 -37 348 -37 Q280 -37 228 -22 Q176 -7 140.5 28.5 Q105 64 86.5 123 Q68 182 68 271 L68 695 L196 695 L196 269 Q196 216 205 179.5 Q214 143 232.5 120.5 Q251 98 280 88.5 Q309 79 348 79 Z " />
<glyph glyph-name="V" unicode="V" horiz-adv-x="707" d="M28 695 L165 695 L354 131 L550 695 L680 695 L408 -26 L293 -26 L28 695 Z " />
<glyph glyph-name="W" unicode="W" horiz-adv-x="992" d="M27 695 L160 695 L292 160 L438 695 L561 695 L706 161 L843 695 L966 695 L767 -26 L645 -26 L499 529 L347 -26 L223 -26 L27 695 Z " />
<glyph glyph-name="X" unicode="X" horiz-adv-x="669" d="M419 344 L643 -26 L495 -26 L330 265 L170 -26 L26 -26 L249 351 L44 695 L198 695 L342 429 L491 695 L634 695 L419 344 Z " />
<glyph glyph-name="Y" unicode="Y" horiz-adv-x="648" d="M388 259 L388 -26 L260 -26 L260 259 L13 695 L156 695 L327 377 L495 695 L635 695 L388 259 Z " />
<glyph glyph-name="Z" unicode="Z" horiz-adv-x="629" d="M578 598 L183 84 L597 84 L597 -26 L25 -26 L25 79 L415 585 L49 585 L49 695 L578 695 L578 598 Z " />
<glyph glyph-name="bracketleft" unicode="&#x5b;" horiz-adv-x="422" d="M380 -170 L87 -170 L87 766 L380 766 L380 656 L216 656 L216 -60 L380 -60 L380 -170 Z " />
<glyph glyph-name="backslash" unicode="&#x5c;" horiz-adv-x="962" d="M32 398 L138 398 L64 695 L191 695 L255 398 L360 398 L438 695 L549 695 L619 398 L715 398 L775 695 L900 695 L827 398 L930 398 L930 327 L810 327 L726 -26 L616 -26 L535 327 L439 327 L350 -26 L244 -26 L156 327 L32 327 L32 398 Z M301 169 L343 327 L269 327 L301 169 Z M672 163 L701 327 L634 327 L672 163 Z M457 398 L519 398 L491 530 L457 398 Z " />
<glyph glyph-name="bracketright" unicode="&#x5d;" horiz-adv-x="422" d="M42 -60 L206 -60 L206 656 L42 656 L42 766 L335 766 L335 -170 L42 -170 L42 -60 Z " />
<glyph glyph-name="asciicircum" unicode="&#x5e;" horiz-adv-x="524" d="M364 401 L262 625 L160 401 L42 401 L204 724 L321 724 L482 401 L364 401 Z " />
<glyph glyph-name="underscore" unicode="&#x5f;" horiz-adv-x="520" d="M520 -150 L0 -150 L0 -75 L520 -75 L520 -150 Z " />
<glyph glyph-name="grave" unicode="&#x60;" horiz-adv-x="620" d="M326 562 L178 717 L327 717 L440 562 L326 562 Z " />
<glyph glyph-name="a" unicode="a" horiz-adv-x="573" d="M234 -34 Q145 -34 96 6.5 Q47 47 47 120 L47 152 Q47 186 57.5 214.5 Q68 243 92.5 264 Q117 285 157 297 Q197 309 255 309 L381 309 L381 330 Q381 381 357.5 403.5 Q334 426 283 426 Q197 426 127 371 L65 463 Q107 492 160 514.5 Q213 537 284 537 Q332 537 373 525 Q414 513 443.5 490.5 Q473 468 489.5 435.5 Q506 403 506 361 L506 -26 L393 -26 L391 42 Q383 24 365.5 9.5 Q348 -5 326 -14.5 Q304 -24 280 -29 Q256 -34 234 -34 Z M381 211 L258 211 Q208 211 188.5 192 Q169 173 169 141 L169 129 Q169 102 188 87 Q207 72 244 72 Q321 72 358 109 Q375 126 378 145.5 Q381 165 381 196 L381 211 Z " />
<glyph glyph-name="b" unicode="b" horiz-adv-x="613" d="M195 38 L195 -26 L75 -26 L75 730 L201 730 L201 471 Q214 490 233.5 503 Q253 516 273.5 523.5 Q294 531 314.5 534 Q335 537 352 537 Q405 537 445.5 520.5 Q486 504 513 473 Q540 442 553.5 399 Q567 356 567 302 L567 205 Q567 149 551 104.5 Q535 60 506 29.5 Q477 -1 436.5 -17.5 Q396 -34 346 -34 Q291 -34 254 -14 Q217 6 198 38 L195 38 Z M442 282 Q442 352 415 390.5 Q388 429 327 429 Q264 429 231.5 392.5 Q199 356 199 299 L199 182 Q199 163 209 143.5 Q219 124 236 108.5 Q253 93 277 83 Q301 73 330 73 Q385 73 413.5 111.5 Q442 150 442 219 L442 282 Z " />
<glyph glyph-name="c" unicode="c" horiz-adv-x="527" d="M295 537 Q334 537 364 531.5 Q394 526 418 517 Q442 508 461 496 Q480 484 496 472 L435 380 Q401 407 367.5 417 Q334 427 295 427 Q271 427 249 419.5 Q227 412 210 395.5 Q193 379 183 352.5 Q173 326 173 288 L173 221 Q173 179 184.5 151 Q196 123 214 106.5 Q232 90 254 83.5 Q276 77 297 77 Q349 77 383.5 89.5 Q418 102 447 124 L507 32 Q479 6 425 -14 Q371 -34 296 -34 Q174 -34 110 33.5 Q46 101 46 219 L46 288 Q46 406 112.5 471.5 Q179 537 295 537 Z " />
<glyph glyph-name="d" unicode="d" horiz-adv-x="612" d="M418 39 L415 39 Q393 -1 350 -17.5 Q307 -34 257 -34 Q151 -34 98.5 27.5 Q46 89 46 201 L46 298 Q46 354 61.5 398.5 Q77 443 106 473.5 Q135 504 175.5 520.5 Q216 537 266 537 Q299 537 323.5 531 Q348 525 365.5 516.5 Q383 508 394 497.5 Q405 487 411 478 L411 730 L537 730 L537 -26 L418 -26 L418 39 Z M170 220 Q170 150 198.5 111.5 Q227 73 282 73 Q313 73 337.5 83.5 Q362 94 378.5 112.5 Q395 131 404 155.5 Q413 180 413 208 L413 320 Q413 339 405.5 358.5 Q398 378 382.5 393.5 Q367 409 343.5 419 Q320 429 287 429 Q227 429 198.5 390 Q170 351 170 282 L170 220 Z " />
<glyph glyph-name="e" unicode="e" horiz-adv-x="582" d="M417 299 L417 323 Q417 345 410.5 365 Q404 385 389 400 Q374 415 351 424 Q328 433 295 433 Q232 433 200.5 400 Q169 367 169 320 L169 299 L417 299 Z M524 25 Q484 -2 430 -18 Q376 -34 298 -34 Q250 -34 205 -21.5 Q160 -9 124.5 20.5 Q89 50 67.5 99.5 Q46 149 46 223 L46 280 Q46 347 65.5 395.5 Q85 444 119 475.5 Q153 507 198.5 522 Q244 537 297 537 Q349 537 393.5 522 Q438 507 470 476.5 Q502 446 520 400.5 Q538 355 538 295 L538 204 L169 204 Q169 138 204 104.5 Q239 71 305 71 Q354 71 392 81.5 Q430 92 472 116 L524 25 Z " />
<glyph glyph-name="f" unicode="f" horiz-adv-x="406" d="M111 422 L23 422 L23 525 L111 525 L111 563 Q111 646 155.5 691 Q200 736 291 736 Q322 736 350 731 Q378 726 395 720 L375 619 Q345 629 303 629 Q237 629 237 560 L237 525 L376 525 L376 422 L237 422 L237 -26 L111 -26 L111 422 Z " />
<glyph glyph-name="g" unicode="g" horiz-adv-x="612" d="M413 48 L411 48 Q389 8 348 -8 Q307 -24 257 -24 Q151 -24 98.5 37.5 Q46 99 46 211 L46 298 Q46 353 61.5 397.5 Q77 442 106 473 Q135 504 175.5 520.5 Q216 537 266 537 Q298 537 323 531 Q348 525 366.5 516 Q385 507 397 496.5 Q409 486 415 477 L416 477 L416 525 L537 525 L537 -21 Q537 -136 474 -192.5 Q411 -249 275 -249 Q223 -249 171.5 -232 Q120 -215 86 -189 L143 -91 Q151 -98 166 -106.5 Q181 -115 199 -122 Q217 -129 237 -133.5 Q257 -138 277 -138 Q344 -138 378.5 -109.5 Q413 -81 413 -20 L413 48 Z M170 230 Q170 160 198.5 121.5 Q227 83 282 83 Q313 83 337.5 93.5 Q362 104 378.5 122.5 Q395 141 404 165.5 Q413 190 413 218 L413 320 Q413 339 405.5 358.5 Q398 378 382.5 393.5 Q367 409 343.5 419 Q320 429 287 429 Q227 429 198.5 390 Q170 351 170 282 L170 230 Z " />
<glyph glyph-name="h" unicode="h" horiz-adv-x="621" d="M359 537 Q396 537 430.5 526 Q465 515 492 490.5 Q519 466 535 427 Q551 388 551 333 L551 -26 L425 -26 L425 306 Q425 427 320 427 Q305 427 284.5 422.5 Q264 418 245.5 404.5 Q227 391 214 366 Q201 341 201 300 L201 -26 L75 -26 L75 730 L194 730 L194 462 L196 462 Q225 504 267.5 520.5 Q310 537 359 537 Z " />
<glyph glyph-name="i" unicode="i" horiz-adv-x="282" d="M78 525 L204 525 L204 -26 L78 -26 L78 525 Z M75 742 L207 742 L207 606 L75 606 L75 742 Z " />
<glyph glyph-name="j" unicode="j" horiz-adv-x="306" d="M99 742 L231 742 L231 606 L99 606 L99 742 Z M228 -76 Q228 -115 218.5 -146.5 Q209 -178 188.5 -201 Q168 -224 134.5 -236.5 Q101 -249 53 -249 Q22 -249 -8.5 -244.5 Q-39 -240 -56 -234 L-36 -132 Q-14 -138 2.5 -140 Q19 -142 36 -142 Q71 -142 86.5 -126.5 Q102 -111 102 -71 L102 525 L228 525 L228 -76 Z " />
<glyph glyph-name="k" unicode="k" horiz-adv-x="584" d="M352 297 L575 -26 L414 -26 L264 208 L201 138 L201 -26 L75 -26 L75 730 L201 730 L201 292 L407 525 L566 525 L352 297 Z " />
<glyph glyph-name="l" unicode="l" horiz-adv-x="276" d="M75 730 L201 730 L201 -26 L75 -26 L75 730 Z " />
<glyph glyph-name="m" unicode="m" horiz-adv-x="925" d="M665 537 Q703 537 737.5 524 Q772 511 798 485 Q824 459 839.5 420 Q855 381 855 329 L855 -26 L729 -26 L729 303 Q729 340 721 364 Q713 388 699 401.5 Q685 415 667 420 Q649 425 629 425 Q611 425 592.5 419.5 Q574 414 560 400.5 Q546 387 537 364 Q528 341 528 307 L528 -26 L402 -26 L402 305 Q402 340 394 363 Q386 386 372.5 400 Q359 414 341 419.5 Q323 425 302 425 Q257 425 229 397 Q201 369 201 312 L201 -26 L75 -26 L75 525 L194 525 L194 455 L196 455 Q216 493 254.5 515 Q293 537 347 537 Q398 537 438.5 514 Q479 491 494 453 Q523 495 562.5 516 Q602 537 665 537 Z " />
<glyph glyph-name="n" unicode="n" horiz-adv-x="621" d="M359 537 Q396 537 430.5 526 Q465 515 492 490.5 Q519 466 535 427 Q551 388 551 333 L551 -26 L425 -26 L425 306 Q425 427 320 427 Q305 427 284.5 422.5 Q264 418 245.5 404.5 Q227 391 214 366 Q201 341 201 300 L201 -26 L75 -26 L75 525 L194 525 L194 462 L196 462 Q225 504 267.5 520.5 Q310 537 359 537 Z " />
<glyph glyph-name="o" unicode="o" horiz-adv-x="608" d="M304 76 Q332 76 356 84 Q380 92 397.5 109 Q415 126 425 154 Q435 182 435 221 L435 282 Q435 361 399.5 394 Q364 427 304 427 Q244 427 208.5 394 Q173 361 173 282 L173 221 Q173 182 183 154 Q193 126 210.5 109 Q228 92 252 84 Q276 76 304 76 Z M304 -34 Q245 -34 197.5 -17 Q150 0 116.5 32 Q83 64 64.5 111.5 Q46 159 46 219 L46 284 Q46 345 64.5 392 Q83 439 116.5 471 Q150 503 197.5 520 Q245 537 304 537 Q362 537 410 520 Q458 503 491.5 471 Q525 439 543.5 392 Q562 345 562 284 L562 219 Q562 159 543.5 111.5 Q525 64 491.5 32 Q458 0 410 -17 Q362 -34 304 -34 Z " />
<glyph glyph-name="p" unicode="p" horiz-adv-x="613" d="M345 -34 Q295 -34 259 -16.5 Q223 1 201 30 L201 -240 L75 -240 L75 525 L196 525 L196 465 Q210 486 229 500 Q248 514 268.5 522 Q289 530 310.5 533.5 Q332 537 351 537 Q405 537 445.5 520 Q486 503 513 472.5 Q540 442 553.5 398.5 Q567 355 567 302 L567 205 Q567 149 551.5 105 Q536 61 507 30 Q478 -1 437 -17.5 Q396 -34 345 -34 Z M442 282 Q442 352 415 390.5 Q388 429 327 429 Q264 429 231.5 392.5 Q199 356 199 299 L199 182 Q199 163 209 143.5 Q219 124 236 108.5 Q253 93 277 83 Q301 73 330 73 Q385 73 413.5 111.5 Q442 150 442 219 L442 282 Z " />
<glyph glyph-name="q" unicode="q" horiz-adv-x="612" d="M413 38 L410 38 Q388 -2 347.5 -18 Q307 -34 257 -34 Q151 -34 98.5 27.5 Q46 89 46 201 L46 298 Q46 354 61.5 398.5 Q77 443 106 473.5 Q135 504 175.5 520.5 Q216 537 266 537 Q297 537 321.5 531 Q346 525 364 516.5 Q382 508 394 497.5 Q406 487 413 478 L415 478 L415 525 L537 525 L537 -240 L413 -240 L413 38 Z M170 220 Q170 150 198.5 111.5 Q227 73 282 73 Q313 73 337.5 83.5 Q362 94 378.5 112.5 Q395 131 404 155.5 Q413 180 413 208 L413 320 Q413 339 405.5 358.5 Q398 378 382.5 393.5 Q367 409 343.5 419 Q320 429 287 429 Q227 429 198.5 390 Q170 351 170 282 L170 220 Z " />
<glyph glyph-name="r" unicode="r" horiz-adv-x="442" d="M394 412 Q380 418 364 421 Q348 424 324 424 Q298 424 275.5 415 Q253 406 236.5 389.5 Q220 373 210.5 350.5 Q201 328 201 301 L201 -26 L75 -26 L75 525 L196 525 L196 445 L198 445 Q220 487 256.5 512 Q293 537 352 537 Q373 537 394 534 Q415 531 430 526 L394 412 Z " />
<glyph glyph-name="s" unicode="s" horiz-adv-x="513" d="M257 73 Q300 73 325.5 84.5 Q351 96 351 128 L351 134 Q351 148 347.5 157.5 Q344 167 332 174 Q320 181 297.5 187 Q275 193 236 201 Q186 211 150.5 224.5 Q115 238 92.5 258 Q70 278 59.5 306 Q49 334 49 373 L49 383 Q49 411 60.5 438.5 Q72 466 97.5 488 Q123 510 163.5 523.5 Q204 537 262 537 Q310 537 363.5 528 Q417 519 465 487 L411 396 Q383 415 348.5 423 Q314 431 278 431 Q219 431 197 417.5 Q175 404 175 382 L175 376 Q175 361 179 352 Q183 343 194 336.5 Q205 330 225 325 Q245 320 277 314 Q329 303 367.5 291 Q406 279 430.5 259.5 Q455 240 467 210.5 Q479 181 479 137 L479 126 Q479 94 464.5 65 Q450 36 422 14 Q394 -8 353 -21 Q312 -34 260 -34 Q191 -34 129.5 -16 Q68 2 28 34 L84 130 Q121 105 163 89 Q205 73 257 73 Z " />
<glyph glyph-name="t" unicode="t" horiz-adv-x="413" d="M110 421 L22 421 L22 525 L110 525 L110 666 L236 666 L236 525 L375 525 L375 421 L236 421 L236 131 Q236 96 250.5 85 Q265 74 290 74 Q309 74 327.5 77.5 Q346 81 368 90 L388 -11 Q371 -19 341.5 -26.5 Q312 -34 275 -34 Q228 -34 196 -23 Q164 -12 145 9 Q126 30 118 60.5 Q110 91 110 130 L110 421 Z " />
<glyph glyph-name="u" unicode="u" horiz-adv-x="618" d="M261 -35 Q174 -35 122 16.5 Q70 68 70 169 L70 525 L196 525 L196 196 Q196 160 204 136.5 Q212 113 226 99.5 Q240 86 259 80.5 Q278 75 300 75 Q319 75 339.5 81 Q360 87 377 102 Q394 117 405.5 142 Q417 167 417 204 L417 525 L543 525 L543 -26 L423 -26 L423 40 L421 40 Q409 20 391 6 Q373 -8 351.5 -17 Q330 -26 306.5 -30.5 Q283 -35 261 -35 Z " />
<glyph glyph-name="v" unicode="v" horiz-adv-x="536" d="M186 -26 L6 525 L144 525 L269 92 L273 92 L399 525 L530 525 L350 -26 L186 -26 Z " />
<glyph glyph-name="w" unicode="w" horiz-adv-x="786" d="M154 -26 L17 525 L152 525 L233 98 L237 98 L337 525 L456 525 L551 98 L555 98 L643 525 L769 525 L633 -26 L486 -26 L396 362 L392 362 L301 -26 L154 -26 Z " />
<glyph glyph-name="x" unicode="x" horiz-adv-x="547" d="M355 260 L529 -26 L379 -26 L270 175 L160 -26 L18 -26 L196 260 L25 525 L176 525 L279 341 L385 525 L524 525 L355 260 Z " />
<glyph glyph-name="y" unicode="y" horiz-adv-x="559" d="M155 525 L280 118 L284 118 L410 525 L544 525 L258 -255 L140 -214 L211 -33 L15 525 L155 525 Z " />
<glyph glyph-name="z" unicode="z" horiz-adv-x="498" d="M458 425 L188 84 L474 84 L474 -26 L22 -26 L22 60 L304 415 L42 415 L42 525 L458 525 L458 425 Z " />
<glyph glyph-name="braceleft" unicode="&#x7b;" horiz-adv-x="479" d="M35 360 Q90 361 115.5 377.5 Q141 394 141 437 L141 615 Q141 689 186.5 727.5 Q232 766 309 766 L430 766 L430 655 L332 655 Q311 655 298.5 650 Q286 645 279.5 634.5 Q273 624 271.5 606 Q270 588 270 563 L270 430 Q270 412 266 393 Q262 374 252 357 Q242 340 225 326.5 Q208 313 182 307 Q207 301 224 288.5 Q241 276 251.5 259 Q262 242 266 222.5 Q270 203 270 184 L270 25 Q270 -1 272 -17 Q274 -33 280.5 -42.5 Q287 -52 299 -55.5 Q311 -59 332 -59 L430 -59 L430 -170 L309 -170 Q232 -170 186.5 -135 Q141 -100 141 -27 L141 176 Q141 220 115.5 237 Q90 254 35 255 L35 360 Z " />
<glyph glyph-name="bar" unicode="&#x7c;" horiz-adv-x="307" d="M217 -170 L90 -170 L90 765 L217 765 L217 -170 Z " />
<glyph glyph-name="braceright" unicode="&#x7d;" horiz-adv-x="479" d="M437 255 Q382 254 356.5 237 Q331 220 331 176 L331 -27 Q331 -100 285.5 -135 Q240 -170 163 -170 L42 -170 L42 -59 L140 -59 Q161 -59 173 -55.5 Q185 -52 191.5 -42.5 Q198 -33 200 -17 Q202 -1 202 25 L202 184 Q202 203 206 222.5 Q210 242 220.5 259 Q231 276 247.5 288.5 Q264 301 290 307 Q264 313 247 326.5 Q230 340 220 357 Q210 374 206 393 Q202 412 202 430 L202 563 Q202 588 200.5 606 Q199 624 192.5 634.5 Q186 645 173.5 650 Q161 655 140 655 L42 655 L42 766 L163 766 Q240 766 285.5 727.5 Q331 689 331 615 L331 437 Q331 394 356.5 377.5 Q382 361 437 360 L437 255 Z " />
<glyph glyph-name="asciitilde" unicode="&#x7e;" horiz-adv-x="600" d="M393 222 Q358 222 333 236 Q308 250 288.5 267 Q269 284 251 298 Q233 312 212 312 Q187 312 174.5 285 Q162 258 158 219 L54 219 Q55 261 67.5 298 Q80 335 100.5 362 Q121 389 148.5 404.5 Q176 420 209 420 Q245 420 270.5 406 Q296 392 316 375 Q336 358 353 344 Q370 330 391 330 Q400 330 409 334 Q418 338 425 348.5 Q432 359 437.5 377 Q443 395 446 423 L550 423 Q545 323 501 272.5 Q457 222 393 222 Z " />
<glyph glyph-name="uni20A9" unicode="&#x20a9;" horiz-adv-x="962" d="M32 398 L138 398 L64 695 L191 695 L255 398 L360 398 L438 695 L549 695 L619 398 L715 398 L775 695 L900 695 L827 398 L930 398 L930 327 L810 327 L726 -26 L616 -26 L535 327 L439 327 L350 -26 L244 -26 L156 327 L32 327 L32 398 Z M301 169 L343 327 L269 327 L301 169 Z M672 163 L701 327 L634 327 L672 163 Z M457 398 L519 398 L491 530 L457 398 Z " />
<glyph glyph-name="uni2010" unicode="&#x2010;" horiz-adv-x="420" d="M394 234 L26 234 L26 347 L394 347 L394 234 Z " />
<glyph glyph-name="copyright" unicode="&#xa9;" horiz-adv-x="808" d="M418 27 Q485 27 540.5 49.5 Q596 72 636 113 Q676 154 698 210.5 Q720 267 720 335 Q720 404 697.5 461 Q675 518 634.5 558.5 Q594 599 539 621 Q484 643 418 643 Q353 643 298.5 621 Q244 599 204.5 558.5 Q165 518 142.5 461 Q120 404 120 335 Q120 267 142.5 210.5 Q165 154 204.5 113 Q244 72 298.5 49.5 Q353 27 418 27 Z M418 -33 Q335 -33 267.5 -4 Q200 25 152.5 75 Q105 125 79 192 Q53 259 53 335 Q53 412 79 479 Q105 546 152.5 596 Q200 646 267.5 674.5 Q335 703 418 703 Q503 703 571.5 674.5 Q640 646 688 596 Q736 546 761.5 479 Q787 412 787 335 Q787 259 761 192 Q735 125 687 75 Q639 25 571 -4 Q503 -33 418 -33 Z M427 545 Q475 545 509 533 Q543 521 578 494 L528 418 Q506 435 483.5 444 Q461 453 427 453 Q389 453 367.5 428.5 Q346 404 346 362 L346 310 Q346 262 369 238 Q392 214 428 214 Q466 214 492.5 223.5 Q519 233 539 249 L586 172 Q562 151 523.5 136.5 Q485 122 426 122 Q333 122 286.5 171.5 Q240 221 240 309 L240 362 Q240 450 289.5 497.5 Q339 545 427 545 Z " />
<glyph glyph-name="&amp;#x3000;" unicode="&#x3000;" horiz-adv-x="910" d="" />
<glyph glyph-name="&amp;#x3164;" unicode="&#x3164;" horiz-adv-x="910" d="" />
<glyph glyph-name="uni3001" unicode="&#x3001;" horiz-adv-x="910" d="M246 -122 Q221 -88 198 -60 Q175 -32 151 -7.5 Q127 17 101.5 39.5 Q76 62 46 86 L125 160 Q157 136 183.5 113.5 Q210 91 234 67.5 Q258 44 282 17 Q306 -10 332 -43 L246 -122 Z " />
<glyph glyph-name="uni3002" unicode="&#x3002;" horiz-adv-x="910" d="M174 -43 Q211 -43 232.5 -19.5 Q254 4 254 39 Q254 72 232.5 96.5 Q211 121 174 121 Q135 121 115 96.5 Q95 72 95 39 Q95 4 115 -19.5 Q135 -43 174 -43 Z M174 -114 Q139 -114 110.5 -102 Q82 -90 61.5 -69.5 Q41 -49 29.5 -21 Q18 7 18 39 Q18 71 29.5 98.5 Q41 126 61.5 146.5 Q82 167 110.5 179 Q139 191 174 191 Q209 191 237.5 179 Q266 167 286.5 146.5 Q307 126 318 98.5 Q329 71 329 39 Q329 7 317.5 -21 Q306 -49 285.5 -69.5 Q265 -90 236.5 -102 Q208 -114 174 -114 Z " />
<glyph glyph-name="&amp;#xb7;" unicode="&#xb7;" horiz-adv-x="421" d="M146 366 L275 366 L275 238 L146 238 L146 366 Z " />
<glyph glyph-name="&amp;#x30fb;" unicode="&#x30fb;" horiz-adv-x="421" d="M146 366 L275 366 L275 238 L146 238 L146 366 Z " />
<glyph glyph-name="twodotenleader" unicode="&#x2025;" horiz-adv-x="910" d="M248 366 L377 366 L377 238 L248 238 L248 366 Z M532 366 L661 366 L661 238 L532 238 L532 366 Z " />
<glyph glyph-name="&amp;#x2026;" unicode="&#x2026;" horiz-adv-x="910" d="M390 366 L519 366 L519 238 L390 238 L390 366 Z M120 366 L249 366 L249 238 L120 238 L120 366 Z M660 366 L789 366 L789 238 L660 238 L660 366 Z " />
<glyph glyph-name="&amp;#x22ef;" unicode="&#x22ef;" horiz-adv-x="910" d="M390 366 L519 366 L519 238 L390 238 L390 366 Z M120 366 L249 366 L249 238 L120 238 L120 366 Z M660 366 L789 366 L789 238 L660 238 L660 366 Z " />
<glyph glyph-name="dieresis" unicode="&#xa8;" horiz-adv-x="418" d="M57 693 L167 693 L167 581 L57 581 L57 693 Z M251 693 L361 693 L361 581 L251 581 L251 693 Z " />
<glyph glyph-name="uni3003" unicode="&#x3003;" horiz-adv-x="910" d="M481 450 L323 131 L237 131 L343 450 L481 450 Z M673 450 L515 131 L429 131 L535 450 L673 450 Z " />
<glyph glyph-name="&amp;#xad;" unicode="&#xad;" horiz-adv-x="438" d="M438 275 L0 275 L0 357 L438 357 L438 275 Z " />
<glyph glyph-name="&amp;#x2013;" unicode="&#x2013;" horiz-adv-x="438" d="M438 275 L0 275 L0 357 L438 357 L438 275 Z " />
<glyph glyph-name="&amp;#x2014;" unicode="&#x2014;" horiz-adv-x="876" d="M876 275 L0 275 L0 357 L876 357 L876 275 Z " />
<glyph glyph-name="&amp;#x2015;" unicode="&#x2015;" horiz-adv-x="876" d="M876 275 L0 275 L0 357 L876 357 L876 275 Z " />
<glyph glyph-name="uni2016" unicode="&#x2016;" horiz-adv-x="910" d="M571 -180 L514 -180 L514 780 L571 780 L571 -180 Z M395 -180 L339 -180 L339 780 L395 780 L395 -180 Z " />
<glyph glyph-name="uniFF3C" unicode="&#xff3c;" horiz-adv-x="910" d="M868 -123 L837 -154 L42 725 L72 758 L868 -123 Z " />
<glyph glyph-name="&amp;#x223c;" unicode="&#x223c;" horiz-adv-x="910" d="M742 339 Q731 321 714 304 Q697 287 677 274 Q657 261 635 253 Q613 245 591 245 Q548 245 517.5 254 Q487 263 455 280 Q429 294 394 307.5 Q359 321 319 321 Q282 321 255 303.5 Q228 286 209 258 L168 285 Q179 303 196 320 Q213 337 233 350 Q253 363 275 371 Q297 379 319 379 Q362 379 392.5 370 Q423 361 455 344 Q487 327 519 315 Q551 303 591 303 Q628 303 655 320.5 Q682 338 701 366 L742 339 Z " />
<glyph glyph-name="&amp;#x301c;" unicode="&#x301c;" horiz-adv-x="910" d="M742 339 Q731 321 714 304 Q697 287 677 274 Q657 261 635 253 Q613 245 591 245 Q548 245 517.5 254 Q487 263 455 280 Q429 294 394 307.5 Q359 321 319 321 Q282 321 255 303.5 Q228 286 209 258 L168 285 Q179 303 196 320 Q213 337 233 350 Q253 363 275 371 Q297 379 319 379 Q362 379 392.5 370 Q423 361 455 344 Q487 327 519 315 Q551 303 591 303 Q628 303 655 320.5 Q682 338 701 366 L742 339 Z " />
<glyph glyph-name="&amp;#xff5e;" unicode="&#xff5e;" horiz-adv-x="910" d="M742 339 Q731 321 714 304 Q697 287 677 274 Q657 261 635 253 Q613 245 591 245 Q548 245 517.5 254 Q487 263 455 280 Q429 294 394 307.5 Q359 321 319 321 Q282 321 255 303.5 Q228 286 209 258 L168 285 Q179 303 196 320 Q213 337 233 350 Q253 363 275 371 Q297 379 319 379 Q362 379 392.5 370 Q423 361 455 344 Q487 327 519 315 Q551 303 591 303 Q628 303 655 320.5 Q682 338 701 366 L742 339 Z " />
<glyph glyph-name="quoteleft" unicode="&#x2018;" horiz-adv-x="200" d="M148 544 L12 544 L92 775 L188 775 L148 544 Z " />
<glyph glyph-name="quoteright" unicode="&#x2019;" horiz-adv-x="200" d="M52 759 L188 759 L108 528 L12 528 L52 759 Z " />
<glyph glyph-name="quotedblleft" unicode="&#x201c;" horiz-adv-x="350" d="M144 544 L22 544 L102 775 L186 775 L144 544 Z M294 544 L172 544 L252 775 L336 775 L294 544 Z " />
<glyph glyph-name="quotedblright" unicode="&#x201d;" horiz-adv-x="350" d="M206 759 L328 759 L248 528 L164 528 L206 759 Z M56 759 L178 759 L98 528 L14 528 L56 759 Z " />
<glyph glyph-name="uni3014" unicode="&#x3014;" horiz-adv-x="344" d="M279 750 L315 689 L108 573 L108 31 L315 -85 L279 -146 L34 -9 L34 613 L279 750 Z " />
<glyph glyph-name="uni3015" unicode="&#x3015;" horiz-adv-x="358" d="M315 613 L315 -9 L70 -146 L34 -85 L241 31 L241 573 L34 689 L70 750 L315 613 Z " />
<glyph glyph-name="uni3008" unicode="&#x3008;" horiz-adv-x="467" d="M430 -94 L379 -134 L38 301 L378 736 L430 698 L118 301 L430 -94 Z " />
<glyph glyph-name="uni3009" unicode="&#x3009;" horiz-adv-x="477" d="M434 301 L94 -134 L40 -94 L352 301 L40 698 L93 736 L434 301 Z " />
<glyph glyph-name="uni300A" unicode="&#x300a;" horiz-adv-x="504" d="M477 -121 L424 -151 L161 301 L424 755 L477 723 L234 301 L477 -121 Z M345 -121 L290 -151 L29 301 L290 755 L345 723 L101 301 L345 -121 Z " />
<glyph glyph-name="uni300B" unicode="&#x300b;" horiz-adv-x="506" d="M475 301 L212 -151 L159 -121 L403 301 Q344 405 281 512.5 Q218 620 159 723 L212 755 L475 301 Z M341 301 L80 -151 L25 -121 L270 301 Q211 405 148 512.5 Q85 620 25 723 L80 755 L341 301 Z " />
<glyph glyph-name="uni300C" unicode="&#x300c;" horiz-adv-x="351" d="M328 694 L108 694 L108 331 L23 331 L23 769 L328 769 L328 694 Z " />
<glyph glyph-name="uni300D" unicode="&#x300d;" horiz-adv-x="351" d="M328 -167 L23 -167 L23 -92 L243 -92 L243 271 L328 271 L328 -167 Z " />
<glyph glyph-name="uni300E" unicode="&#x300e;" horiz-adv-x="386" d="M291 672 L291 711 L85 711 L85 387 L123 387 L123 672 L291 672 Z M350 616 L184 616 L184 331 L26 331 L26 769 L350 769 L350 616 Z " />
<glyph glyph-name="uni300F" unicode="&#x300f;" horiz-adv-x="376" d="M291 -109 L291 217 L251 217 L251 -68 L85 -68 L85 -109 L291 -109 Z M350 -165 L26 -165 L26 -12 L192 -12 L192 273 L350 273 L350 -165 Z " />
<glyph glyph-name="uni3010" unicode="&#x3010;" horiz-adv-x="374" d="M25 -131 L25 731 L348 731 Q295 697 252 650.5 Q209 604 178.5 548.5 Q148 493 131.5 429.5 Q115 366 115 298 Q115 231 131.5 168 Q148 105 178.5 50 Q209 -5 252.5 -51 Q296 -97 349 -131 L25 -131 Z " />
<glyph glyph-name="uni3011" unicode="&#x3011;" horiz-adv-x="382" d="M353 -133 L29 -133 Q81 -99 124.5 -52.5 Q168 -6 198.5 49.5 Q229 105 246 168 Q263 231 263 298 Q263 366 246 429.5 Q229 493 198.5 548.5 Q168 604 124.5 650.5 Q81 697 28 731 L353 731 L353 -133 Z " />
<glyph glyph-name="plusminus" unicode="&#xb1;" horiz-adv-x="620" d="M367 652 L367 464 L569 464 L569 358 L367 358 L367 168 L253 168 L253 358 L51 358 L51 464 L253 464 L253 652 L367 652 Z M51 121 L569 121 L569 15 L51 15 L51 121 Z " />
<glyph glyph-name="multiply" unicode="&#xd7;" horiz-adv-x="620" d="M239 315 L54 510 L120 574 L304 379 L490 577 L553 516 L368 317 L553 120 L488 57 L302 254 L117 57 L54 118 L239 315 Z " />
<glyph glyph-name="divide" unicode="&#xf7;" horiz-adv-x="620" d="M568 369 L568 265 L52 265 L52 369 L568 369 Z M252 571 L366 571 L366 459 L252 459 L252 571 Z M252 175 L366 175 L366 63 L252 63 L252 175 Z " />
<glyph glyph-name="notequal" unicode="&#x2260;" horiz-adv-x="620" d="M74 478 L357 478 L431 592 L531 592 L457 478 L546 478 L546 373 L387 373 L319 267 L546 267 L546 162 L249 162 L177 50 L77 50 L149 162 L74 162 L74 267 L219 267 L287 373 L74 373 L74 478 Z " />
<glyph glyph-name="lessequal" unicode="&#x2264;" horiz-adv-x="620" d="M67 354 L67 472 L547 679 L547 555 L198 416 L198 415 L547 272 L547 147 L67 354 Z M547 133 L547 27 L73 27 L73 133 L547 133 Z " />
<glyph glyph-name="greaterequal" unicode="&#x2265;" horiz-adv-x="620" d="M67 147 L67 272 L416 415 L416 416 L67 555 L67 679 L547 472 L547 354 L67 147 Z M541 133 L541 27 L67 27 L67 133 L541 133 Z " />
<glyph glyph-name="infinity" unicode="&#x221e;" horiz-adv-x="620" d="M310 243 Q278 201 241.5 177.5 Q205 154 148 154 Q83 154 47 194 Q11 234 11 300 Q11 364 47.5 405.5 Q84 447 156 447 Q186 447 209 439.5 Q232 432 250 419 Q268 406 282 390 Q296 374 310 357 Q341 398 378.5 422.5 Q416 447 472 447 Q537 447 573 407 Q609 367 609 301 Q609 237 572.5 195.5 Q536 154 464 154 Q434 154 411 161.5 Q388 169 370 181.5 Q352 194 337.5 210 Q323 226 310 243 Z M466 369 Q432 369 407 347.5 Q382 326 361 300 Q380 275 405 253 Q430 231 465 231 Q495 231 510.5 250 Q526 269 526 301 Q526 333 512.5 351 Q499 369 466 369 Z M154 232 Q188 232 213 252 Q238 272 259 298 Q250 310 239 323 Q228 336 215 346.5 Q202 357 187 363.5 Q172 370 155 370 Q125 370 109.5 351 Q94 332 94 300 Q94 268 107.5 250 Q121 232 154 232 Z " />
<glyph glyph-name="therefore" unicode="&#x2234;" horiz-adv-x="620" d="M209 145 Q209 113 186.5 90.5 Q164 68 132 68 Q117 68 103 74 Q89 80 78.5 90.5 Q68 101 61.5 115 Q55 129 55 145 Q55 160 61.5 173.5 Q68 187 78.5 197.5 Q89 208 103 214.5 Q117 221 132 221 Q148 221 162 214.5 Q176 208 186.5 197.5 Q197 187 203 173.5 Q209 160 209 145 Z M565 145 Q565 129 558.5 115 Q552 101 541 90.5 Q530 80 516.5 74 Q503 68 488 68 Q455 68 433 90.5 Q411 113 411 145 Q411 160 417 173.5 Q423 187 433 197.5 Q443 208 457 214.5 Q471 221 488 221 Q503 221 516.5 214.5 Q530 208 541 197.5 Q552 187 558.5 173.5 Q565 160 565 145 Z M376 494 Q376 479 369.5 465 Q363 451 352.5 440 Q342 429 328.5 422.5 Q315 416 300 416 Q285 416 271 422.5 Q257 429 246 440 Q235 451 228.5 465 Q222 479 222 494 Q222 510 228.5 523.5 Q235 537 246 547.5 Q257 558 271 564 Q285 570 300 570 Q330 570 353 548 Q376 526 376 494 Z " />
<glyph glyph-name="degree" unicode="&#xb0;" horiz-adv-x="322" d="M293 609 Q293 582 283.5 558 Q274 534 257 516 Q240 498 215.5 487.5 Q191 477 161 477 Q131 477 106.5 487.5 Q82 498 65 516 Q48 534 38.5 558 Q29 582 29 609 Q29 636 38.5 660 Q48 684 65 702 Q82 720 106.5 730.5 Q131 741 161 741 Q191 741 215.5 730.5 Q240 720 257 702 Q274 684 283.5 660 Q293 636 293 609 Z M221 609 Q221 635 205 653 Q189 671 161 671 Q133 671 117 653 Q101 635 101 609 Q101 583 117 565 Q133 547 161 547 Q189 547 205 565 Q221 583 221 609 Z " />
<glyph glyph-name="minute" unicode="&#x2032;" horiz-adv-x="399" d="M299 740 L162 472 L100 472 L169 740 L299 740 Z " />
<glyph glyph-name="second" unicode="&#x2033;" horiz-adv-x="600" d="M300 740 L163 472 L100 472 L169 740 L300 740 Z M500 740 L363 472 L300 472 L369 740 L500 740 Z " />
<glyph glyph-name="uni2103" unicode="&#x2103;" horiz-adv-x="866" d="M249 628 Q249 608 241.5 591 Q234 574 220.5 560.5 Q207 547 188.5 539.5 Q170 532 148 532 Q126 532 107.5 539.5 Q89 547 75.5 560.5 Q62 574 54.5 591 Q47 608 47 628 Q47 647 54.5 664.5 Q62 682 75.5 695.5 Q89 709 107.5 716.5 Q126 724 148 724 Q170 724 188.5 716.5 Q207 709 220.5 695.5 Q234 682 241.5 664.5 Q249 647 249 628 Z M188 628 Q188 644 177 655.5 Q166 667 148 667 Q130 667 119 655.5 Q108 644 108 628 Q108 612 119 600.5 Q130 589 148 589 Q166 589 177 600.5 Q188 612 188 628 Z M548 706 Q624 706 682.5 688 Q741 670 796 626 L727 528 Q683 565 640 576.5 Q597 588 548 588 Q516 588 485 578.5 Q454 569 430 544 Q406 519 391 476 Q376 433 376 366 L376 292 Q376 235 390 195 Q404 155 427.5 130 Q451 105 482 93.5 Q513 82 547 82 Q597 82 649.5 97.5 Q702 113 745 157 L813 59 Q781 27 745.5 8.5 Q710 -10 675 -20.5 Q640 -31 606 -34 Q572 -37 542 -37 Q483 -37 429.5 -20 Q376 -3 335.5 34 Q295 71 271 128 Q247 185 247 266 L247 395 Q247 476 270.5 534.5 Q294 593 335 631.5 Q376 670 430.5 688 Q485 706 548 706 Z " />
<glyph glyph-name="uni212B" unicode="&#x212b;" horiz-adv-x="688" d="M447 686 Q447 652 426 625 L671 -26 L532 -26 L462 172 L219 172 L148 -26 L17 -26 L258 622 Q235 648 235 686 Q235 728 264.5 757.5 Q294 787 341 787 Q388 787 417.5 757.5 Q447 728 447 686 Z M256 279 L425 279 L376 426 Q363 462 355.5 486.5 Q348 511 340 537 Q336 522 332.5 510 Q329 498 325 485.5 Q321 473 316.5 459 Q312 445 305 426 L256 279 Z M384 686 Q384 703 372 715.5 Q360 728 341 728 Q322 728 310 715.5 Q298 703 298 686 Q298 669 310 656.5 Q322 644 341 644 Q360 644 372 656.5 Q384 669 384 686 Z " />
<glyph glyph-name="&amp;#xa2;" unicode="&#xa2;" horiz-adv-x="520" d="M266 64 Q154 69 93.5 133.5 Q33 198 33 310 L33 364 Q33 476 95.5 538.5 Q158 601 266 605 L266 695 L321 695 L321 604 Q350 601 372.5 595 Q395 589 414 580 Q433 571 448.5 560.5 Q464 550 479 539 L420 450 Q370 488 321 496 L321 174 Q356 179 381.5 190 Q407 201 430 218 L492 130 Q469 108 425.5 89.5 Q382 71 321 65 L321 -26 L266 -26 L266 64 Z M157 312 Q157 274 167.5 248 Q178 222 194 205.5 Q210 189 229 181 Q248 173 266 172 L266 497 Q248 495 228.5 488 Q209 481 193.5 465.5 Q178 450 167.5 425 Q157 400 157 364 L157 312 Z " />
<glyph glyph-name="&amp;#xffe0;" unicode="&#xffe0;" horiz-adv-x="520" d="M266 64 Q154 69 93.5 133.5 Q33 198 33 310 L33 364 Q33 476 95.5 538.5 Q158 601 266 605 L266 695 L321 695 L321 604 Q350 601 372.5 595 Q395 589 414 580 Q433 571 448.5 560.5 Q464 550 479 539 L420 450 Q370 488 321 496 L321 174 Q356 179 381.5 190 Q407 201 430 218 L492 130 Q469 108 425.5 89.5 Q382 71 321 65 L321 -26 L266 -26 L266 64 Z M157 312 Q157 274 167.5 248 Q178 222 194 205.5 Q210 189 229 181 Q248 173 266 172 L266 497 Q248 495 228.5 488 Q209 481 193.5 465.5 Q178 450 167.5 425 Q157 400 157 364 L157 312 Z " />
<glyph glyph-name="&amp;#xa3;" unicode="&#xa3;" horiz-adv-x="512" d="M44 377 L98 377 L98 461 Q98 524 117.5 572 Q137 620 171.5 652.5 Q206 685 254 702 Q302 719 358 719 Q409 719 451 707.5 Q493 696 513 681 L473 575 Q446 592 420 597 Q394 602 365 602 Q339 602 314.5 595 Q290 588 270 571.5 Q250 555 238 527.5 Q226 500 226 460 L226 377 L434 377 L434 293 L226 293 L226 251 Q226 216 224.5 192 Q223 168 218 149.5 Q213 131 204 115.5 Q195 100 180 84 L180 82 L505 82 L505 -26 L13 -26 L13 59 Q57 85 77.5 127 Q98 169 98 243 L98 293 L44 293 L44 377 Z " />
<glyph glyph-name="&amp;#xffe1;" unicode="&#xffe1;" horiz-adv-x="512" d="M44 377 L98 377 L98 461 Q98 524 117.5 572 Q137 620 171.5 652.5 Q206 685 254 702 Q302 719 358 719 Q409 719 451 707.5 Q493 696 513 681 L473 575 Q446 592 420 597 Q394 602 365 602 Q339 602 314.5 595 Q290 588 270 571.5 Q250 555 238 527.5 Q226 500 226 460 L226 377 L434 377 L434 293 L226 293 L226 251 Q226 216 224.5 192 Q223 168 218 149.5 Q213 131 204 115.5 Q195 100 180 84 L180 82 L505 82 L505 -26 L13 -26 L13 59 Q57 85 77.5 127 Q98 169 98 243 L98 293 L44 293 L44 377 Z " />
<glyph glyph-name="&amp;#xa5;" unicode="&#xa5;" horiz-adv-x="558" d="M220 106 L59 106 L59 198 L220 198 L220 232 L59 232 L59 326 L200 326 L5 688 L133 688 L283 390 L284 390 L438 688 L555 688 L355 326 L499 326 L499 232 L336 232 L336 198 L499 198 L499 106 L336 106 L336 -26 L220 -26 L220 106 Z " />
<glyph glyph-name="&amp;#xffe5;" unicode="&#xffe5;" horiz-adv-x="558" d="M220 106 L59 106 L59 198 L220 198 L220 232 L59 232 L59 326 L200 326 L5 688 L133 688 L283 390 L284 390 L438 688 L555 688 L355 326 L499 326 L499 232 L336 232 L336 198 L499 198 L499 106 L336 106 L336 -26 L220 -26 L220 106 Z " />
<glyph glyph-name="male" unicode="&#x2642;" horiz-adv-x="910" d="M220 250 Q220 215 233 183.5 Q246 152 268.5 128.5 Q291 105 321.5 91 Q352 77 388 77 Q422 77 453 91 Q484 105 506.5 128.5 Q529 152 542.5 183.5 Q556 215 556 250 Q556 286 542.5 317.5 Q529 349 506.5 372.5 Q484 396 453 409.5 Q422 423 388 423 Q352 423 321.5 409.5 Q291 396 268.5 372.5 Q246 349 233 317.5 Q220 286 220 250 Z M109 250 Q109 308 130.5 359 Q152 410 189.5 447.5 Q227 485 278 507 Q329 529 388 529 Q436 529 475 517.5 Q514 506 549 480 Q561 493 571.5 503 Q582 513 591.5 522.5 Q601 532 612 542.5 Q623 553 637 567 L558 567 L558 663 L800 663 L800 422 L703 422 L703 501 Q679 476 660 457 Q641 438 615 413 Q641 378 653.5 338 Q666 298 666 250 Q666 193 644 142 Q622 91 584.5 53.5 Q547 16 496.5 -6 Q446 -28 388 -28 Q329 -28 278 -6 Q227 16 189.5 53.5 Q152 91 130.5 142 Q109 193 109 250 Z " />
<glyph glyph-name="female" unicode="&#x2640;" horiz-adv-x="910" d="M287 458 Q287 423 300 391.5 Q313 360 335.5 336.5 Q358 313 388.5 299 Q419 285 455 285 Q490 285 520.5 299 Q551 313 574 336.5 Q597 360 610 391.5 Q623 423 623 458 Q623 493 610 524.5 Q597 556 574 579.5 Q551 603 520.5 617 Q490 631 455 631 Q419 631 388.5 617 Q358 603 335.5 579.5 Q313 556 300 524.5 Q287 493 287 458 Z M406 184 Q356 191 314.5 215 Q273 239 242 275 Q211 311 194 358 Q177 405 177 458 Q177 515 198.5 566 Q220 617 257.5 654.5 Q295 692 345.5 714 Q396 736 455 736 Q513 736 564 714 Q615 692 652.5 654.5 Q690 617 711.5 566 Q733 515 733 458 Q733 405 716 358 Q699 311 668 274 Q637 237 595 213.5 Q553 190 504 183 L504 85 L636 85 L636 -14 L504 -14 L504 -142 L406 -142 L406 -14 L273 -14 L273 85 L406 85 L406 184 Z " />
<glyph glyph-name="angle" unicode="&#x2220;" horiz-adv-x="910" d="M760 0 L148 0 L148 53 L618 601 L679 549 L269 77 L760 77 L760 0 Z " />
<glyph glyph-name="perpendicular" unicode="&#x22a5;" horiz-adv-x="910" d="M774 0 L136 0 L136 77 L414 77 L414 576 L494 576 L494 77 L774 77 L774 0 Z " />
<glyph glyph-name="uni2312" unicode="&#x2312;" horiz-adv-x="910" d="M643 573 Q619 619 572.5 649.5 Q526 680 456 680 Q385 680 338 649.5 Q291 619 265 573 L188 573 Q225 645 290.5 690.5 Q356 736 454 736 Q504 736 544.5 724 Q585 712 618 690.5 Q651 669 676 639 Q701 609 721 573 L643 573 Z " />
<glyph glyph-name="partialdiff" unicode="&#x2202;" horiz-adv-x="548" d="M243 81 Q273 81 297.5 97 Q322 113 341 139.5 Q360 166 372.5 200.5 Q385 235 390 273 Q384 289 373 304.5 Q362 320 346 332.5 Q330 345 310 352.5 Q290 360 266 360 Q239 360 216 348 Q193 336 176 315 Q159 294 149 265.5 Q139 237 139 204 Q139 146 168.5 113.5 Q198 81 243 81 Z M53 674 Q66 682 84 691.5 Q102 701 124.5 709.5 Q147 718 174.5 723.5 Q202 729 235 729 Q292 729 342.5 705 Q393 681 431 635 Q469 589 491.5 522.5 Q514 456 514 371 Q514 276 491 204.5 Q468 133 429 85 Q390 37 339 13 Q288 -11 232 -11 Q179 -11 139.5 8 Q100 27 74 57 Q48 87 35.5 125.5 Q23 164 23 203 Q23 254 39.5 299 Q56 344 85 377.5 Q114 411 155 430.5 Q196 450 244 450 Q304 450 342 424 Q380 398 400 367 L401 367 Q405 414 396.5 461.5 Q388 509 366 547.5 Q344 586 309 610 Q274 634 225 634 Q180 634 147 621.5 Q114 609 88 595 L53 674 Z " />
<glyph glyph-name="gradient" unicode="&#x2207;" horiz-adv-x="910" d="M853 602 L455 -28 L57 602 L853 602 Z M728 535 L180 535 L455 96 L728 535 Z " />
<glyph glyph-name="equivalence" unicode="&#x2261;" horiz-adv-x="620" d="M37 277 L37 350 L582 350 L582 277 L37 277 Z M37 433 L37 504 L582 504 L582 433 L37 433 Z M37 121 L37 192 L582 192 L582 121 L37 121 Z " />
<glyph glyph-name="uni2252" unicode="&#x2252;" horiz-adv-x="620" d="M407 83 Q407 109 425.5 127 Q444 145 470 145 Q496 145 513.5 127 Q531 109 531 83 Q531 57 513.5 38.5 Q496 20 470 20 Q444 20 425.5 38.5 Q407 57 407 83 Z M77 541 Q77 567 95.5 585.5 Q114 604 138 604 Q164 604 182.5 585.5 Q201 567 201 541 Q201 515 182.5 497.5 Q164 480 138 480 Q114 480 95.5 497.5 Q77 515 77 541 Z M37 428 L583 428 L583 360 L37 360 L37 428 Z M37 267 L583 267 L583 198 L37 198 L37 267 Z " />
<glyph glyph-name="section" unicode="&#xa7;" horiz-adv-x="553" d="M239 365 L230 367 Q192 362 173.5 343.5 Q155 325 155 296 Q155 263 172.5 245 Q190 227 240 213 L308 193 Q309 192 311 192 Q313 192 315 191 Q318 190 320 189 Q397 204 397 261 Q397 277 393 289.5 Q389 302 378.5 311.5 Q368 321 350.5 329 Q333 337 306 345 L239 365 Z M255 -172 Q195 -172 146.5 -161 Q98 -150 63 -130 L63 -25 Q81 -33 99.5 -39.5 Q118 -46 138 -51.5 Q158 -57 182.5 -60 Q207 -63 237 -63 Q297 -63 323.5 -45.5 Q350 -28 350 6 Q350 22 347 33 Q344 44 335 52.5 Q326 61 310.5 68 Q295 75 270 82 L189 104 Q153 113 122 126.5 Q91 140 68.5 160 Q46 180 33.5 209 Q21 238 21 279 Q21 333 46 365.5 Q71 398 118 415 Q95 437 81.5 467.5 Q68 498 68 545 Q68 627 124.5 675.5 Q181 724 296 724 Q359 724 398 713.5 Q437 703 466 688 L466 584 Q439 596 400 606 Q361 616 309 616 Q260 616 233 601 Q206 586 206 552 Q206 537 209 526 Q212 515 220 506.5 Q228 498 241 491.5 Q254 485 275 478 L361 455 Q403 444 435.5 430.5 Q468 417 490 397 Q512 377 523.5 348.5 Q535 320 535 280 Q535 223 511 189.5 Q487 156 441 140 Q467 118 481 88 Q495 58 495 16 Q495 -77 434 -124.5 Q373 -172 255 -172 Z " />
<glyph glyph-name="uni203B" unicode="&#x203b;" horiz-adv-x="920" d="M527 298 L852 -22 Q834 -40 815.5 -57.5 Q797 -75 779 -94 Q698 -13 619.5 68.5 Q541 150 460 231 L143 -94 Q124 -75 105.5 -57.5 Q87 -40 68 -22 L393 298 L70 619 L138 694 L458 366 L781 694 Q799 676 816 657 Q833 638 850 619 L527 298 Z M556 595 Q556 576 548 559 Q540 542 527 528.5 Q514 515 496 507 Q478 499 459 499 Q439 499 422 507 Q405 515 391.5 528.5 Q378 542 370.5 559 Q363 576 363 595 Q363 614 370.5 631.5 Q378 649 390.5 662.5 Q403 676 420.5 683.5 Q438 691 458 691 Q477 691 495 683.5 Q513 676 526.5 662.5 Q540 649 548 631.5 Q556 614 556 595 Z M261 297 Q261 278 253 261 Q245 244 231.5 230.5 Q218 217 200.5 209 Q183 201 164 201 Q145 201 127.5 209 Q110 217 96.5 230.5 Q83 244 75 261 Q67 278 67 297 Q67 316 75 333.5 Q83 351 96.5 364.5 Q110 378 127 385.5 Q144 393 163 393 Q182 393 199.5 385.5 Q217 378 230.5 364.5 Q244 351 252.5 333.5 Q261 316 261 297 Z M868 297 Q868 278 861 261 Q854 244 841 231 Q828 218 811 210.5 Q794 203 774 203 Q755 203 737.5 210.5 Q720 218 706.5 231 Q693 244 685 261 Q677 278 677 297 Q677 318 685 335.5 Q693 353 706 365.5 Q719 378 736.5 385.5 Q754 393 773 393 Q813 393 840.5 366 Q868 339 868 297 Z M555 -8 Q555 -27 547.5 -44.5 Q540 -62 527 -75 Q514 -88 496.5 -95.5 Q479 -103 459 -103 Q439 -103 422 -95.5 Q405 -88 392.5 -75 Q380 -62 372.5 -44.5 Q365 -27 365 -8 Q365 31 391.5 58.5 Q418 86 458 86 Q477 86 495 78.5 Q513 71 526 58.5 Q539 46 547 28.5 Q555 11 555 -8 Z " />
<glyph glyph-name="uni2606" unicode="&#x2606;" horiz-adv-x="910" d="M456 559 L392 366 L184 366 L351 242 L286 49 L456 167 L621 49 L561 242 L725 366 L520 366 L456 559 Z M567 427 L910 427 L631 220 L737 -108 L457 89 L172 -108 L279 220 L-2 427 L348 427 L457 752 L567 427 Z " />
<glyph glyph-name="uni2605" unicode="&#x2605;" horiz-adv-x="910" d="M567 427 L910 427 L631 220 L737 -108 L457 89 L172 -108 L279 220 L-2 427 L348 427 L457 752 L567 427 Z " />
<glyph glyph-name="circle" unicode="&#x25cb;" horiz-adv-x="910" d="M166 324 Q166 264 189 211 Q212 158 251 119 Q290 80 343 57 Q396 34 456 34 Q517 34 569.5 57 Q622 80 661 119 Q700 158 722.5 211 Q745 264 745 324 Q745 384 722.5 436.5 Q700 489 661 528.5 Q622 568 569.5 590.5 Q517 613 456 613 Q396 613 343 590.5 Q290 568 251 528.5 Q212 489 189 436.5 Q166 384 166 324 Z M90 324 Q90 399 119 465.5 Q148 532 197.5 581.5 Q247 631 313.5 660 Q380 689 456 689 Q532 689 598.5 660 Q665 631 714.5 581.5 Q764 532 792.5 465.5 Q821 399 821 324 Q821 248 792.5 181 Q764 114 714.5 64.5 Q665 15 598.5 -14 Q532 -43 456 -43 Q380 -43 313.5 -14 Q247 15 197.5 64.5 Q148 114 119 181 Q90 248 90 324 Z " />
<glyph glyph-name="H18533" unicode="&#x25cf;" horiz-adv-x="910" d="M90 324 Q90 399 119 465.5 Q148 532 197.5 581.5 Q247 631 313.5 660 Q380 689 456 689 Q532 689 598.5 660 Q665 631 714.5 581.5 Q764 532 792.5 465.5 Q821 399 821 324 Q821 248 792.5 181 Q764 114 714.5 64.5 Q665 15 598.5 -14 Q532 -43 456 -43 Q380 -43 313.5 -14 Q247 15 197.5 64.5 Q148 114 119 181 Q90 248 90 324 Z " />
<glyph glyph-name="uni25CE" unicode="&#x25ce;" horiz-adv-x="910" d="M306 324 Q306 293 318 265.5 Q330 238 350 218 Q370 198 397.5 186 Q425 174 456 174 Q487 174 514 186 Q541 198 561 218 Q581 238 593 265.5 Q605 293 605 324 Q605 354 593 381 Q581 408 561 428.5 Q541 449 514 461 Q487 473 456 473 Q425 473 397.5 461 Q370 449 350 428.5 Q330 408 318 381 Q306 354 306 324 Z M241 324 Q241 368 258 407 Q275 446 304 475.5 Q333 505 372 522 Q411 539 456 539 Q501 539 540 522 Q579 505 608 475.5 Q637 446 654 407 Q671 368 671 324 Q671 279 654 240 Q637 201 608 172 Q579 143 540 126 Q501 109 456 109 Q411 109 372 126 Q333 143 304 172 Q275 201 258 240 Q241 279 241 324 Z M168 324 Q168 264 190.5 211.5 Q213 159 252 120 Q291 81 343.5 58.5 Q396 36 456 36 Q516 36 569 58.5 Q622 81 661 120 Q700 159 722.5 211.5 Q745 264 745 324 Q745 383 722.5 435.5 Q700 488 661 527.5 Q622 567 569 590 Q516 613 456 613 Q396 613 343.5 590 Q291 567 252 527.5 Q213 488 190.5 435.5 Q168 383 168 324 Z M90 324 Q90 399 119 465.5 Q148 532 197.5 581.5 Q247 631 313.5 660 Q380 689 456 689 Q532 689 598.5 660 Q665 631 714.5 581.5 Q764 532 792.5 465.5 Q821 399 821 324 Q821 248 792.5 181 Q764 114 714.5 64.5 Q665 15 598.5 -14 Q532 -43 456 -43 Q380 -43 313.5 -14 Q247 15 197.5 64.5 Q148 114 119 181 Q90 248 90 324 Z " />
<glyph glyph-name="uni25C7" unicode="&#x25c7;" horiz-adv-x="910" d="M455 615 L161 324 L455 29 L746 323 L455 615 Z M455 720 L851 323 L455 -74 L58 323 L455 720 Z " />
<glyph glyph-name="uni25C6" unicode="&#x25c6;" horiz-adv-x="910" d="M58 324 L455 720 L852 323 L456 -74 L58 324 Z " />
<glyph glyph-name="H22073" unicode="&#x25a1;" horiz-adv-x="910" d="M182 598 L182 50 L731 50 L731 598 L182 598 Z M105 673 L806 673 L806 -28 L105 -28 L105 673 Z " />
<glyph glyph-name="filledbox" unicode="&#x25a0;" horiz-adv-x="910" d="M103 -28 L103 673 L805 673 L805 -28 L103 -28 Z " />
<glyph glyph-name="uni25B3" unicode="&#x25b3;" horiz-adv-x="910" d="M718 37 L453 568 L186 37 L718 37 Z M79 -27 L455 718 L829 -27 L79 -27 Z " />
<glyph glyph-name="triagup" unicode="&#x25b2;" horiz-adv-x="910" d="M80 -37 L455 708 L828 -37 L80 -37 Z " />
<glyph glyph-name="uni25BD" unicode="&#x25bd;" horiz-adv-x="910" d="M188 609 L455 78 L720 609 L188 609 Z M829 674 L455 -71 L79 674 L829 674 Z " />
<glyph glyph-name="triagdn" unicode="&#x25bc;" horiz-adv-x="910" d="M828 674 L455 -71 L80 674 L828 674 Z " />
<glyph glyph-name="arrowright" unicode="&#x2192;" horiz-adv-x="910" d="M104 373 L657 373 L582 500 L597 517 L805 344 L597 171 L582 188 L657 314 L104 314 L104 373 Z " />
<glyph glyph-name="arrowleft" unicode="&#x2190;" horiz-adv-x="910" d="M805 314 L252 314 L327 188 L312 171 L104 344 L312 517 L327 500 L252 373 L805 373 L805 314 Z " />
<glyph glyph-name="arrowup" unicode="&#x2191;" horiz-adv-x="910" d="M426 0 L426 553 L299 478 L282 493 L455 701 L628 493 L611 478 L484 553 L484 0 L426 0 Z " />
<glyph glyph-name="arrowdown" unicode="&#x2193;" horiz-adv-x="910" d="M484 687 L484 135 L611 209 L628 194 L455 -14 L282 194 L299 209 L426 135 L426 687 L484 687 Z " />
<glyph glyph-name="arrowboth" unicode="&#x2194;" horiz-adv-x="910" d="M282 188 L267 171 L59 344 L267 517 L282 500 L207 373 L703 373 L628 500 L643 517 L851 344 L643 171 L628 188 L703 314 L207 314 L282 188 Z " />
<glyph glyph-name="uni3013" unicode="&#x3013;" horiz-adv-x="910" d="M779 391 L131 391 L131 429 L779 429 L779 391 Z M779 195 L131 195 L131 233 L779 233 L779 195 Z " />
<glyph glyph-name="&amp;#xab;" unicode="&#xab;" horiz-adv-x="910" d="M816 19 L784 -34 L302 280 L302 325 L776 650 L815 599 L381 303 L816 19 Z M610 16 L574 -38 L94 280 L94 325 L567 653 L604 600 L173 302 L610 16 Z " />
<glyph glyph-name="&amp;#x226a;" unicode="&#x226a;" horiz-adv-x="910" d="M816 19 L784 -34 L302 280 L302 325 L776 650 L815 599 L381 303 L816 19 Z M610 16 L574 -38 L94 280 L94 325 L567 653 L604 600 L173 302 L610 16 Z " />
<glyph glyph-name="&amp;#xbb;" unicode="&#xbb;" horiz-adv-x="910" d="M816 280 L336 -38 L302 16 L737 302 Q719 315 686 337.5 Q653 360 612.5 388 Q572 416 527.5 446.5 Q483 477 441.5 505.5 Q400 534 366 557.5 Q332 581 311.5 595.5 Q291 610 287.5 612.5 Q284 615 306 600 L345 653 L816 325 L816 280 Z M610 280 L128 -34 L94 19 L529 301 Q556 283 546 290 Q536 297 502 320 Q468 343 417.5 378 Q367 413 313.5 450 Q260 487 209 521.5 Q158 556 124.5 579.5 Q91 603 80.5 610 Q70 617 97 599 L136 650 L610 325 L610 280 Z " />
<glyph glyph-name="&amp;#x226b;" unicode="&#x226b;" horiz-adv-x="910" d="M816 280 L336 -38 L302 16 L737 302 Q719 315 686 337.5 Q653 360 612.5 388 Q572 416 527.5 446.5 Q483 477 441.5 505.5 Q400 534 366 557.5 Q332 581 311.5 595.5 Q291 610 287.5 612.5 Q284 615 306 600 L345 653 L816 325 L816 280 Z M610 280 L128 -34 L94 19 L529 301 Q556 283 546 290 Q536 297 502 320 Q468 343 417.5 378 Q367 413 313.5 450 Q260 487 209 521.5 Q158 556 124.5 579.5 Q91 603 80.5 610 Q70 617 97 599 L136 650 L610 325 L610 280 Z " />
<glyph glyph-name="radical" unicode="&#x221a;" horiz-adv-x="574" d="M363 -121 L282 -121 L125 300 L50 269 L27 325 L181 389 L317 -7 L320 -7 L511 800 L592 800 L363 -121 Z " />
<glyph glyph-name="uni223D" unicode="&#x223d;" horiz-adv-x="910" d="M829 316 Q829 278 815.5 243.5 Q802 209 777.5 183 Q753 157 719.5 141.5 Q686 126 646 126 Q614 126 583.5 137.5 Q553 149 524 171 L556 223 Q600 191 646 191 Q671 191 692.5 200.5 Q714 210 729.5 227 Q745 244 753.5 266.5 Q762 289 762 316 Q762 339 753.5 361 Q745 383 730 400.5 Q715 418 694 428.5 Q673 439 647 439 Q593 439 557 404.5 Q521 370 487 306 Q475 283 457.5 252 Q440 221 413.5 193.5 Q387 166 350 146.5 Q313 127 262 127 Q228 127 195.5 139 Q163 151 137.5 174.5 Q112 198 96.5 233.5 Q81 269 81 316 Q81 361 96 396 Q111 431 136.5 454.5 Q162 478 194 490.5 Q226 503 261 503 Q296 503 327 491 Q358 479 386 461 L353 408 Q332 421 310.5 429 Q289 437 268 437 Q214 437 181.5 403.5 Q149 370 149 316 Q149 261 179.5 227.5 Q210 194 267 194 Q303 194 330.5 210.5 Q358 227 379 250.5 Q400 274 415 301 Q430 328 441 349 Q456 379 475.5 407 Q495 435 520 456 Q545 477 576 490 Q607 503 645 503 Q685 503 719 487.5 Q753 472 777.5 446 Q802 420 815.5 386.5 Q829 353 829 316 Z " />
<glyph glyph-name="proportional" unicode="&#x221d;" horiz-adv-x="910" d="M301 192 Q332 192 356.5 203 Q381 214 400 232 Q419 250 433.5 272 Q448 294 459 315 Q448 336 433 358 Q418 380 398.5 398 Q379 416 355 427.5 Q331 439 301 439 Q246 439 213.5 404.5 Q181 370 181 316 Q181 259 212 225.5 Q243 192 301 192 Z M761 409 Q741 423 720.5 432 Q700 441 680 441 Q626 441 590.5 408 Q555 375 523 315 Q555 254 590.5 221.5 Q626 189 680 189 Q697 189 719 195 Q741 201 759 211 L780 155 Q730 127 680 127 Q648 127 620 137.5 Q592 148 568 166 Q544 184 524.5 207 Q505 230 490 254 Q477 232 460 209.5 Q443 187 420.5 169 Q398 151 368.5 139.5 Q339 128 300 128 Q266 128 233 140 Q200 152 173.5 175.5 Q147 199 130.5 234 Q114 269 114 316 Q114 361 130 396 Q146 431 172 454.5 Q198 478 231 490.5 Q264 503 299 503 Q337 503 366.5 491.5 Q396 480 419 461.5 Q442 443 459 420 Q476 397 490 375 Q505 401 524 424 Q543 447 566.5 464.5 Q590 482 618.5 492.5 Q647 503 680 503 Q709 503 738 491.5 Q767 480 795 460 L761 409 Z " />
<glyph glyph-name="uni2235" unicode="&#x2235;" horiz-adv-x="586" d="M387 507 Q387 536 410 558 Q433 580 462 580 Q496 580 515.5 558 Q535 536 535 507 Q535 477 515.5 455 Q496 433 462 433 Q448 433 434.5 439 Q421 445 410.5 455 Q400 465 393.5 478.5 Q387 492 387 507 Z M39 507 Q39 536 61 558 Q83 580 112 580 Q146 580 166.5 558 Q187 536 187 507 Q187 477 166.5 455 Q146 433 112 433 Q98 433 84.5 439 Q71 445 61 455 Q51 465 45 478.5 Q39 492 39 507 Z M215 142 Q215 176 236.5 196 Q258 216 288 216 Q320 216 341.5 196 Q363 176 363 142 Q363 128 357.5 115 Q352 102 342 91.5 Q332 81 318 74.5 Q304 68 288 68 Q273 68 259.5 74.5 Q246 81 236.5 91.5 Q227 102 221 115 Q215 128 215 142 Z " />
<glyph glyph-name="integral" unicode="&#x222b;" horiz-adv-x="345" d="M324 696 Q316 698 307.5 699 Q299 700 289 700 Q275 700 262.5 693 Q250 686 243 672 Q231 655 225 620 Q219 585 219 522 Q219 410 226 294 Q233 178 233 56 Q233 -13 223.5 -58.5 Q214 -104 196 -131 Q176 -166 144.5 -181.5 Q113 -197 77 -197 Q57 -197 39 -194 Q21 -191 13 -185 L26 -105 Q34 -107 43.5 -109 Q53 -111 64 -111 Q90 -111 108 -90 Q113 -82 118 -71 Q123 -60 126.5 -43 Q130 -26 132.5 -2.5 Q135 21 135 53 Q135 177 128 295.5 Q121 414 121 532 Q121 611 135 658.5 Q149 706 178 739 Q198 761 225.5 770.5 Q253 780 283 780 Q299 780 313.5 778 Q328 776 336 773 L324 696 Z " />
<glyph glyph-name="uni222C" unicode="&#x222c;" horiz-adv-x="615" d="M570 691 Q562 693 553.5 694 Q545 695 535 695 Q521 695 509 688 Q497 681 489 668 Q476 651 470 615.5 Q464 580 464 518 Q464 405 471.5 291.5 Q479 178 479 56 Q479 -13 469.5 -58.5 Q460 -104 442 -131 Q422 -166 390 -181.5 Q358 -197 323 -197 Q303 -197 285.5 -194 Q268 -191 259 -185 L273 -105 Q281 -107 290.5 -109 Q300 -111 310 -111 Q335 -111 353 -90 Q359 -82 364.5 -71 Q370 -60 373.5 -43 Q377 -26 379.5 -2.5 Q382 21 382 53 Q382 177 374.5 293 Q367 409 367 527 Q367 606 381 654 Q395 702 424 734 Q444 756 471 765.5 Q498 775 529 775 Q545 775 559.5 773 Q574 771 582 768 L570 691 Z M325 691 Q317 693 308.5 694 Q300 695 290 695 Q276 695 263.5 688 Q251 681 244 668 Q231 651 225 615.5 Q219 580 219 518 Q219 405 226 291.5 Q233 178 233 56 Q233 -13 224 -58.5 Q215 -104 197 -131 Q177 -166 145 -181.5 Q113 -197 78 -197 Q58 -197 39.5 -194 Q21 -191 13 -185 L26 -105 Q34 -107 43.5 -109 Q53 -111 64 -111 Q90 -111 108 -90 Q114 -82 119 -71 Q124 -60 127.5 -43 Q131 -26 133.5 -2.5 Q136 21 136 53 Q136 177 129 293 Q122 409 122 527 Q122 606 136 654 Q150 702 179 734 Q199 756 226 765.5 Q253 775 283 775 Q300 775 314.5 773 Q329 771 337 768 L325 691 Z " />
<glyph glyph-name="element" unicode="&#x2208;" horiz-adv-x="910" d="M795 266 L212 266 Q217 239 229.5 215.5 Q242 192 264.5 175 Q287 158 319.5 148 Q352 138 397 138 L797 138 L797 52 L400 52 Q325 52 271 72.5 Q217 93 181.5 128 Q146 163 129 209.5 Q112 256 112 309 Q112 359 128.5 403.5 Q145 448 179.5 481.5 Q214 515 268 534.5 Q322 554 397 554 L797 554 L797 468 L397 468 Q353 468 320.5 458.5 Q288 449 265.5 433 Q243 417 230 396 Q217 375 213 352 L795 352 L795 266 Z " />
<glyph glyph-name="suchthat" unicode="&#x220b;" horiz-adv-x="910" d="M114 352 L696 352 Q691 375 678.5 396 Q666 417 643.5 433 Q621 449 588.5 458.5 Q556 468 512 468 L112 468 L112 554 L512 554 Q587 554 641 534.5 Q695 515 729.5 481.5 Q764 448 780.5 403.5 Q797 359 797 309 Q797 256 780 209.5 Q763 163 727.5 128 Q692 93 638 72.5 Q584 52 509 52 L112 52 L112 138 L512 138 Q557 138 589.5 148 Q622 158 644.5 175 Q667 192 679.5 215.5 Q692 239 697 266 L114 266 L114 352 Z " />
<glyph glyph-name="reflexsubset" unicode="&#x2286;" horiz-adv-x="910" d="M795 -24 L147 -24 L147 64 L795 64 L795 -24 Z M797 512 L397 512 Q344 512 307.5 501 Q271 490 248 471 Q225 452 215 426.5 Q205 401 205 372 Q205 340 215.5 313 Q226 286 249 266.5 Q272 247 308.5 236.5 Q345 226 397 226 L797 226 L797 138 L400 138 Q325 138 271 156 Q217 174 181.5 206 Q146 238 129 281.5 Q112 325 112 375 Q112 422 128.5 463 Q145 504 179.5 534.5 Q214 565 268 582.5 Q322 600 397 600 L797 600 L797 512 Z " />
<glyph glyph-name="reflexsuperset" unicode="&#x2287;" horiz-adv-x="910" d="M112 600 L514 600 Q589 600 642.5 582.5 Q696 565 730.5 534.5 Q765 504 781 463 Q797 422 797 375 Q797 325 780 281.5 Q763 238 727.5 206 Q692 174 638 156 Q584 138 509 138 L112 138 L112 226 L514 226 Q565 226 601.5 236.5 Q638 247 660.5 266.5 Q683 286 693.5 313 Q704 340 704 372 Q704 401 694 426.5 Q684 452 661.5 471 Q639 490 603 501 Q567 512 514 512 L112 512 L112 600 Z M114 64 L762 64 L762 -24 L114 -24 L114 64 Z " />
<glyph glyph-name="propersubset" unicode="&#x2282;" horiz-adv-x="910" d="M797 470 L397 470 Q344 470 307.5 457.5 Q271 445 248 424 Q225 403 215 375 Q205 347 205 316 Q205 282 215.5 252.5 Q226 223 249 201.5 Q272 180 308.5 168 Q345 156 397 156 L797 156 L797 68 L400 68 Q325 68 271 87.5 Q217 107 181.5 141 Q146 175 129 221 Q112 267 112 319 Q112 368 128.5 412 Q145 456 179.5 488 Q214 520 268 539 Q322 558 397 558 L797 558 L797 470 Z " />
<glyph glyph-name="propersuperset" unicode="&#x2283;" horiz-adv-x="910" d="M112 548 L514 548 Q589 548 642.5 529 Q696 510 730.5 478 Q765 446 781 402 Q797 358 797 309 Q797 257 780 211 Q763 165 727.5 131 Q692 97 638 77.5 Q584 58 509 58 L112 58 L112 146 L514 146 Q565 146 601.5 158 Q638 170 660.5 191.5 Q683 213 693.5 242.5 Q704 272 704 306 Q704 337 694 365 Q684 393 661.5 414 Q639 435 603 447.5 Q567 460 514 460 L112 460 L112 548 Z " />
<glyph glyph-name="union" unicode="&#x222a;" horiz-adv-x="910" d="M297 637 L297 235 Q297 183 309.5 146 Q322 109 343 86 Q364 63 392 52 Q420 41 451 41 Q485 41 514.5 52 Q544 63 565.5 86.5 Q587 110 599 147 Q611 184 611 235 L611 637 L703 637 L703 240 Q703 165 682.5 111 Q662 57 627.5 21.5 Q593 -14 546.5 -31 Q500 -48 448 -48 Q398 -48 354 -32 Q310 -16 277 18.5 Q244 53 224.5 106.5 Q205 160 205 235 L205 637 L297 637 Z " />
<glyph glyph-name="intersection" unicode="&#x2229;" horiz-adv-x="910" d="M455 637 Q507 637 552.5 620 Q598 603 631 567.5 Q664 532 683 478 Q702 424 702 349 L702 -48 L610 -48 L610 354 Q610 405 598.5 442.5 Q587 480 566.5 504 Q546 528 517.5 539.5 Q489 551 455 551 Q385 551 341.5 504 Q298 457 298 354 L298 -48 L206 -48 L206 349 Q206 424 225 478 Q244 532 277.5 567.5 Q311 603 356.5 620 Q402 637 455 637 Z " />
<glyph glyph-name="logicaland" unicode="&#x2227;" horiz-adv-x="910" d="M776 24 L716 -6 L455 500 L192 -6 L132 24 L426 591 L482 591 L776 24 Z " />
<glyph glyph-name="logicalor" unicode="&#x2228;" horiz-adv-x="910" d="M776 571 L482 3 L426 3 L132 571 L192 600 L455 93 L716 600 L776 571 Z " />
<glyph glyph-name="&amp;#xac;" unicode="&#xac;" horiz-adv-x="910" d="M881 -153 L816 -153 L816 99 L27 99 L27 164 L881 164 L881 -153 Z " />
<glyph glyph-name="&amp;#xffe2;" unicode="&#xffe2;" horiz-adv-x="910" d="M881 -153 L816 -153 L816 99 L27 99 L27 164 L881 164 L881 -153 Z " />
<glyph glyph-name="arrowdblright" unicode="&#x21d2;" horiz-adv-x="910" d="M915 298 L643 24 L600 68 L709 176 L-5 176 L-5 236 L768 236 L831 298 L768 361 L-5 361 L-5 421 L708 421 L600 529 L643 571 L915 298 Z " />
<glyph glyph-name="arrowdblboth" unicode="&#x21d4;" horiz-adv-x="910" d="M832 298 L769 361 L142 361 L79 298 L142 236 L769 236 L832 298 Z M916 298 L644 24 L601 68 L710 176 L201 176 L310 68 L267 24 L-5 298 L267 571 L310 529 L202 421 L709 421 L601 529 L644 571 L916 298 Z " />
<glyph glyph-name="universal" unicode="&#x2200;" horiz-adv-x="910" d="M128 695 L267 695 L337 497 L580 497 L651 695 L782 695 L514 -26 L399 -26 L128 695 Z M543 390 L374 390 L423 243 Q436 207 443.5 182.5 Q451 158 459 132 Q463 147 466.5 159 Q470 171 474 183.5 Q478 196 482.5 210 Q487 224 494 243 L543 390 Z " />
<glyph glyph-name="existential" unicode="&#x2203;" horiz-adv-x="910" d="M691 695 L691 -26 L220 -26 L220 80 L564 80 L564 291 L248 291 L248 395 L564 395 L564 589 L227 589 L227 695 L691 695 Z " />
<glyph glyph-name="acute" unicode="&#xb4;" horiz-adv-x="620" d="M178 562 L291 717 L440 717 L292 562 L178 562 Z " />
<glyph glyph-name="tilde" unicode="&#x2dc;" horiz-adv-x="620" d="M146 568 Q149 602 159.5 626.5 Q170 651 185.5 666.5 Q201 682 219.5 689 Q238 696 257 696 Q272 696 287 691 Q302 686 315 679.5 Q328 673 340 668 Q352 663 361 663 Q386 663 394 699 L472 699 Q469 664 458 640 Q447 616 431.5 600.5 Q416 585 397.5 578 Q379 571 361 571 Q346 571 331 576 Q316 581 303 587.5 Q290 594 278 599 Q266 604 257 604 Q242 604 234.5 596 Q227 588 223 568 L146 568 L146 568 Z " />
<glyph glyph-name="caron" unicode="&#x2c7;" horiz-adv-x="620" d="M359 557 L260 557 L151 714 L240 714 Q257 695 274.5 678 Q292 661 309 642 Q326 661 344 678 Q362 695 379 714 L467 714 L359 557 Z " />
<glyph glyph-name="breve" unicode="&#x2d8;" horiz-adv-x="620" d="M310 577 Q248 577 210.5 610.5 Q173 644 168 704 L254 704 Q260 679 269.5 663.5 Q279 648 310 648 Q342 648 351.5 663.5 Q361 679 366 704 L452 704 Q450 644 411.5 610.5 Q373 577 310 577 Z " />
<glyph glyph-name="hungarumlaut" unicode="&#x2dd;" horiz-adv-x="620" d="M361 709 L483 709 L409 552 L316 552 L361 709 Z M181 709 L305 709 L231 552 L134 552 L181 709 Z " />
<glyph glyph-name="ring" unicode="&#x2da;" horiz-adv-x="310" d="M153 592 Q176 592 190 604 Q204 616 204 639 Q204 662 190 676.5 Q176 691 153 691 Q133 691 119 676.5 Q105 662 105 639 Q105 616 119 604 Q133 592 153 592 Z M153 540 Q132 540 113 548 Q94 556 80 569.5 Q66 583 58 601 Q50 619 50 639 Q50 682 80 711 Q110 740 153 740 Q198 740 228 711 Q258 682 258 639 Q258 619 250 601 Q242 583 228 569.5 Q214 556 194.5 548 Q175 540 153 540 Z " />
<glyph glyph-name="dotaccent" unicode="&#x2d9;" horiz-adv-x="620" d="M251 696 L368 696 L368 581 L251 581 L251 696 Z " />
<glyph glyph-name="cedilla" unicode="&#xb8;" horiz-adv-x="620" d="M214 -139 Q269 -134 291.5 -122.5 Q314 -111 314 -97 Q314 -80 294 -73.5 Q274 -67 236 -67 L236 40 L304 40 L304 -12 Q404 -20 404 -91 Q404 -114 394.5 -133 Q385 -152 363 -166 Q341 -180 304.5 -189.5 Q268 -199 214 -203 L214 -139 Z " />
<glyph glyph-name="ogonek" unicode="&#x2db;" horiz-adv-x="620" d="M339 -204 Q284 -204 251.5 -175 Q219 -146 219 -102 Q219 -81 228 -61.5 Q237 -42 250.5 -25.5 Q264 -9 280.5 3 Q297 15 311 21 L395 21 Q364 -4 342 -34.5 Q320 -65 320 -89 Q320 -111 336 -118.5 Q352 -126 370 -126 Q380 -126 389 -125 Q398 -124 402 -124 L402 -193 Q390 -198 375.5 -201 Q361 -204 339 -204 Z " />
<glyph glyph-name="exclamdown" unicode="&#xa1;" horiz-adv-x="320" d="M94 754 L226 754 L226 622 L94 622 L94 754 Z M212 520 L231 -80 L89 -80 L108 520 L212 520 Z " />
<glyph glyph-name="questiondown" unicode="&#xbf;" horiz-adv-x="564" d="M361 485 L361 440 Q361 415 357.5 395.5 Q354 376 344.5 357 Q335 338 318 317 Q301 296 274 268 Q238 231 217.5 210.5 Q197 190 187.5 176 Q178 162 176 149 Q174 136 174 115 L174 105 Q174 94 178.5 81 Q183 68 194 57 Q205 46 225 39 Q245 32 276 32 Q323 32 362.5 50.5 Q402 69 434 100 L509 8 Q458 -42 403 -61 Q348 -80 278 -80 Q223 -80 180 -66.5 Q137 -53 107 -29 Q77 -5 61.5 29 Q46 63 46 104 L46 115 Q46 152 56 180.5 Q66 209 82.5 233 Q99 257 120.5 278 Q142 299 165 321 Q198 352 211.5 378 Q225 404 225 443 L225 485 L361 485 Z M357 574 L225 574 L225 706 L357 706 L357 574 Z " />
<glyph glyph-name="&amp;#x2d0;" unicode="&#x2d0;" horiz-adv-x="910" d="M551 553 L454 458 L357 553 L551 553 Z M551 72 L357 72 L454 167 L551 72 Z " />
<glyph glyph-name="&amp;#x2236;" unicode="&#x2236;" horiz-adv-x="910" d="M551 553 L454 458 L357 553 L551 553 Z M551 72 L357 72 L454 167 L551 72 Z " />
<glyph glyph-name="uni222E" unicode="&#x222e;" horiz-adv-x="910" d="M430 410 Q398 398 377 369.5 Q356 341 352 299 Q348 255 366 225.5 Q384 196 418 186 Q420 212 421 237 Q422 262 423 293 Q424 322 426 353 Q428 384 430 410 Z M566 299 Q570 341 549.5 373.5 Q529 406 490 414 Q485 361 484 300 Q483 269 481.5 240.5 Q480 212 477 185 Q514 194 538 224 Q562 254 566 299 Z M617 628 Q609 647 596.5 657.5 Q584 668 567 668 Q545 668 525 609.5 Q505 551 493 444 Q520 441 543 430 Q566 419 583 401 Q600 383 609 357.5 Q618 332 615 299 Q612 267 599.5 242 Q587 217 568 199 Q549 181 524.5 170 Q500 159 474 155 Q460 45 431 -26 Q415 -64 391.5 -88 Q368 -112 338 -112 Q277 -112 246 -53 L290 -27 Q299 -46 311.5 -57 Q324 -68 341 -68 Q363 -68 383.5 -10 Q404 48 415 156 Q390 160 368.5 171 Q347 182 331.5 200 Q316 218 308 243 Q300 268 303 299 Q306 329 317.5 353 Q329 377 346.5 395 Q364 413 386.5 424.5 Q409 436 433 441 Q447 553 477 626 Q493 664 516.5 688 Q540 712 570 712 Q632 712 664 649 L617 628 Z " />
<glyph glyph-name="summation" unicode="&#x2211;" horiz-adv-x="563" d="M531 695 L531 587 L215 587 L410 332 L213 82 L538 82 L538 -26 L57 -26 L57 64 L266 331 L57 608 L57 695 L531 695 Z " />
<glyph glyph-name="product" unicode="&#x220f;" horiz-adv-x="669" d="M527 -58 L399 -58 L399 586 L270 586 L270 -58 L142 -58 L142 586 L18 586 L18 695 L651 695 L651 586 L527 586 L527 -58 Z " />
<glyph glyph-name="currency" unicode="&#xa4;" horiz-adv-x="910" d="M850 580 L727 472 Q748 436 760 393.5 Q772 351 772 304 Q772 255 758 208.5 Q744 162 718 123 L847 9 L784 -62 L655 55 Q613 20 560.5 -0.5 Q508 -21 448 -21 Q392 -21 342 -3.5 Q292 14 250 46 L126 -62 L62 9 L184 116 Q157 156 140.5 203.5 Q124 251 124 304 Q124 351 137 395.5 Q150 440 174 478 L60 580 L129 647 L237 551 Q279 586 333.5 607 Q388 628 448 628 Q512 628 566.5 605 Q621 582 665 544 L781 647 L850 580 Z M675 304 Q675 351 657 392.5 Q639 434 608.5 464.5 Q578 495 536.5 513 Q495 531 448 531 Q401 531 359.5 513 Q318 495 287 464.5 Q256 434 238.5 392.5 Q221 351 221 304 Q221 257 238.5 215.5 Q256 174 287 143 Q318 112 359.5 94.5 Q401 77 448 77 Q495 77 536.5 94.5 Q578 112 608.5 143 Q639 174 657 215.5 Q675 257 675 304 Z " />
<glyph glyph-name="uni2109" unicode="&#x2109;" horiz-adv-x="770" d="M285 -26 L285 695 L749 695 L749 587 L413 587 L413 381 L728 381 L728 273 L413 273 L413 -26 L285 -26 Z M249 628 Q249 608 241.5 591 Q234 574 220.5 560.5 Q207 547 188.5 539.5 Q170 532 148 532 Q126 532 107.5 539.5 Q89 547 75.5 560.5 Q62 574 54.5 591 Q47 608 47 628 Q47 647 54.5 664.5 Q62 682 75.5 695.5 Q89 709 107.5 716.5 Q126 724 148 724 Q170 724 188.5 716.5 Q207 709 220.5 695.5 Q234 682 241.5 664.5 Q249 647 249 628 Z M188 628 Q188 644 177 655.5 Q166 667 148 667 Q130 667 119 655.5 Q108 644 108 628 Q108 612 119 600.5 Q130 589 148 589 Q166 589 177 600.5 Q188 612 188 628 Z " />
<glyph glyph-name="perthousand" unicode="&#x2030;" horiz-adv-x="1303" d="M185 -25 L616 695 L731 695 L301 -25 L185 -25 Z M229 709 Q308 709 354 662.5 Q400 616 400 537 L400 498 Q400 419 354 372.5 Q308 326 229 326 Q150 326 104 372.5 Q58 419 58 498 L58 537 Q58 616 104 662.5 Q150 709 229 709 Z M229 411 Q271 411 286.5 435 Q302 459 302 500 L302 535 Q302 575 286.5 599.5 Q271 624 229 624 Q187 624 171.5 599.5 Q156 575 156 535 L156 500 Q156 459 171.5 435 Q187 411 229 411 Z M688 349 Q767 349 813 302.5 Q859 256 859 177 L859 138 Q859 59 813 12.5 Q767 -34 688 -34 Q609 -34 563 12.5 Q517 59 517 138 L517 177 Q517 256 563 302.5 Q609 349 688 349 Z M688 51 Q730 51 745.5 75 Q761 99 761 140 L761 175 Q761 215 745.5 239.5 Q730 264 688 264 Q646 264 630.5 239.5 Q615 215 615 175 L615 140 Q615 99 630.5 75 Q646 51 688 51 Z M1074 349 Q1153 349 1199 302.5 Q1245 256 1245 177 L1245 138 Q1245 59 1199 12.5 Q1153 -34 1074 -34 Q995 -34 949 12.5 Q903 59 903 138 L903 177 Q903 256 949 302.5 Q995 349 1074 349 Z M1074 51 Q1116 51 1131.5 75 Q1147 99 1147 140 L1147 175 Q1147 215 1131.5 239.5 Q1116 264 1074 264 Q1032 264 1016.5 239.5 Q1001 215 1001 175 L1001 140 Q1001 99 1016.5 75 Q1032 51 1074 51 Z " />
<glyph glyph-name="uni25C1" unicode="&#x25c1;" horiz-adv-x="910" d="M770 -96 L140 300 L770 698 L770 -96 Z M704 21 L704 581 L257 300 L704 21 Z " />
<glyph glyph-name="uni25C0" unicode="&#x25c0;" horiz-adv-x="910" d="M770 -96 L140 300 L770 698 L770 -96 Z " />
<glyph glyph-name="uni25B7" unicode="&#x25b7;" horiz-adv-x="910" d="M770 300 L140 -96 L140 698 L770 300 Z M651 300 L204 581 L204 21 L651 300 Z " />
<glyph glyph-name="uni25B6" unicode="&#x25b6;" horiz-adv-x="910" d="M770 300 L140 -96 L140 698 L770 300 Z " />
<glyph glyph-name="uni2664" unicode="&#x2664;" horiz-adv-x="910" d="M788 199 Q788 166 778 137.5 Q768 109 749 88 Q730 67 704 55.5 Q678 44 647 44 Q616 44 588 57 Q560 70 520 93 Q521 73 526 48 Q531 23 538 -3.5 Q545 -30 554.5 -55 Q564 -80 574 -99 Q583 -118 560 -121 Q540 -123 510.5 -124.5 Q481 -126 455 -126 Q424 -126 397.5 -124.5 Q371 -123 350 -121 Q327 -118 336 -99 Q346 -78 354.5 -53 Q363 -28 370 -2.5 Q377 23 381.5 47.5 Q386 72 388 93 Q350 70 321 57 Q292 44 263 44 Q231 44 204.5 55.5 Q178 67 159 88 Q140 109 130 137.5 Q120 166 120 199 Q120 244 150.5 305 Q181 366 229 436 Q277 506 336.5 581 Q396 656 455 729 Q513 656 572 581 Q631 506 679 436 Q727 366 757.5 305 Q788 244 788 199 Z M710 213 Q710 247 685 297 Q660 347 622 402.5 Q584 458 539 514.5 Q494 571 455 619 Q416 571 371 514.5 Q326 458 288 402.5 Q250 347 225 297 Q200 247 200 213 Q200 196 204.5 178 Q209 160 219.5 145 Q230 130 246 120 Q262 110 285 110 Q305 110 323 120 Q341 130 356.5 141.5 Q372 153 384.5 163 Q397 173 405 173 Q422 173 435.5 156 Q449 139 447 116 Q445 87 440 53.5 Q435 20 422 -21 Q420 -29 418 -33 Q416 -37 427 -38 Q435 -39 439.5 -39.5 Q444 -40 455 -40 Q465 -40 469.5 -39.5 Q474 -39 483 -38 Q494 -37 493 -33 Q492 -29 490 -21 Q477 20 471 53.5 Q465 87 463 116 Q462 139 474 156 Q486 173 505 173 Q513 173 525 163 Q537 153 552 141.5 Q567 130 585 120 Q603 110 623 110 Q647 110 663.5 120 Q680 130 690.5 145 Q701 160 705.5 178 Q710 196 710 213 Z " />
<glyph glyph-name="spade" unicode="&#x2660;" horiz-adv-x="910" d="M788 199 Q788 166 778 137.5 Q768 109 749 88 Q730 67 704 55.5 Q678 44 647 44 Q616 44 588 57 Q560 70 520 93 Q521 73 526 48 Q531 23 538 -3.5 Q545 -30 554.5 -55 Q564 -80 574 -99 Q583 -118 560 -121 Q540 -123 510.5 -124.5 Q481 -126 455 -126 Q424 -126 397.5 -124.5 Q371 -123 350 -121 Q327 -118 336 -99 Q346 -78 354.5 -53 Q363 -28 370 -2.5 Q377 23 381.5 47.5 Q386 72 388 93 Q350 70 321 57 Q292 44 263 44 Q231 44 204.5 55.5 Q178 67 159 88 Q140 109 130 137.5 Q120 166 120 199 Q120 244 150.5 305 Q181 366 229 436 Q277 506 336.5 581 Q396 656 455 729 Q513 656 572 581 Q631 506 679 436 Q727 366 757.5 305 Q788 244 788 199 Z " />
<glyph glyph-name="uni2661" unicode="&#x2661;" horiz-adv-x="910" d="M811 481 Q811 408 776 327.5 Q741 247 688 169 Q635 91 572.5 21 Q510 -49 455 -102 Q399 -49 336.5 21 Q274 91 220.5 169 Q167 247 132 327.5 Q97 408 97 481 Q97 523 111 559.5 Q125 596 149.5 623 Q174 650 207 665.5 Q240 681 278 681 Q344 681 388 638 Q432 595 455 497 Q477 595 521.5 638 Q566 681 630 681 Q668 681 701 665.5 Q734 650 758.5 623 Q783 596 797 559.5 Q811 523 811 481 Z M728 452 Q728 520 702.5 558.5 Q677 597 611 597 Q573 597 550.5 563.5 Q528 530 515 484 Q510 464 495.5 446 Q481 428 455 428 Q445 428 436 434 Q427 440 420.5 448.5 Q414 457 409 466.5 Q404 476 401 484 Q382 541 355 569 Q328 597 299 597 Q265 597 242.5 587 Q220 577 206 558 Q192 539 186 512.5 Q180 486 180 452 Q180 399 206.5 338.5 Q233 278 273.5 217 Q314 156 362.5 99 Q411 42 455 -3 Q498 42 546 99 Q594 156 634.5 217 Q675 278 701.5 338.5 Q728 399 728 452 Z " />
<glyph glyph-name="heart" unicode="&#x2665;" horiz-adv-x="910" d="M811 481 Q811 408 776 327.5 Q741 247 688 169 Q635 91 572.5 21 Q510 -49 455 -102 Q399 -49 336.5 21 Q274 91 220.5 169 Q167 247 132 327.5 Q97 408 97 481 Q97 524 111 560.5 Q125 597 150 624 Q175 651 207.5 666 Q240 681 278 681 Q344 681 388 638 Q432 595 455 497 Q477 595 521.5 638 Q566 681 630 681 Q667 681 700 666 Q733 651 758 624 Q783 597 797 560.5 Q811 524 811 481 Z " />
<glyph glyph-name="uni2667" unicode="&#x2667;" horiz-adv-x="910" d="M862 209 Q862 172 849.5 137.5 Q837 103 814.5 77 Q792 51 759.5 35 Q727 19 688 19 Q661 19 636.5 27 Q612 35 591 47.5 Q570 60 553 75 Q536 90 524 103 Q532 85 539.5 61 Q547 37 552.5 10 Q558 -17 561.5 -46.5 Q565 -76 565 -104 Q565 -111 559.5 -115 Q554 -119 547 -120 Q534 -121 526 -121.5 Q518 -122 509.5 -122.5 Q501 -123 488.5 -123 Q476 -123 455 -123 Q430 -123 409 -122.5 Q388 -122 363 -120 Q356 -119 350.5 -115 Q345 -111 345 -104 Q345 -76 348 -46.5 Q351 -17 356.5 10 Q362 37 369 61 Q376 85 384 103 Q373 90 356 75 Q339 60 318 47.5 Q297 35 272 27 Q247 19 220 19 Q181 19 149 35 Q117 51 94.5 77 Q72 103 60 137.5 Q48 172 48 209 Q48 245 60.5 278 Q73 311 95 336.5 Q117 362 147.5 377 Q178 392 215 392 Q250 392 280 379.5 Q310 367 341 353 Q349 349 358 350 Q367 351 370 356 Q375 364 371 373 Q367 382 362 387 Q337 408 319.5 427 Q302 446 291 465.5 Q280 485 275 507 Q270 529 270 556 Q270 594 285.5 624.5 Q301 655 326.5 677 Q352 699 385.5 710.5 Q419 722 455 722 Q491 722 524.5 710.5 Q558 699 583.5 677 Q609 655 624.5 624.5 Q640 594 640 556 Q640 529 634.5 507 Q629 485 618 465.5 Q607 446 589.5 427 Q572 408 548 387 Q543 382 539 373 Q535 364 540 356 Q543 351 552 350 Q561 349 569 353 Q598 367 629 379.5 Q660 392 693 392 Q730 392 761 377 Q792 362 814.5 336.5 Q837 311 849.5 278 Q862 245 862 209 Z M797 216 Q797 268 762 302 Q727 336 670 336 Q647 336 627 330.5 Q607 325 589 319 Q571 313 556 307.5 Q541 302 529 302 Q507 302 493 315 Q479 328 479 349 Q479 370 494 386.5 Q509 403 527.5 423 Q546 443 561 470 Q576 497 576 538 Q576 598 542.5 629 Q509 660 455 660 Q402 660 368 629 Q334 598 334 538 Q334 497 349 470 Q364 443 381.5 423 Q399 403 414 386.5 Q429 370 429 349 Q429 328 416 315 Q403 302 381 302 Q369 302 353.5 307.5 Q338 313 320 319 Q302 325 281.5 330.5 Q261 336 238 336 Q181 336 147 302 Q113 268 113 216 Q113 189 122 165 Q131 141 148 124 Q165 107 189 97 Q213 87 243 87 Q277 87 302 100.5 Q327 114 347 130 Q367 146 383 159.5 Q399 173 414 173 Q424 173 426.5 168.5 Q429 164 429 154 Q429 136 424.5 113.5 Q420 91 414.5 65.5 Q409 40 404.5 10 Q400 -20 400 -53 Q400 -63 413 -64 Q432 -67 455 -67 Q477 -67 497 -64 Q508 -62 508 -53 Q508 -20 504 10 Q500 40 494.5 65.5 Q489 91 485 113.5 Q481 136 481 154 Q481 164 483.5 168.5 Q486 173 496 173 Q510 173 525.5 159.5 Q541 146 561 130 Q581 114 606.5 100.5 Q632 87 665 87 Q695 87 719.5 97 Q744 107 761 124 Q778 141 787.5 165 Q797 189 797 216 Z " />
<glyph glyph-name="club" unicode="&#x2663;" horiz-adv-x="910" d="M862 209 Q862 172 849.5 137.5 Q837 103 814.5 77 Q792 51 759.5 35 Q727 19 688 19 Q661 19 636.5 27 Q612 35 591 47.5 Q570 60 553 75 Q536 90 524 103 Q532 85 539.5 61 Q547 37 552.5 10 Q558 -17 561.5 -46.5 Q565 -76 565 -104 Q565 -111 559.5 -115 Q554 -119 547 -120 Q534 -121 526 -121.5 Q518 -122 509.5 -122.5 Q501 -123 488.5 -123 Q476 -123 455 -123 Q430 -123 409 -122.5 Q388 -122 363 -120 Q356 -119 350.5 -115 Q345 -111 345 -104 Q345 -76 348 -46.5 Q351 -17 356.5 10 Q362 37 369 61 Q376 85 384 103 Q373 90 356 75 Q339 60 318 47.5 Q297 35 272 27 Q247 19 220 19 Q181 19 149 35 Q117 51 94.5 77 Q72 103 60 137.5 Q48 172 48 209 Q48 245 60.5 278 Q73 311 95 336.5 Q117 362 147.5 377 Q178 392 215 392 Q250 392 280 379.5 Q310 367 341 353 Q349 349 358 350 Q367 351 370 356 Q375 364 371 373 Q367 382 362 387 Q337 408 319.5 427 Q302 446 291 465.5 Q280 485 275 507 Q270 529 270 556 Q270 594 285.5 624.5 Q301 655 326.5 677 Q352 699 385.5 710.5 Q419 722 455 722 Q491 722 524.5 710.5 Q558 699 583.5 677 Q609 655 624.5 624.5 Q640 594 640 556 Q640 529 634.5 507 Q629 485 618 465.5 Q607 446 589.5 427 Q572 408 548 387 Q543 382 539 373 Q535 364 540 356 Q543 351 552 350 Q561 349 569 353 Q598 367 629 379.5 Q660 392 693 392 Q730 392 761 377 Q792 362 814.5 336.5 Q837 311 849.5 278 Q862 245 862 209 Z " />
<glyph glyph-name="&amp;#x2299;" unicode="&#x2299;" horiz-adv-x="910" d="M853 299 Q853 216 821.5 143.5 Q790 71 736 17 Q682 -37 609.5 -68 Q537 -99 455 -99 Q374 -99 301.5 -68 Q229 -37 174.5 17 Q120 71 88.5 143.5 Q57 216 57 299 Q57 381 88.5 453.5 Q120 526 174.5 580 Q229 634 301.5 665.5 Q374 697 455 697 Q537 697 609.5 665.5 Q682 634 736 580 Q790 526 821.5 453.5 Q853 381 853 299 Z M780 299 Q780 366 754 425 Q728 484 684 528 Q640 572 581 598 Q522 624 455 624 Q387 624 328 598 Q269 572 224.5 528 Q180 484 154.5 425 Q129 366 129 299 Q129 231 154.5 172 Q180 113 224.5 68.5 Q269 24 328 -1.5 Q387 -27 455 -27 Q522 -27 581 -1.5 Q640 24 684 68.5 Q728 113 754 172 Q780 231 780 299 Z M610 299 Q610 267 598 238.5 Q586 210 565 189 Q544 168 515.5 156 Q487 144 455 144 Q423 144 395 156 Q367 168 346 189 Q325 210 312.5 238.5 Q300 267 300 299 Q300 331 312.5 359.5 Q325 388 346 409 Q367 430 395 442 Q423 454 455 454 Q487 454 515.5 442 Q544 430 565 409 Q586 388 598 359.5 Q610 331 610 299 Z " />
<glyph glyph-name="&amp;#x25c9;" unicode="&#x25c9;" horiz-adv-x="910" d="M853 299 Q853 216 821.5 143.5 Q790 71 736 17 Q682 -37 609.5 -68 Q537 -99 455 -99 Q374 -99 301.5 -68 Q229 -37 174.5 17 Q120 71 88.5 143.5 Q57 216 57 299 Q57 381 88.5 453.5 Q120 526 174.5 580 Q229 634 301.5 665.5 Q374 697 455 697 Q537 697 609.5 665.5 Q682 634 736 580 Q790 526 821.5 453.5 Q853 381 853 299 Z M780 299 Q780 366 754 425 Q728 484 684 528 Q640 572 581 598 Q522 624 455 624 Q387 624 328 598 Q269 572 224.5 528 Q180 484 154.5 425 Q129 366 129 299 Q129 231 154.5 172 Q180 113 224.5 68.5 Q269 24 328 -1.5 Q387 -27 455 -27 Q522 -27 581 -1.5 Q640 24 684 68.5 Q728 113 754 172 Q780 231 780 299 Z M610 299 Q610 267 598 238.5 Q586 210 565 189 Q544 168 515.5 156 Q487 144 455 144 Q423 144 395 156 Q367 168 346 189 Q325 210 312.5 238.5 Q300 267 300 299 Q300 331 312.5 359.5 Q325 388 346 409 Q367 430 395 442 Q423 454 455 454 Q487 454 515.5 442 Q544 430 565 409 Q586 388 598 359.5 Q610 331 610 299 Z " />
<glyph glyph-name="uni25C8" unicode="&#x25c8;" horiz-adv-x="910" d="M897 298 L454 -146 L11 297 L455 740 L897 298 Z M831 298 L455 673 L78 297 L454 -79 L831 298 Z M717 297 L455 33 L190 297 L455 559 L717 297 Z " />
<glyph glyph-name="uni25A3" unicode="&#x25a3;" horiz-adv-x="910" d="M833 -82 L75 -82 L75 675 L833 675 L833 -82 Z M781 -30 L781 623 L127 623 L127 -30 L781 -30 Z M679 71 L229 71 L229 521 L679 521 L679 71 Z " />
<glyph glyph-name="uni25D0" unicode="&#x25d0;" horiz-adv-x="910" d="M845 299 Q845 218 814.5 147 Q784 76 731 23 Q678 -30 607 -60.5 Q536 -91 455 -91 Q375 -91 304 -60.5 Q233 -30 180 23 Q127 76 96 147 Q65 218 65 299 Q65 380 96 451 Q127 522 180 575 Q233 628 304 658.5 Q375 689 455 689 Q536 689 607 658.5 Q678 628 731 575 Q784 522 814.5 451 Q845 380 845 299 Z M806 299 Q806 371 778 435 Q750 499 702.5 546.5 Q655 594 591 622 Q527 650 455 650 L455 -51 Q527 -51 591 -23.5 Q655 4 702.5 52 Q750 100 778 163.5 Q806 227 806 299 Z " />
<glyph glyph-name="uni25D1" unicode="&#x25d1;" horiz-adv-x="910" d="M845 299 Q845 218 814 147 Q783 76 730 23 Q677 -30 606 -60.5 Q535 -91 455 -91 Q374 -91 303 -60.5 Q232 -30 179 23 Q126 76 95.5 147 Q65 218 65 299 Q65 380 95.5 451 Q126 522 179 575 Q232 628 303 658.5 Q374 689 455 689 Q535 689 606 658.5 Q677 628 730 575 Q783 522 814 451 Q845 380 845 299 Z M455 650 Q383 650 319 622 Q255 594 207.5 546.5 Q160 499 132 435 Q104 371 104 299 Q104 227 132 163.5 Q160 100 207.5 52 Q255 4 319 -23.5 Q383 -51 455 -51 L455 650 Z " />
<glyph glyph-name="shade" unicode="&#x2592;" horiz-adv-x="910" d="M827 -74 L83 -74 L83 669 L827 669 L827 -74 Z M794 -41 L794 636 L116 636 L116 -41 L794 -41 Z M762 581 Q762 570 754.5 563 Q747 556 736 556 Q711 556 711 581 Q711 592 718 599.5 Q725 607 736 607 Q747 607 754.5 599.5 Q762 592 762 581 Z M668 581 Q668 556 643 556 Q618 556 618 581 Q618 592 625 599.5 Q632 607 643 607 Q654 607 661 599.5 Q668 592 668 581 Z M762 487 Q762 477 754.5 470 Q747 463 736 463 Q725 463 718 470 Q711 477 711 487 Q711 498 718 505.5 Q725 513 736 513 Q747 513 754.5 505.5 Q762 498 762 487 Z M668 487 Q668 477 661 470 Q654 463 643 463 Q632 463 625 470 Q618 477 618 487 Q618 498 625 505.5 Q632 513 643 513 Q654 513 661 505.5 Q668 498 668 487 Z M575 581 Q575 570 567.5 563 Q560 556 549 556 Q538 556 530.5 563 Q523 570 523 581 Q523 592 530.5 599.5 Q538 607 549 607 Q560 607 567.5 599.5 Q575 592 575 581 Z M762 394 Q762 383 754.5 375.5 Q747 368 736 368 Q725 368 718 375.5 Q711 383 711 394 Q711 405 718 412.5 Q725 420 736 420 Q747 420 754.5 412.5 Q762 405 762 394 Z M575 487 Q575 477 567.5 470 Q560 463 549 463 Q538 463 530.5 470 Q523 477 523 487 Q523 498 530.5 505.5 Q538 513 549 513 Q560 513 567.5 505.5 Q575 498 575 487 Z M668 394 Q668 383 661 375.5 Q654 368 643 368 Q632 368 625 375.5 Q618 383 618 394 Q618 405 625 412.5 Q632 420 643 420 Q654 420 661 412.5 Q668 405 668 394 Z M480 581 Q480 556 455 556 Q445 556 437.5 563 Q430 570 430 581 Q430 592 437.5 599.5 Q445 607 455 607 Q466 607 473 599.5 Q480 592 480 581 Z M762 300 Q762 290 754.5 282.5 Q747 275 736 275 Q725 275 718 282.5 Q711 290 711 300 Q711 325 736 325 Q747 325 754.5 318 Q762 311 762 300 Z M480 487 Q480 477 473 470 Q466 463 455 463 Q445 463 437.5 470 Q430 477 430 487 Q430 498 437.5 505.5 Q445 513 455 513 Q466 513 473 505.5 Q480 498 480 487 Z M575 394 Q575 383 567.5 375.5 Q560 368 549 368 Q538 368 530.5 375.5 Q523 383 523 394 Q523 405 530.5 412.5 Q538 420 549 420 Q560 420 567.5 412.5 Q575 405 575 394 Z M668 300 Q668 290 661 282.5 Q654 275 643 275 Q632 275 625 282.5 Q618 290 618 300 Q618 325 643 325 Q668 325 668 300 Z M387 581 Q387 570 379.5 563 Q372 556 361 556 Q336 556 336 581 Q336 592 343 599.5 Q350 607 361 607 Q372 607 379.5 599.5 Q387 592 387 581 Z M762 206 Q762 195 754.5 187.5 Q747 180 736 180 Q725 180 718 187.5 Q711 195 711 206 Q711 217 718 224.5 Q725 232 736 232 Q747 232 754.5 224.5 Q762 217 762 206 Z M387 487 Q387 477 379.5 470 Q372 463 361 463 Q350 463 343 470 Q336 477 336 487 Q336 498 343 505.5 Q350 513 361 513 Q372 513 379.5 505.5 Q387 498 387 487 Z M480 394 Q480 383 473 375.5 Q466 368 455 368 Q445 368 437.5 375.5 Q430 383 430 394 Q430 405 437.5 412.5 Q445 420 455 420 Q466 420 473 412.5 Q480 405 480 394 Z M575 300 Q575 290 567.5 282.5 Q560 275 549 275 Q538 275 530.5 282.5 Q523 290 523 300 Q523 311 530.5 318 Q538 325 549 325 Q560 325 567.5 318 Q575 311 575 300 Z M668 206 Q668 195 661 187.5 Q654 180 643 180 Q632 180 625 187.5 Q618 195 618 206 Q618 217 625 224.5 Q632 232 643 232 Q654 232 661 224.5 Q668 217 668 206 Z M293 581 Q293 570 285.5 563 Q278 556 268 556 Q257 556 249.5 563 Q242 570 242 581 Q242 592 249.5 599.5 Q257 607 268 607 Q278 607 285.5 599.5 Q293 592 293 581 Z M762 113 Q762 102 754.5 94.5 Q747 87 736 87 Q725 87 718 94.5 Q711 102 711 113 Q711 123 718 130 Q725 137 736 137 Q747 137 754.5 130 Q762 123 762 113 Z M199 581 Q199 556 175 556 Q164 556 156.5 563 Q149 570 149 581 Q149 592 156.5 599.5 Q164 607 175 607 Q186 607 192.5 599.5 Q199 592 199 581 Z M293 487 Q293 477 285.5 470 Q278 463 268 463 Q257 463 249.5 470 Q242 477 242 487 Q242 498 249.5 505.5 Q257 513 268 513 Q278 513 285.5 505.5 Q293 498 293 487 Z M387 394 Q387 383 379.5 375.5 Q372 368 361 368 Q350 368 343 375.5 Q336 383 336 394 Q336 405 343 412.5 Q350 420 361 420 Q372 420 379.5 412.5 Q387 405 387 394 Z M480 300 Q480 290 473 282.5 Q466 275 455 275 Q445 275 437.5 282.5 Q430 290 430 300 Q430 311 437.5 318 Q445 325 455 325 Q480 325 480 300 Z M575 206 Q575 195 567.5 187.5 Q560 180 549 180 Q538 180 530.5 187.5 Q523 195 523 206 Q523 217 530.5 224.5 Q538 232 549 232 Q560 232 567.5 224.5 Q575 217 575 206 Z M668 113 Q668 102 661 94.5 Q654 87 643 87 Q632 87 625 94.5 Q618 102 618 113 Q618 123 625 130 Q632 137 643 137 Q654 137 661 130 Q668 123 668 113 Z M762 19 Q762 8 754.5 0.5 Q747 -7 736 -7 Q725 -7 718 0.5 Q711 8 711 19 Q711 44 736 44 Q747 44 754.5 37 Q762 30 762 19 Z M199 487 Q199 477 192.5 470 Q186 463 175 463 Q164 463 156.5 470 Q149 477 149 487 Q149 498 156.5 505.5 Q164 513 175 513 Q186 513 192.5 505.5 Q199 498 199 487 Z M668 19 Q668 8 661 0.5 Q654 -7 643 -7 Q632 -7 625 0.5 Q618 8 618 19 Q618 44 643 44 Q668 44 668 19 Z M293 394 Q293 383 285.5 375.5 Q278 368 268 368 Q257 368 249.5 375.5 Q242 383 242 394 Q242 405 249.5 412.5 Q257 420 268 420 Q278 420 285.5 412.5 Q293 405 293 394 Z M387 300 Q387 290 379.5 282.5 Q372 275 361 275 Q350 275 343 282.5 Q336 290 336 300 Q336 325 361 325 Q372 325 379.5 318 Q387 311 387 300 Z M480 206 Q480 195 473 187.5 Q466 180 455 180 Q445 180 437.5 187.5 Q430 195 430 206 Q430 217 437.5 224.5 Q445 232 455 232 Q466 232 473 224.5 Q480 217 480 206 Z M575 113 Q575 102 567.5 94.5 Q560 87 549 87 Q538 87 530.5 94.5 Q523 102 523 113 Q523 123 530.5 130 Q538 137 549 137 Q560 137 567.5 130 Q575 123 575 113 Z M199 394 Q199 383 192.5 375.5 Q186 368 175 368 Q164 368 156.5 375.5 Q149 383 149 394 Q149 405 156.5 412.5 Q164 420 175 420 Q186 420 192.5 412.5 Q199 405 199 394 Z M575 19 Q575 8 567.5 0.5 Q560 -7 549 -7 Q538 -7 530.5 0.5 Q523 8 523 19 Q523 30 530.5 37 Q538 44 549 44 Q560 44 567.5 37 Q575 30 575 19 Z M293 300 Q293 290 285.5 282.5 Q278 275 268 275 Q257 275 249.5 282.5 Q242 290 242 300 Q242 311 249.5 318 Q257 325 268 325 Q278 325 285.5 318 Q293 311 293 300 Z M387 206 Q387 195 379.5 187.5 Q372 180 361 180 Q350 180 343 187.5 Q336 195 336 206 Q336 217 343 224.5 Q350 232 361 232 Q372 232 379.5 224.5 Q387 217 387 206 Z M480 113 Q480 102 473 94.5 Q466 87 455 87 Q445 87 437.5 94.5 Q430 102 430 113 Q430 123 437.5 130 Q445 137 455 137 Q466 137 473 130 Q480 123 480 113 Z M199 300 Q199 290 192.5 282.5 Q186 275 175 275 Q164 275 156.5 282.5 Q149 290 149 300 Q149 311 156.5 318 Q164 325 175 325 Q199 325 199 300 Z M480 19 Q480 8 473 0.5 Q466 -7 455 -7 Q445 -7 437.5 0.5 Q430 8 430 19 Q430 30 437.5 37 Q445 44 455 44 Q480 44 480 19 Z M293 206 Q293 195 285.5 187.5 Q278 180 268 180 Q257 180 249.5 187.5 Q242 195 242 206 Q242 217 249.5 224.5 Q257 232 268 232 Q278 232 285.5 224.5 Q293 217 293 206 Z M387 113 Q387 102 379.5 94.5 Q372 87 361 87 Q350 87 343 94.5 Q336 102 336 113 Q336 123 343 130 Q350 137 361 137 Q372 137 379.5 130 Q387 123 387 113 Z M199 206 Q199 195 192.5 187.5 Q186 180 175 180 Q164 180 156.5 187.5 Q149 195 149 206 Q149 217 156.5 224.5 Q164 232 175 232 Q186 232 192.5 224.5 Q199 217 199 206 Z M387 19 Q387 8 379.5 0.5 Q372 -7 361 -7 Q350 -7 343 0.5 Q336 8 336 19 Q336 44 361 44 Q372 44 379.5 37 Q387 30 387 19 Z M293 113 Q293 102 285.5 94.5 Q278 87 268 87 Q257 87 249.5 94.5 Q242 102 242 113 Q242 123 249.5 130 Q257 137 268 137 Q278 137 285.5 130 Q293 123 293 113 Z M199 113 Q199 102 192.5 94.5 Q186 87 175 87 Q164 87 156.5 94.5 Q149 102 149 113 Q149 123 156.5 130 Q164 137 175 137 Q186 137 192.5 130 Q199 123 199 113 Z M293 19 Q293 8 285.5 0.5 Q278 -7 268 -7 Q257 -7 249.5 0.5 Q242 8 242 19 Q242 30 249.5 37 Q257 44 268 44 Q278 44 285.5 37 Q293 30 293 19 Z M199 19 Q199 8 192.5 0.5 Q186 -7 175 -7 Q164 -7 156.5 0.5 Q149 8 149 19 Q149 30 156.5 37 Q164 44 175 44 Q199 44 199 19 Z " />
<glyph glyph-name="uni25A4" unicode="&#x25a4;" horiz-adv-x="910" d="M827 -74 L83 -74 L83 669 L827 669 L827 -74 Z M794 568 L794 636 L116 636 L116 568 L794 568 Z M794 463 L794 536 L116 536 L116 463 L794 463 Z M794 365 L794 431 L116 431 L116 365 L794 365 Z M794 262 L794 333 L116 333 L116 262 L794 262 Z M794 158 L794 230 L116 230 L116 158 L794 158 Z M794 58 L794 126 L116 126 L116 58 L794 58 Z M794 -41 L794 26 L116 26 L116 -41 L794 -41 Z " />
<glyph glyph-name="uni25A5" unicode="&#x25a5;" horiz-adv-x="910" d="M827 -74 L83 -74 L83 669 L827 669 L827 -74 Z M794 -41 L794 636 L726 636 L726 -41 L794 -41 Z M694 -41 L694 636 L626 636 L626 -41 L694 -41 Z M594 -41 L594 636 L522 636 L522 -41 L594 -41 Z M490 -41 L490 636 L419 636 L419 -41 L490 -41 Z M387 -41 L387 636 L321 636 L321 -41 L387 -41 Z M289 -41 L289 636 L216 636 L216 -41 L289 -41 Z M184 -41 L184 636 L116 636 L116 -41 L184 -41 Z " />
<glyph glyph-name="uni25A8" unicode="&#x25a8;" horiz-adv-x="910" d="M827 -74 L83 -74 L83 669 L827 669 L827 -74 Z M794 495 L794 613 L140 -41 L258 -41 L794 495 Z M794 329 L794 447 L306 -41 L424 -41 L794 329 Z M794 163 L794 281 L472 -41 L590 -41 L794 163 Z M794 -41 L794 115 L638 -41 L794 -41 Z M271 636 L116 636 L116 482 L271 636 Z M438 636 L319 636 L116 434 L116 315 L438 636 Z M604 636 L486 636 L116 267 L116 149 L604 636 Z M769 636 L652 636 L116 101 L116 -17 L769 636 Z " />
<glyph glyph-name="uni25A7" unicode="&#x25a7;" horiz-adv-x="910" d="M827 -74 L83 -74 L83 669 L827 669 L827 -74 Z M794 482 L794 636 L639 636 L794 482 Z M794 315 L794 434 L591 636 L472 636 L794 315 Z M794 149 L794 267 L424 636 L306 636 L794 149 Z M794 -17 L794 101 L258 636 L141 636 L794 -17 Z M770 -41 L116 613 L116 495 L652 -41 L770 -41 Z M604 -41 L116 447 L116 329 L486 -41 L604 -41 Z M438 -41 L116 281 L116 163 L320 -41 L438 -41 Z M272 -41 L116 115 L116 -41 L272 -41 Z " />
<glyph glyph-name="uni25A6" unicode="&#x25a6;" horiz-adv-x="910" d="M827 -74 L83 -74 L83 669 L827 669 L827 -74 Z M794 565 L794 636 L723 636 L723 565 L794 565 Z M794 464 L794 535 L723 535 L723 464 L794 464 Z M692 565 L692 636 L621 636 L621 565 L692 565 Z M794 363 L794 434 L723 434 L723 363 L794 363 Z M591 565 L591 636 L520 636 L520 565 L591 565 Z M692 464 L692 535 L621 535 L621 464 L692 464 Z M794 262 L794 333 L723 333 L723 262 L794 262 Z M490 565 L490 636 L419 636 L419 565 L490 565 Z M591 464 L591 535 L520 535 L520 464 L591 464 Z M692 363 L692 434 L621 434 L621 363 L692 363 Z M794 161 L794 232 L723 232 L723 161 L794 161 Z M389 565 L389 636 L318 636 L318 565 L389 565 Z M490 464 L490 535 L419 535 L419 464 L490 464 Z M591 363 L591 434 L520 434 L520 363 L591 363 Z M692 262 L692 333 L621 333 L621 262 L692 262 Z M794 60 L794 131 L723 131 L723 60 L794 60 Z M288 565 L288 636 L217 636 L217 565 L288 565 Z M389 464 L389 535 L318 535 L318 464 L389 464 Z M490 363 L490 434 L419 434 L419 363 L490 363 Z M591 262 L591 333 L520 333 L520 262 L591 262 Z M692 161 L692 232 L621 232 L621 161 L692 161 Z M794 -41 L794 30 L723 30 L723 -41 L794 -41 Z M187 565 L187 636 L116 636 L116 565 L187 565 Z M288 464 L288 535 L217 535 L217 464 L288 464 Z M389 363 L389 434 L318 434 L318 363 L389 363 Z M490 262 L490 333 L419 333 L419 262 L490 262 Z M591 161 L591 232 L520 232 L520 161 L591 161 Z M692 60 L692 131 L621 131 L621 60 L692 60 Z M692 -41 L692 30 L621 30 L621 -41 L692 -41 Z M187 464 L187 535 L116 535 L116 464 L187 464 Z M288 363 L288 434 L217 434 L217 363 L288 363 Z M389 262 L389 333 L318 333 L318 262 L389 262 Z M490 161 L490 232 L419 232 L419 161 L490 161 Z M591 60 L591 131 L520 131 L520 60 L591 60 Z M591 -41 L591 30 L520 30 L520 -41 L591 -41 Z M187 363 L187 434 L116 434 L116 363 L187 363 Z M288 262 L288 333 L217 333 L217 262 L288 262 Z M389 161 L389 232 L318 232 L318 161 L389 161 Z M490 60 L490 131 L419 131 L419 60 L490 60 Z M490 -41 L490 30 L419 30 L419 -41 L490 -41 Z M187 262 L187 333 L116 333 L116 262 L187 262 Z M288 161 L288 232 L217 232 L217 161 L288 161 Z M389 60 L389 131 L318 131 L318 60 L389 60 Z M389 -41 L389 30 L318 30 L318 -41 L389 -41 Z M187 161 L187 232 L116 232 L116 161 L187 161 Z M288 60 L288 131 L217 131 L217 60 L288 60 Z M288 -41 L288 30 L217 30 L217 -41 L288 -41 Z M187 60 L187 131 L116 131 L116 60 L187 60 Z M187 -41 L187 30 L116 30 L116 -41 L187 -41 Z " />
<glyph glyph-name="uni25A9" unicode="&#x25a9;" horiz-adv-x="910" d="M827 -74 L83 -74 L83 669 L827 669 L827 -74 Z M794 482 L794 615 L727 548 L794 482 Z M768 636 L639 636 L703 572 L768 636 Z M770 458 L704 525 L643 465 L710 398 L770 458 Z M679 548 L615 612 L555 553 L620 488 L679 548 Z M592 636 L472 636 L532 576 L592 636 Z M794 314 L794 434 L734 374 L794 314 Z M508 553 L448 612 L389 553 L448 494 L508 553 Z M596 465 L531 528 L472 470 L537 406 L596 465 Z M686 375 L620 441 L561 382 L627 315 L686 375 Z M770 291 L710 350 L651 291 L711 232 L770 291 Z M424 636 L306 636 L365 577 L424 636 Z M794 149 L794 267 L735 208 L794 149 Z M604 291 L536 358 L478 299 L544 233 L604 291 Z M341 553 L281 613 L223 554 L282 495 L341 553 Z M512 382 L448 446 L390 387 L454 323 L512 382 Z M687 208 L627 267 L569 209 L628 149 L687 208 Z M770 125 L711 184 L652 125 L711 66 L770 125 Z M424 470 L364 529 L306 471 L366 411 L424 470 Z M258 636 L141 636 L199 578 L258 636 Z M794 -17 L794 101 L735 42 L794 -17 Z M770 -41 L711 18 L652 -41 L770 -41 Z M175 554 L116 613 L116 495 L175 554 Z M521 208 L454 276 L395 216 L461 150 L521 208 Z M258 471 L199 530 L140 471 L199 412 L258 471 Z M341 388 L282 447 L223 388 L282 329 L341 388 Z M429 299 L365 364 L306 305 L371 241 L429 299 Z M604 125 L545 184 L486 125 L545 66 L604 125 Z M687 42 L628 101 L569 42 L628 -17 L687 42 Z M604 -41 L545 18 L486 -41 L604 -41 Z M175 388 L116 447 L116 329 L175 388 Z M258 305 L199 364 L140 305 L199 246 L258 305 Z M346 217 L282 281 L223 222 L287 158 L346 217 Z M438 125 L371 193 L311 134 L378 66 L438 125 Z M521 42 L462 101 L403 42 L462 -17 L521 42 Z M175 222 L116 281 L116 164 L175 222 Z M438 -41 L379 18 L319 -41 L438 -41 Z M263 134 L199 198 L140 139 L204 75 L263 134 Z M354 43 L287 110 L228 51 L296 -17 L354 43 Z M180 51 L116 115 L116 -13 L180 51 Z M272 -41 L204 27 L137 -41 L272 -41 Z " />
<glyph glyph-name="uni2668" unicode="&#x2668;" horiz-adv-x="910" d="M657 298 Q660 260 652 231 Q644 202 632 178.5 Q620 155 606.5 136 Q593 117 585 101 Q572 76 565.5 56.5 Q559 37 557 28 Q555 23 550.5 21 Q546 19 543 28 Q540 35 538.5 47 Q537 59 537 73 Q537 87 539.5 101 Q542 115 547 127 Q556 149 565.5 177 Q575 205 580 234 Q585 263 584.5 292.5 Q584 322 573 348 Q556 386 550 417.5 Q544 449 545.5 476.5 Q547 504 554.5 529.5 Q562 555 573 581 Q580 598 583 617.5 Q586 637 586 650 Q586 659 590.5 661 Q595 663 600 652 Q608 636 614 601 Q620 566 612 509 Q607 474 612 451 Q617 428 625.5 406.5 Q634 385 643.5 360 Q653 335 657 298 Z M525 286 Q529 264 522.5 237 Q516 210 505 183.5 Q494 157 482 134 Q470 111 463 97 Q448 69 441 51.5 Q434 34 433 24 Q432 15 425.5 15.5 Q419 16 416 23 Q409 39 408 71.5 Q407 104 424 146 Q439 181 442 216 Q445 251 442 281 Q439 311 433 333 Q427 355 423 363 Q403 409 400 445 Q397 481 403.5 510 Q410 539 422 562.5 Q434 586 444 607 Q458 636 462.5 660 Q467 684 467 700 Q467 711 472.5 710.5 Q478 710 482 702 Q487 691 491.5 673.5 Q496 656 497.5 634 Q499 612 496.5 587.5 Q494 563 485 538 Q472 502 474 472.5 Q476 443 484.5 414.5 Q493 386 505 355.5 Q517 325 525 286 Z M853 101 Q853 55 821 16.5 Q789 -22 735 -49.5 Q681 -77 610 -92.5 Q539 -108 460 -108 Q381 -108 308 -94.5 Q235 -81 179 -57 Q123 -33 89.5 0.5 Q56 34 56 74 Q56 114 81 144.5 Q106 175 139.5 196.5 Q173 218 208 231 Q243 244 264 250 Q275 254 277 245.5 Q279 237 266 232 Q262 230 240 219.5 Q218 209 193.5 191 Q169 173 149 148.5 Q129 124 129 94 Q129 68 158.5 49 Q188 30 235 17.5 Q282 5 341.5 -1.5 Q401 -8 461 -8 Q521 -8 580 0.5 Q639 9 686 25 Q733 41 762.5 63.5 Q792 86 792 115 Q792 136 779 154 Q766 172 748 186.5 Q730 201 710 211 Q690 221 677 225 Q665 229 668 236 Q671 243 681 241 Q696 239 724.5 229.5 Q753 220 781.5 202.5 Q810 185 831.5 159.5 Q853 134 853 101 Z M383 261 Q386 231 369.5 187.5 Q353 144 328 96 Q315 72 310 57.5 Q305 43 304 34 Q303 26 297.5 25.5 Q292 25 287 34 Q281 47 278 73 Q275 99 286 131 Q291 145 297 170 Q303 195 306 225 Q309 255 306.5 286.5 Q304 318 293 345 Q279 379 275 412 Q271 445 275 476.5 Q279 508 289.5 537.5 Q300 567 315 595 Q323 609 329 625 Q335 641 338 655 Q340 663 345 662.5 Q350 662 352 656 Q357 641 358 603.5 Q359 566 342 506 Q336 484 340 457 Q344 430 352.5 399 Q361 368 370 333 Q379 298 383 261 Z " />
<glyph glyph-name="uni260F" unicode="&#x260f;" horiz-adv-x="910" d="M517 433 L517 486 Q506 482 489 479 Q472 476 455 476 Q438 476 421 479 Q404 482 393 486 L393 433 L517 433 Z M838 354 Q844 354 846.5 368.5 Q849 383 844 404.5 Q839 426 824.5 451 Q810 476 783 498 Q762 514 722.5 528 Q683 542 636.5 551.5 Q590 561 542 566.5 Q494 572 455 572 Q404 572 354 566.5 Q304 561 260.5 551.5 Q217 542 181.5 528 Q146 514 125 498 Q97 477 82.5 452 Q68 427 63.5 405 Q59 383 61.5 368.5 Q64 354 70 354 Q89 352 109 354.5 Q129 357 147 362 Q165 367 180 374.5 Q195 382 204 391 Q210 396 208 406 Q206 416 203 429.5 Q200 443 198.5 457.5 Q197 472 204 486 Q212 504 247 515.5 Q282 527 348 527 Q359 527 370 524.5 Q381 522 394 520 Q410 516 424 514 Q438 512 455 512 Q471 512 485 514 Q499 516 516 520 Q529 522 539 524.5 Q549 527 560 527 Q626 527 660.5 516.5 Q695 506 706 486 Q713 472 711.5 457.5 Q710 443 706.5 429.5 Q703 416 701 406 Q699 396 704 391 Q713 383 728 375.5 Q743 368 761 362.5 Q779 357 799 354.5 Q819 352 838 354 Z M609 204 Q609 172 596.5 144 Q584 116 563 95 Q542 74 514 62 Q486 50 455 50 Q423 50 395 62 Q367 74 346 95 Q325 116 313 144 Q301 172 301 204 Q301 235 313 263 Q325 291 346 312 Q367 333 395 345.5 Q423 358 455 358 Q486 358 514 345.5 Q542 333 563 312 Q584 291 596.5 263 Q609 235 609 204 Z M568 204 Q568 228 559 248.5 Q550 269 535 284 Q520 299 499.5 308 Q479 317 455 317 Q431 317 410.5 308 Q390 299 375 284 Q360 269 351 248.5 Q342 228 342 204 Q342 180 351 159.5 Q360 139 375 124 Q390 109 410.5 100.5 Q431 92 455 92 Q479 92 499.5 100.5 Q520 109 535 124 Q550 139 559 159.5 Q568 180 568 204 Z M878 328 Q872 318 858 315.5 Q844 313 825.5 314.5 Q807 316 786.5 321 Q766 326 747 331 Q716 340 691 353.5 Q666 367 662 385 Q660 392 662 403 Q664 414 667 425 Q670 436 672.5 446.5 Q675 457 674 464 Q672 474 667.5 479.5 Q663 485 656 487 Q649 489 640.5 489.5 Q632 490 623 491 Q621 479 620 468.5 Q619 458 620 444.5 Q621 431 624 414.5 Q627 398 634 374 Q641 348 650.5 329.5 Q660 311 671.5 296 Q683 281 696.5 269 Q710 257 726 244 Q751 223 765 199.5 Q779 176 786 153 Q793 130 794.5 110 Q796 90 796 75 Q804 72 808.5 63 Q813 54 815.5 42 Q818 30 818 17.5 Q818 5 817 -5 Q816 -14 807 -17.5 Q798 -21 783 -21 L127 -21 Q112 -21 103 -17.5 Q94 -14 93 -5 Q92 5 92 17.5 Q92 30 94.5 42 Q97 54 101.5 63 Q106 72 114 75 Q114 90 115.5 110 Q117 130 124 153 Q131 176 145 199.5 Q159 223 184 244 Q200 257 213.5 269 Q227 281 238.5 296 Q250 311 259.5 329.5 Q269 348 276 374 Q282 398 285.5 414.5 Q289 431 289.5 444.5 Q290 458 289 468.5 Q288 479 287 491 Q278 490 269.5 489.5 Q261 489 254 487 Q247 485 242.5 479.5 Q238 474 236 464 Q234 457 236.5 446.5 Q239 436 242.5 425 Q246 414 248 403 Q250 392 248 385 Q244 367 219 353.5 Q194 340 163 331 Q144 326 123.5 321 Q103 316 84.5 314.5 Q66 313 52 315.5 Q38 318 32 328 Q26 338 24.5 357 Q23 376 26 397.5 Q29 419 37.5 441.5 Q46 464 60 482 Q84 513 126.5 536.5 Q169 560 222 575 Q275 590 335 597.5 Q395 605 455 605 Q515 605 575 597.5 Q635 590 688 575 Q741 560 783.5 536.5 Q826 513 850 482 Q864 464 872.5 441.5 Q881 419 884 397.5 Q887 376 885.5 357 Q884 338 878 328 Z M764 18 Q766 18 767.5 26 Q769 34 768.5 44.5 Q768 55 764.5 65 Q761 75 753 80 Q753 91 750.5 108 Q748 125 743 143 Q738 161 729.5 178.5 Q721 196 708 208 Q687 228 672 242.5 Q657 257 645.5 270 Q634 283 626 296 Q618 309 612 325 Q595 373 590 415 Q585 457 588 488 L553 488 L553 400 L357 400 L357 488 L320 488 Q323 457 319 415 Q315 373 298 325 Q292 309 283.5 296 Q275 283 263.5 270 Q252 257 236.5 242.5 Q221 228 200 208 Q187 196 178.5 178.5 Q170 161 164.5 143 Q159 125 157 108 Q155 91 155 80 Q147 75 143.5 65 Q140 55 139.5 44.5 Q139 34 141 26 Q143 18 146 18 L764 18 Z " />
<glyph glyph-name="uni260E" unicode="&#x260e;" horiz-adv-x="910" d="M878 328 Q872 318 858 315.5 Q844 313 825.5 314.5 Q807 316 786.5 321 Q766 326 747 331 Q716 340 691 353.5 Q666 367 662 385 Q660 392 662.5 403 Q665 414 669 425 Q673 436 676 446.5 Q679 457 678 464 Q674 484 658 491 Q642 498 623 501 Q620 478 620 449.5 Q620 421 634 374 Q641 348 650.5 329.5 Q660 311 671.5 296 Q683 281 696.5 269 Q710 257 726 244 Q751 223 765 199.5 Q779 176 786 153 Q793 130 794.5 110 Q796 90 796 75 Q804 72 808.5 63 Q813 54 815.5 42 Q818 30 818 17.5 Q818 5 817 -5 Q816 -14 807 -17.5 Q798 -21 783 -21 L127 -21 Q112 -21 103 -17.5 Q94 -14 93 -5 Q92 5 92 17.5 Q92 30 94.5 42 Q97 54 101.5 63 Q106 72 114 75 Q114 90 115.5 110 Q117 130 124 153 Q131 176 145 199.5 Q159 223 184 244 Q200 257 213.5 269 Q227 281 238.5 296 Q250 311 259.5 329.5 Q269 348 276 374 Q289 421 289.5 449.5 Q290 478 287 501 Q268 498 252 491 Q236 484 232 464 Q230 457 233 446.5 Q236 436 240 425 Q244 414 247 403 Q250 392 248 385 Q244 367 219 353.5 Q194 340 163 331 Q144 326 123.5 321 Q103 316 84.5 314.5 Q66 313 52 315.5 Q38 318 32 328 Q26 338 24.5 357 Q23 376 26 398.5 Q29 421 37.5 443.5 Q46 466 60 484 Q84 515 126.5 538 Q169 561 222 576 Q275 591 335 598 Q395 605 455 605 Q515 605 575 598 Q635 591 688 576 Q741 561 783.5 538 Q826 515 850 484 Q864 466 872.5 443.5 Q881 421 884 398.5 Q887 376 885.5 357 Q884 338 878 328 Z M533 439 L533 504 Q519 500 498 497 Q477 494 455 494 Q433 494 412 497 Q391 500 377 504 L377 439 L533 439 Z M602 208 Q602 238 590.5 265 Q579 292 559 312 Q539 332 512 343.5 Q485 355 455 355 Q425 355 398 343.5 Q371 332 351 312 Q331 292 319.5 265 Q308 238 308 208 Q308 178 319.5 151 Q331 124 351 104.5 Q371 85 398 73.5 Q425 62 455 62 Q485 62 512 73.5 Q539 85 559 104.5 Q579 124 590.5 151 Q602 178 602 208 Z " />
<glyph glyph-name="uni261C" unicode="&#x261c;" horiz-adv-x="910" d="M847 184 L771 184 L771 205 L742 205 Q716 189 677.5 175 Q639 161 574 150 Q556 147 529.5 146 Q503 145 475.5 145 Q448 145 422.5 146.5 Q397 148 381 150 Q363 153 346.5 159.5 Q330 166 326 183 Q324 195 328.5 202.5 Q333 210 341 215 Q327 215 315.5 224 Q304 233 303 248 Q302 259 305.5 266 Q309 273 314 278 Q300 280 289 287 Q278 294 278 311 Q278 333 297 342 Q316 351 360 351 L357 359 Q333 360 314 360.5 Q295 361 275.5 361.5 Q256 362 235 363 Q214 364 186 366 Q165 367 143 368 Q121 369 103 373 Q85 377 73.5 385.5 Q62 394 62 409 Q62 422 71 429 Q80 436 96 439.5 Q112 443 133.5 444.5 Q155 446 180 448 Q194 449 225 450 Q256 451 296 451.5 Q336 452 380.5 452.5 Q425 453 467 453 Q499 453 531.5 452.5 Q564 452 595.5 447 Q627 442 656.5 430 Q686 418 712 394 Q728 390 744 388.5 Q760 387 772 388 L772 420 L847 420 L847 184 Z M772 217 L772 371 Q764 370 750.5 371 Q737 372 728 374 L730 366 Q732 356 730 355.5 Q728 355 723 361 Q715 371 700.5 383.5 Q686 396 665 410 Q650 420 624 426 Q598 432 570.5 435 Q543 438 518 438.5 Q493 439 480 437 Q466 435 447 428.5 Q428 422 414 413 Q406 408 401.5 401 Q397 394 392 386 Q384 369 373 362 Q369 357 376 353 Q383 349 404 357 Q414 361 422 367.5 Q430 374 436 379.5 Q442 385 446 388.5 Q450 392 452 389 Q457 383 448 374 Q456 371 468.5 369.5 Q481 368 489 370 Q509 375 519 382.5 Q529 390 531 386 Q533 381 529 374.5 Q525 368 517 363 Q523 354 543.5 338 Q564 322 596 311 Q616 304 633 301.5 Q650 299 662 297.5 Q674 296 681 294.5 Q688 293 688 289 Q688 286 679 285 Q670 284 656.5 285 Q643 286 628 288.5 Q613 291 601 294 Q580 301 563.5 310 Q547 319 534.5 328.5 Q522 338 513.5 346.5 Q505 355 501 361 Q496 358 489.5 357.5 Q483 357 478 357 Q464 358 452.5 360 Q441 362 436 364 L421 351 Q447 351 465 344.5 Q483 338 486 326 Q490 312 486.5 301.5 Q483 291 475 285 Q503 278 506 257 Q508 243 503.5 236.5 Q499 230 491 225 Q520 219 523 197 Q527 182 520.5 173.5 Q514 165 510 164 Q524 161 545 164 Q584 167 614.5 173.5 Q645 180 669 188 Q693 196 712 206 Q731 216 747 226 Q750 229 752.5 229 Q755 229 754 225 L752 217 L772 217 Z M429 437 Q380 437 314.5 436 Q249 435 181 433 Q133 431 106 427.5 Q79 424 79 409 Q79 393 102 389.5 Q125 386 181 382 Q243 379 285 377 Q327 375 368 374 L389 406 Q397 417 406 424.5 Q415 432 429 437 Z M831 200 L831 403 L787 403 L787 200 L831 200 Z M490 247 Q491 262 484 267.5 Q477 273 462 275 Q455 276 439 276 Q423 276 404.5 276 Q386 276 369 275.5 Q352 275 343 275 Q333 274 326.5 267 Q320 260 320 250 Q320 234 345 230 Q350 229 368.5 228 Q387 227 406.5 227 Q426 227 442 227 Q458 227 459 227 Q469 227 479 231.5 Q489 236 490 247 Z M507 194 Q506 205 495.5 208.5 Q485 212 476 212 Q449 213 417 213 Q385 213 363 211 Q352 210 347.5 202.5 Q343 195 345 187 Q346 181 350.5 176 Q355 171 363 169 Q389 164 420.5 163.5 Q452 163 477 165 Q510 167 507 194 Z M467 316 Q467 322 462.5 327 Q458 332 447 333 Q410 335 377.5 336 Q345 337 313 333 Q303 331 298 325 Q293 319 294 311 Q294 304 299 298 Q304 292 314 292 Q329 291 348 291 Q367 291 385.5 291 Q404 291 420.5 292 Q437 293 448 294 Q456 296 461.5 300.5 Q467 305 467 316 Z " />
<glyph glyph-name="uni261E" unicode="&#x261e;" horiz-adv-x="910" d="M847 409 Q847 394 835.5 385.5 Q824 377 806 373 Q788 369 766 368 Q744 367 723 366 Q695 364 674 363 Q653 362 633.5 361.5 Q614 361 595 360.5 Q576 360 552 359 L549 351 Q593 351 612 342 Q631 333 631 311 Q631 294 620 287 Q609 280 595 278 Q600 273 603.5 266 Q607 259 606 248 Q605 233 593.5 224 Q582 215 568 215 Q576 210 580.5 202.5 Q585 195 583 183 Q579 166 562.5 159.5 Q546 153 528 150 Q512 148 486.5 146.5 Q461 145 433.5 145 Q406 145 379.5 146 Q353 147 335 150 Q270 161 231.5 175 Q193 189 167 205 L138 205 L138 184 L62 184 L62 420 L137 420 L137 388 Q149 387 165 388.5 Q181 390 197 394 Q223 418 252.5 430 Q282 442 313.5 447 Q345 452 377.5 452.5 Q410 453 442 453 Q484 453 528.5 452.5 Q573 452 613 451.5 Q653 451 684 450 Q715 449 729 448 Q754 446 775.5 444.5 Q797 443 813 439.5 Q829 436 838 429 Q847 422 847 409 Z M536 362 Q525 369 517 386 Q512 394 507.5 401 Q503 408 495 413 Q481 422 462 428.5 Q443 435 429 437 Q415 439 390.5 438.5 Q366 438 338.5 435 Q311 432 285 426 Q259 420 244 410 Q223 396 208.5 383.5 Q194 371 186 361 Q181 355 179 355.5 Q177 356 179 366 L181 374 Q172 372 158.5 371 Q145 370 137 371 L137 217 L157 217 L155 225 Q153 228 156 228 Q159 228 162 226 Q193 206 239.5 188.5 Q286 171 364 164 Q383 161 396 164 Q392 167 387.5 175.5 Q383 184 386 197 Q389 219 418 225 Q410 230 405.5 236.5 Q401 243 403 257 Q408 278 434 285 Q426 291 422.5 301.5 Q419 312 423 326 Q427 338 444.5 344.5 Q462 351 488 351 L473 364 Q468 362 456.5 360 Q445 358 431 357 Q426 357 419.5 357.5 Q413 358 408 361 Q404 355 395.5 346.5 Q387 338 374.5 328.5 Q362 319 345.5 310 Q329 301 308 294 Q296 291 281 288.5 Q266 286 252.5 285 Q239 284 230 285 Q221 286 221 289 Q221 293 228 294.5 Q235 296 247 297.5 Q259 299 276 301.5 Q293 304 313 311 Q345 322 365.5 338 Q386 354 392 363 Q384 368 380 374.5 Q376 381 378 386 Q380 390 390 382.5 Q400 375 420 370 Q428 368 440.5 369.5 Q453 371 461 374 Q457 378 455.5 382 Q454 386 457 389 Q459 392 463 388.5 Q467 385 473 379.5 Q479 374 487 367.5 Q495 361 505 357 Q526 349 533 353 Q540 357 536 362 Z M830 409 Q830 424 803 427.5 Q776 431 728 433 Q660 435 594.5 436 Q529 437 480 437 Q494 432 503 424.5 Q512 417 520 406 L541 374 Q582 375 624 377 Q666 379 728 382 Q784 386 807 389.5 Q830 393 830 409 Z M122 200 L122 403 L78 403 L78 200 L122 200 Z M589 250 Q589 260 582.5 267 Q576 274 566 275 Q557 275 540 275.5 Q523 276 504.5 276 Q486 276 470 276 Q454 276 447 275 Q433 273 425.5 267.5 Q418 262 419 247 Q420 236 430 231.5 Q440 227 450 227 Q451 227 467 227 Q483 227 502.5 227 Q522 227 540.5 228 Q559 229 564 230 Q589 234 589 250 Z M564 187 Q566 195 561.5 202.5 Q557 210 546 211 Q524 213 492 213 Q460 213 433 212 Q424 212 413.5 208.5 Q403 205 402 194 Q399 167 432 165 Q457 163 488.5 163.5 Q520 164 546 169 Q554 171 558.5 176 Q563 181 564 187 Z M615 311 Q616 319 611 325 Q606 331 596 333 Q564 337 531.5 336 Q499 335 462 333 Q451 332 446.5 327 Q442 322 442 316 Q442 305 447.5 300.5 Q453 296 461 294 Q472 293 488.5 292 Q505 291 523.5 291 Q542 291 561 291 Q580 291 595 292 Q605 292 610 298 Q615 304 615 311 Z " />
<glyph glyph-name="paragraph" unicode="&#xb6;" horiz-adv-x="589" d="M275 341 L236 341 Q191 341 151.5 353.5 Q112 366 83.5 390.5 Q55 415 38.5 450 Q22 485 22 530 Q22 570 35 605.5 Q48 641 76.5 667 Q105 693 150 708 Q195 723 259 723 L530 723 L530 -132 L443 -132 L443 642 L361 642 L361 -132 L275 -132 L275 341 Z " />
<glyph glyph-name="dagger" unicode="&#x2020;" horiz-adv-x="492" d="M195 395 L27 395 L27 495 L195 495 L195 695 L298 695 L298 495 L465 495 L465 395 L298 395 L298 -91 L195 -91 L195 395 Z " />
<glyph glyph-name="daggerdbl" unicode="&#x2021;" horiz-adv-x="492" d="M27 208 L195 208 L195 396 L27 396 L27 495 L195 495 L195 695 L298 695 L298 495 L465 495 L465 396 L298 396 L298 208 L465 208 L465 109 L298 109 L298 -91 L195 -91 L195 109 L27 109 L27 208 Z " />
<glyph glyph-name="arrowupdn" unicode="&#x2195;" horiz-adv-x="910" d="M484 553 L484 135 L611 209 L628 194 L455 -14 L282 194 L299 209 L426 135 L426 553 L299 478 L282 493 L455 701 L628 493 L611 478 L484 553 Z " />
<glyph glyph-name="uni2197" unicode="&#x2197;" horiz-adv-x="910" d="M101 31 L682 612 L540 648 L539 671 L808 696 L783 427 L760 428 L724 570 L142 -11 L101 31 Z " />
<glyph glyph-name="uni2199" unicode="&#x2199;" horiz-adv-x="910" d="M809 657 L227 76 L369 39 L371 16 L101 -9 L126 261 L149 259 L186 117 L768 698 L809 657 Z " />
<glyph glyph-name="uni2196" unicode="&#x2196;" horiz-adv-x="910" d="M767 -11 L185 570 L149 428 L126 427 L101 696 L370 671 L369 648 L227 612 L808 31 L767 -11 Z " />
<glyph glyph-name="uni2198" unicode="&#x2198;" horiz-adv-x="910" d="M142 698 L724 117 L761 259 L784 261 L809 -9 L539 16 L541 39 L683 76 L101 657 L142 698 Z " />
<glyph glyph-name="uni266D" unicode="&#x266d;" horiz-adv-x="517" d="M342 229 Q342 256 337 279 Q332 302 323 319 Q314 336 300.5 346 Q287 356 271 356 Q243 356 222.5 344 Q202 332 188.5 314.5 Q175 297 168.5 276.5 Q162 256 162 238 L162 24 Q191 26 223 38 Q255 50 281.5 74 Q308 98 325 136 Q342 174 342 229 Z M418 266 Q418 210 403.5 166.5 Q389 123 365 91.5 Q341 60 309 38.5 Q277 17 241.5 3.5 Q206 -10 169 -16.5 Q132 -23 99 -25 L99 640 L162 640 L162 312 Q168 328 177.5 344.5 Q187 361 203.5 375 Q220 389 244 398 Q268 407 302 407 Q326 407 347 397 Q368 387 384 368.5 Q400 350 409 324 Q418 298 418 266 Z " />
<glyph glyph-name="uni2669" unicode="&#x2669;" horiz-adv-x="388" d="M288 115 Q288 72 281.5 44 Q275 16 253 -10 Q239 -26 221 -39.5 Q203 -53 183.5 -60 Q164 -67 145.5 -64.5 Q127 -62 114 -47 Q100 -32 99.5 -13 Q99 6 107.5 25 Q116 44 131.5 60.5 Q147 77 165 88 Q202 110 250 117 L250 662 L288 662 L288 115 Z " />
<glyph glyph-name="musicalnote" unicode="&#x266a;" horiz-adv-x="539" d="M479 339 Q479 309 470 277.5 Q461 246 440 214 Q420 184 390 155.5 Q360 127 333 111 Q322 104 318.5 109.5 Q315 115 323 123 Q336 136 353 155 Q370 174 385.5 198.5 Q401 223 411.5 252.5 Q422 282 422 316 Q422 349 403 372 Q384 395 357 411.5 Q330 428 300 438 Q270 448 248 455 L248 115 Q248 72 241.5 44 Q235 16 213 -10 Q199 -26 181 -39.5 Q163 -53 143.5 -60 Q124 -67 105.5 -64.5 Q87 -62 74 -47 Q60 -32 59.5 -13 Q59 6 67.5 25 Q76 44 91.5 60.5 Q107 77 125 88 Q162 110 210 117 L210 617 Q210 630 211 643.5 Q212 657 219 657 Q226 657 232 652 Q238 647 250 633 Q263 618 278 601.5 Q293 585 320 562 Q363 525 393.5 494 Q424 463 443 436 Q462 409 470.5 385.5 Q479 362 479 339 Z " />
<glyph glyph-name="uni266C" unicode="&#x266c;" horiz-adv-x="693" d="M598 486 L598 544 L251 470 L251 412 L598 486 Z M638 191 Q638 156 619 126 Q600 96 571 72 Q558 61 541.5 52 Q525 43 508.5 40 Q492 37 476.5 40.5 Q461 44 450 59 Q441 70 442 85.5 Q443 101 450 117 Q457 133 468.5 147.5 Q480 162 493 172 Q522 193 546.5 199.5 Q571 206 598 210 L598 392 L251 317 L251 94 Q251 59 232 29 Q213 -1 184 -25 Q171 -36 154.5 -45 Q138 -54 121.5 -57 Q105 -60 89.5 -56.5 Q74 -53 63 -38 Q54 -27 55 -11.5 Q56 4 63 20 Q70 36 81.5 50.5 Q93 65 106 75 Q135 96 159.5 102.5 Q184 109 211 113 L211 559 L638 645 L638 191 Z " />
<glyph glyph-name="uni327F" unicode="&#x327f;" horiz-adv-x="910" d="M880 301 Q880 214 849.5 136.5 Q819 59 763 1.5 Q707 -56 628.5 -90 Q550 -124 454 -124 Q373 -124 304.5 -99 Q236 -74 183 -30 Q130 14 93 74.5 Q56 135 40 207 L118 208 Q133 151 162 103 Q191 55 233.5 20.5 Q276 -14 331.5 -33.5 Q387 -53 454 -53 Q531 -53 594.5 -27 Q658 -1 704 44 Q750 89 776.5 149.5 Q803 210 807 280 L632 280 L632 352 L877 352 Q880 326 880 301 Z M774 442 Q754 489 724 528.5 Q694 568 654 596 Q614 624 564 639.5 Q514 655 454 655 Q382 655 322 632 Q262 609 217.5 568.5 Q173 528 144 472.5 Q115 417 105 352 L227 352 L227 280 L30 280 L30 301 Q30 388 61 465 Q92 542 147.5 599.5 Q203 657 281 691 Q359 725 454 725 Q529 725 591.5 704.5 Q654 684 704.5 647 Q755 610 792 557.5 Q829 505 853 442 L774 442 Z M492 350 L678 83 L578 83 L437 293 L373 228 L373 83 L293 83 L293 532 L373 532 L373 325 L567 532 L670 532 L492 350 Z " />
<glyph glyph-name="uni321C" unicode="&#x321c;" horiz-adv-x="910" d="M120 274 Q120 160 150 48 Q180 -64 257 -170 L167 -170 Q92 -81 56 32 Q20 145 20 279 L20 319 Q20 453 56 565 Q92 677 167 766 L257 766 Q183 666 151.5 555.5 Q120 445 120 324 L120 274 Z M790 324 Q790 445 758.5 555.5 Q727 666 653 766 L743 766 Q818 677 854 565 Q890 453 890 319 L890 279 Q890 145 854 32 Q818 -81 743 -170 L653 -170 Q730 -64 760 48 Q790 160 790 274 L790 324 Z M501 530 L501 518 Q501 506 507.5 496 Q514 486 535 472 Q556 458 596 439 Q636 420 702 390 L663 315 Q598 345 559 364 Q520 383 499 395 Q478 407 469 414 Q460 421 455 427 L454 427 Q449 421 440 414 Q431 407 410 395 Q389 383 350 364 Q311 345 246 315 L207 390 Q273 420 313 439 Q353 458 374 472 Q395 486 401.5 496 Q408 506 408 518 L408 530 L234 530 L234 608 L675 608 L675 530 L501 530 Z M754 275 L754 197 L501 197 L501 -10 L408 -10 L408 197 L155 197 L155 275 L754 275 Z " />
<glyph glyph-name="uni2116" unicode="&#x2116;" horiz-adv-x="890" d="M54 695 L197 695 L328 308 Q334 289 340 272 Q346 255 351.5 236.5 Q357 218 363 196 Q369 174 375 145 L375 695 L484 695 L484 -26 L341 -26 L207 361 Q193 399 181.5 436.5 Q170 474 163 524 L163 -26 L54 -26 L54 695 Z M682 513 Q720 513 752.5 501.5 Q785 490 809 466.5 Q833 443 846.5 408.5 Q860 374 860 329 L860 282 Q860 237 846.5 202 Q833 167 809 143.5 Q785 120 752.5 108 Q720 96 682 96 Q644 96 612 108 Q580 120 556.5 143.5 Q533 167 519.5 202 Q506 237 506 282 L506 329 Q506 374 519.5 408.5 Q533 443 556.5 466 Q580 489 612 501 Q644 513 682 513 Z M682 188 Q715 188 735.5 212 Q756 236 756 290 L756 319 Q756 373 735.5 397.5 Q715 422 682 422 Q650 422 629 397.5 Q608 373 608 319 L608 290 Q608 236 629 212 Q650 188 682 188 Z M534 64 L831 64 L831 -26 L534 -26 L534 64 Z " />
<glyph glyph-name="uni33C7" unicode="&#x33c7;" horiz-adv-x="910" d="M253 706 Q278 706 301 704 Q324 702 346.5 694.5 Q369 687 392 673 Q415 659 441 636 L371 555 Q343 579 320 588.5 Q297 598 267 598 Q237 598 213 586.5 Q189 575 173 548.5 Q157 522 148.5 479 Q140 436 140 372 L140 286 Q140 173 174 121.5 Q208 70 259 70 Q301 70 332 85 Q363 100 384 124 L454 41 Q433 20 412 5 Q391 -10 368.5 -19.5 Q346 -29 320.5 -33 Q295 -37 264 -37 Q208 -37 163.5 -22.5 Q119 -8 87 27.5 Q55 63 38 121 Q21 179 21 266 L21 395 Q21 554 82 630 Q143 706 253 706 Z M640 706 Q743 706 799 632.5 Q855 559 855 400 L855 269 Q855 108 799.5 35.5 Q744 -37 640 -37 Q536 -37 480.5 35.5 Q425 108 425 269 L425 400 Q425 558 481.5 632 Q538 706 640 706 Z M640 70 Q665 70 683 80 Q701 90 713 115 Q725 140 730.5 181.5 Q736 223 736 285 L736 384 Q736 446 730.5 487.5 Q725 529 713 553.5 Q701 578 683 588.5 Q665 599 640 599 Q616 599 598 588.5 Q580 578 568 553.5 Q556 529 550 487.5 Q544 446 544 384 L544 285 Q544 223 550 181.5 Q556 140 568 115 Q580 90 598 80 Q616 70 640 70 Z M818 62 L901 62 L901 -26 L818 -26 L818 62 Z " />
<glyph glyph-name="trademark" unicode="&#x2122;" horiz-adv-x="709" d="M311 695 L417 695 L492 518 L494 518 L580 695 L680 695 L680 369 L593 369 L593 566 L527 432 L458 432 L391 580 L389 580 L389 369 L311 369 L311 695 Z M102 627 L13 627 L13 695 L285 695 L285 627 L196 627 L196 369 L102 369 L102 627 Z " />
<glyph glyph-name="uni33C2" unicode="&#x33c2;" horiz-adv-x="910" d="M269 -26 L182 -26 L182 24 Q177 2 162.5 -15.5 Q148 -33 116 -33 Q76 -33 46.5 1.5 Q17 36 17 111 L17 140 Q17 177 24 209 Q31 241 47.5 263.5 Q64 286 90.5 299 Q117 312 156 312 L168 312 L168 371 Q168 376 167 385 Q166 394 162 402.5 Q158 411 151.5 417.5 Q145 424 133 424 Q116 424 103 416 Q90 408 76 391 L15 467 Q25 477 37 487 Q49 497 64 505 Q79 513 97 518 Q115 523 137 523 Q169 523 194 515.5 Q219 508 235.5 491 Q252 474 260.5 445 Q269 416 269 374 L269 -26 Z M169 219 L160 219 Q147 219 139 211.5 Q131 204 127 192.5 Q123 181 122 166 Q121 151 121 136 L121 118 Q121 109 121.5 99 Q122 89 124.5 80 Q127 71 131 65.5 Q135 60 141 60 Q158 60 163.5 85 Q169 110 169 144 L169 219 Z M370 513 L458 513 L458 457 Q463 483 481.5 503 Q500 523 533 523 Q559 523 580 507.5 Q601 492 608 453 Q618 482 638 502.5 Q658 523 696 523 Q720 523 741 515.5 Q762 508 777.5 491.5 Q793 475 802.5 449.5 Q812 424 812 388 L812 -26 L708 -26 L708 338 Q708 387 700 403 Q692 419 674 419 Q661 419 652 397.5 Q643 376 643 332 L643 -26 L539 -26 L539 347 Q539 370 536 384.5 Q533 399 528.5 406.5 Q524 414 518.5 416.5 Q513 419 507 419 Q489 419 481.5 398.5 Q474 378 474 326 L474 -26 L370 -26 L370 513 Z M822 61 L903 61 L903 -26 L822 -26 L822 61 Z M279 61 L360 61 L360 -26 L279 -26 L279 61 Z " />
<glyph glyph-name="uni33D8" unicode="&#x33d8;" horiz-adv-x="910" d="M379 513 L467 513 L467 459 Q468 468 473.5 479.5 Q479 491 488.5 500.5 Q498 510 511.5 516.5 Q525 523 542 523 Q572 523 595 503 Q618 483 617 453 Q621 482 644.5 502.5 Q668 523 695 523 Q719 523 740 515.5 Q761 508 777.5 491.5 Q794 475 803.5 449.5 Q813 424 813 388 L813 -26 L709 -26 L709 340 Q709 386 699.5 402.5 Q690 419 679 419 Q669 419 660.5 403 Q652 387 652 338 L652 -26 L536 -26 L536 349 Q536 388 527.5 403.5 Q519 419 508 419 Q503 419 499 416 Q495 413 491 404 Q487 395 485 378 Q483 361 483 332 L483 -26 L379 -26 L379 513 Z M121 -240 L17 -240 L17 513 L115 513 L115 457 Q121 486 135.5 504.5 Q150 523 179 523 Q239 523 263 469.5 Q287 416 287 302 L287 187 Q287 125 280 83 Q273 41 259.5 15 Q246 -11 225.5 -22.5 Q205 -34 178 -34 Q155 -34 140.5 -22.5 Q126 -11 121 -6 L121 -240 Z M183 292 Q183 335 181 360.5 Q179 386 175.5 399 Q172 412 166 415.5 Q160 419 151 419 Q136 419 128.5 391 Q121 363 121 314 L121 153 Q121 102 127 83 Q133 64 155 64 Q171 64 177 94 Q183 124 183 183 L183 292 Z M286 62 L369 62 L369 -26 L286 -26 L286 62 Z M823 62 L906 62 L906 -26 L823 -26 L823 62 Z " />
<glyph glyph-name="uni2121" unicode="&#x2121;" horiz-adv-x="1066" d="M714 513 L714 409 L520 409 L520 307 L693 307 L693 203 L520 203 L520 78 L721 78 L721 -26 L396 -26 L396 513 L714 513 Z M485 695 L485 591 L309 591 L309 -26 L184 -26 L184 591 L6 591 L6 695 L485 695 Z M880 513 L880 78 L1060 78 L1060 -26 L756 -26 L756 513 L880 513 Z " />
<glyph glyph-name="uniFF01" unicode="&#xff01;" horiz-adv-x="910" d="M389 52 L521 52 L521 -80 L389 -80 L389 52 Z M403 154 L384 754 L526 754 L507 154 L403 154 Z " />
<glyph glyph-name="uniFF02" unicode="&#xff02;" horiz-adv-x="910" d="M311 488 L298 738 L428 738 L415 488 L311 488 Z M494 488 L481 738 L611 738 L598 488 L494 488 Z " />
<glyph glyph-name="uniFF03" unicode="&#xff03;" horiz-adv-x="910" d="M700 269 L700 160 L595 160 L570 -26 L468 -26 L492 160 L372 160 L348 -26 L245 -26 L269 160 L180 160 L180 269 L284 269 L302 405 L211 405 L211 514 L317 514 L341 695 L444 695 L420 514 L540 514 L564 695 L666 695 L642 514 L731 514 L731 405 L628 405 L609 269 L700 269 Z M527 405 L404 405 L385 269 L509 269 L527 405 Z " />
<glyph glyph-name="uniFF04" unicode="&#xff04;" horiz-adv-x="910" d="M423 -24 Q391 -22 358.5 -15 Q326 -8 295.5 2.5 Q265 13 238.5 26.5 Q212 40 193 56 L254 149 Q293 121 332.5 105 Q372 89 423 81 L423 291 Q387 300 350 312.5 Q313 325 282.5 347.5 Q252 370 232.5 405.5 Q213 441 213 495 L213 513 Q213 542 223.5 572 Q234 602 258 627.5 Q282 653 322.5 671 Q363 689 423 694 L423 751 L497 751 L497 695 Q551 692 604 675.5 Q657 659 692 628 L633 543 Q598 567 564 578 Q530 589 497 591 L497 388 Q563 370 605.5 350.5 Q648 331 672.5 306.5 Q697 282 706.5 251.5 Q716 221 716 183 L716 175 Q716 120 699 83.5 Q682 47 652.5 24 Q623 1 583 -10 Q543 -21 497 -24 L497 -93 L423 -93 L423 -24 Z M591 174 Q591 191 588.5 205.5 Q586 220 576 232 Q566 244 547.5 254 Q529 264 497 273 L497 80 Q550 86 570.5 110.5 Q591 135 591 164 L591 174 Z M336 500 Q336 478 341 463.5 Q346 449 356.5 438.5 Q367 428 383.5 420.5 Q400 413 423 406 L423 589 Q393 586 375.5 577 Q358 568 349 557 Q340 546 338 535 Q336 524 336 517 L336 500 Z " />
<glyph glyph-name="uniFF05" unicode="&#xff05;" horiz-adv-x="910" d="M181 -25 L612 695 L727 695 L297 -25 L181 -25 Z M225 709 Q304 709 350 662.5 Q396 616 396 537 L396 498 Q396 419 350 372.5 Q304 326 225 326 Q146 326 100 372.5 Q54 419 54 498 L54 537 Q54 616 100 662.5 Q146 709 225 709 Z M225 411 Q267 411 282 435 Q297 459 297 500 L297 535 Q297 575 282 599.5 Q267 624 225 624 Q183 624 168 599.5 Q153 575 153 535 L153 500 Q153 459 168 435 Q183 411 225 411 Z M684 349 Q763 349 809 302.5 Q855 256 855 177 L855 138 Q855 59 809 12.5 Q763 -34 684 -34 Q605 -34 559 12.5 Q513 59 513 138 L513 177 Q513 256 559 302.5 Q605 349 684 349 Z M684 51 Q726 51 741 75 Q756 99 756 140 L756 175 Q756 215 741 239.5 Q726 264 684 264 Q642 264 627 239.5 Q612 215 612 175 L612 140 Q612 99 627 75 Q642 51 684 51 Z " />
<glyph glyph-name="uniFF06" unicode="&#xff06;" horiz-adv-x="910" d="M712 371 Q712 293 698.5 232 Q685 171 656 122 L778 -25 L625 -25 L577 35 Q533 -2 482.5 -19.5 Q432 -37 380 -37 L372 -37 Q327 -37 282 -26.5 Q237 -16 201 7 Q165 30 143 67.5 Q121 105 121 158 L121 177 Q121 213 133 243 Q145 273 166 297.5 Q187 322 217 342.5 Q247 363 283 380 L259 407 Q230 440 217 470.5 Q204 501 204 537 L204 549 Q204 618 254 662 Q304 706 395 706 Q442 706 477.5 693 Q513 680 536.5 658 Q560 636 572 606.5 Q584 577 584 545 L584 534 Q584 486 557 440.5 Q530 395 457 350 L575 215 Q580 227 584 240.5 Q588 254 590.5 271.5 Q593 289 594 313 Q595 337 595 371 L712 371 Z M377 75 Q456 75 503 121 L353 298 Q292 267 269.5 237.5 Q247 208 247 175 L247 161 Q247 125 282 100 Q317 75 377 75 Z M325 535 Q325 516 345 488.5 Q365 461 389 434 Q413 449 427.5 461.5 Q442 474 450.5 485.5 Q459 497 462 508.5 Q465 520 465 533 L465 540 Q465 564 447 582.5 Q429 601 395 601 Q357 601 341 583.5 Q325 566 325 545 L325 535 Z " />
<glyph glyph-name="uniFF07" unicode="&#xff07;" horiz-adv-x="910" d="M403 488 L390 738 L520 738 L507 488 L403 488 Z " />
<glyph glyph-name="uniFF08" unicode="&#xff08;" horiz-adv-x="910" d="M752 274 Q752 160 782 48 Q812 -64 889 -170 L769 -170 Q694 -81 658 33 Q622 147 622 279 L622 319 Q622 451 658 564 Q694 677 769 766 L889 766 Q815 666 783.5 555.5 Q752 445 752 324 L752 274 Z " />
<glyph glyph-name="uniFF09" unicode="&#xff09;" horiz-adv-x="910" d="M158 324 Q158 445 126.5 555.5 Q95 666 21 766 L141 766 Q216 677 252 564 Q288 451 288 319 L288 279 Q288 147 252 33 Q216 -81 141 -170 L21 -170 Q98 -64 128 48 Q158 160 158 274 L158 324 Z " />
<glyph glyph-name="uniFF0A" unicode="&#xff0a;" horiz-adv-x="910" d="M307 392 L256 489 L392 538 L256 586 L307 683 L418 600 L402 733 L508 733 L491 600 L603 683 L653 586 L517 538 L653 489 L603 392 L491 475 L508 343 L402 343 L419 475 L307 392 Z " />
<glyph glyph-name="uniFF0B" unicode="&#xff0b;" horiz-adv-x="910" d="M511 574 L511 369 L713 369 L713 265 L511 265 L511 46 L399 46 L399 265 L197 265 L197 369 L399 369 L399 574 L511 574 Z " />
<glyph glyph-name="uniFF0C" unicode="&#xff0c;" horiz-adv-x="910" d="M404 56 L546 56 L464 -175 L362 -175 L404 56 Z " />
<glyph glyph-name="uniFF0D" unicode="&#xff0d;" horiz-adv-x="910" d="M285 386 L625 386 L625 282 L285 282 L285 386 Z " />
<glyph glyph-name="uniFF0E" unicode="&#xff0e;" horiz-adv-x="910" d="M392 56 L519 56 L519 -74 L392 -74 L392 56 Z " />
<glyph glyph-name="uniFF0F" unicode="&#xff0f;" horiz-adv-x="910" d="M671 777 L361 -131 L238 -131 L547 777 L671 777 Z " />
<glyph glyph-name="uniFF10" unicode="&#xff10;" horiz-adv-x="910" d="M720 279 Q720 125 655 44 Q590 -37 459 -37 Q330 -37 260 45 Q190 127 190 279 L190 391 Q190 543 259.5 624.5 Q329 706 456 706 Q584 706 652 624.5 Q720 543 720 391 L720 279 Z M591 392 Q591 454 579.5 492 Q568 530 549.5 550.5 Q531 571 506.5 578 Q482 585 456 585 Q431 585 406.5 578 Q382 571 362.5 550 Q343 529 331 491 Q319 453 319 392 L319 278 Q319 216 331.5 178 Q344 140 364 119 Q384 98 409 91 Q434 84 459 84 Q485 84 509 91 Q533 98 551 118.5 Q569 139 580 177 Q591 215 591 278 L591 392 Z " />
<glyph glyph-name="uniFF11" unicode="&#xff11;" horiz-adv-x="910" d="M504 -26 L504 551 L340 457 L278 561 L519 695 L632 695 L632 -26 L504 -26 Z " />
<glyph glyph-name="uniFF12" unicode="&#xff12;" horiz-adv-x="910" d="M465 343 Q496 375 514 399 Q532 423 541 442 Q550 461 552 477 Q554 493 554 508 L554 516 Q554 545 530.5 568.5 Q507 592 451 592 Q431 592 411.5 588 Q392 584 373 573 Q354 562 335.5 542 Q317 522 299 491 L203 554 Q216 577 235.5 604 Q255 631 284.5 653.5 Q314 676 354.5 691 Q395 706 450 706 Q511 706 555 691 Q599 676 627.5 650.5 Q656 625 669.5 591.5 Q683 558 683 521 L683 511 Q683 452 656.5 398.5 Q630 345 579 294 L367 80 L710 80 L710 -26 L200 -26 L200 70 L465 343 Z " />
<glyph glyph-name="uniFF13" unicode="&#xff13;" horiz-adv-x="910" d="M229 602 Q265 649 315 677.5 Q365 706 443 706 Q494 706 535 693 Q576 680 605 656.5 Q634 633 650 599.5 Q666 566 666 526 L666 516 Q666 495 661.5 470.5 Q657 446 645 423.5 Q633 401 613 382 Q593 363 562 351 Q634 338 668 294 Q702 250 702 188 L702 173 Q702 132 686 94 Q670 56 637.5 27 Q605 -2 555.5 -19.5 Q506 -37 440 -37 Q377 -37 318.5 -17.5 Q260 2 209 43 L272 143 Q298 124 319.5 111 Q341 98 361 90.5 Q381 83 400 80 Q419 77 441 77 Q509 77 541 104 Q573 131 573 179 L573 192 Q573 245 542 269.5 Q511 294 442 294 L345 294 L345 404 L431 404 Q465 404 486.5 411.5 Q508 419 520 432.5 Q532 446 536.5 465.5 Q541 485 541 508 L541 516 Q541 557 514.5 575.5 Q488 594 443 594 Q397 594 368.5 577 Q340 560 316 534 L229 602 Z " />
<glyph glyph-name="uniFF14" unicode="&#xff14;" horiz-adv-x="910" d="M652 443 L652 227 L750 227 L750 124 L652 124 L652 -26 L526 -26 L526 124 L167 124 L167 207 L495 695 L633 695 L318 227 L526 227 L526 443 L652 443 Z " />
<glyph glyph-name="uniFF15" unicode="&#xff15;" horiz-adv-x="910" d="M576 215 Q576 273 542.5 304 Q509 335 449 335 Q403 335 369.5 318 Q336 301 312 278 L226 278 L249 695 L658 695 L658 589 L364 589 L356 401 Q381 416 413 427 Q445 438 490 438 Q542 438 582 420 Q622 402 649.5 371.5 Q677 341 691 301 Q705 261 705 218 L705 203 Q705 160 690.5 117 Q676 74 644.5 40 Q613 6 564.5 -15.5 Q516 -37 448 -37 Q370 -37 308 -19.5 Q246 -2 192 43 L254 144 Q279 124 303 111 Q327 98 350.5 91 Q374 84 398 81.5 Q422 79 447 79 Q513 79 544.5 114.5 Q576 150 576 204 L576 215 Z " />
<glyph glyph-name="uniFF16" unicode="&#xff16;" horiz-adv-x="910" d="M628 550 Q594 570 557 580 Q520 590 475 590 Q447 590 421.5 580 Q396 570 375.5 546.5 Q355 523 341 484.5 Q327 446 324 388 Q350 419 394.5 435 Q439 451 486 451 Q538 451 580 434.5 Q622 418 651 387.5 Q680 357 695.5 314 Q711 271 711 219 L711 199 Q711 149 693.5 105.5 Q676 62 643 30.5 Q610 -1 562.5 -19 Q515 -37 455 -37 Q386 -37 337 -15.5 Q288 6 257 46 Q226 86 211.5 142.5 Q197 199 197 268 L197 314 Q197 433 219.5 509.5 Q242 586 281 629.5 Q320 673 372 689.5 Q424 706 483 706 Q532 706 583 694.5 Q634 683 675 656 L628 550 Z M326 203 Q326 144 358 111.5 Q390 79 452 79 Q518 79 551.5 111.5 Q585 144 585 204 L585 215 Q585 278 554 308.5 Q523 339 457 339 Q422 339 397.5 329.5 Q373 320 357 303.5 Q341 287 333.5 265 Q326 243 326 218 L326 203 Z " />
<glyph glyph-name="uniFF17" unicode="&#xff17;" horiz-adv-x="910" d="M436 -26 L301 -26 L578 587 L197 587 L197 695 L712 695 L712 597 L436 -26 Z " />
<glyph glyph-name="uniFF18" unicode="&#xff18;" horiz-adv-x="910" d="M355 491 Q355 467 364 449.5 Q373 432 387.5 420.5 Q402 409 420 403.5 Q438 398 456 398 Q475 398 492.5 403.5 Q510 409 524 420.5 Q538 432 546.5 449.5 Q555 467 555 491 L555 501 Q555 548 527.5 571.5 Q500 595 455 595 Q413 595 384 571.5 Q355 548 355 501 L355 491 Z M337 173 Q337 126 370 100.5 Q403 75 457 75 Q511 75 542 100.5 Q573 126 573 173 L573 183 Q573 210 563.5 229 Q554 248 538.5 261 Q523 274 502 280 Q481 286 457 286 Q433 286 411.5 280 Q390 274 373.5 261.5 Q357 249 347 229.5 Q337 210 337 183 L337 173 Z M205 182 Q205 212 215 238.5 Q225 265 241.5 286.5 Q258 308 279 323 Q300 338 323 345 Q297 358 278.5 376.5 Q260 395 248 415.5 Q236 436 230 457 Q224 478 224 496 L224 508 Q224 547 237.5 582.5 Q251 618 279.5 645.5 Q308 673 351.5 689.5 Q395 706 454 706 Q512 706 555.5 689.5 Q599 673 628 645.5 Q657 618 671.5 582.5 Q686 547 686 508 L686 496 Q686 478 680.5 458 Q675 438 663 418 Q651 398 632.5 379 Q614 360 588 345 Q611 338 632.5 322.5 Q654 307 670 286 Q686 265 695.5 238.5 Q705 212 705 182 L705 165 Q705 122 689 85 Q673 48 641.5 21 Q610 -6 564 -21.5 Q518 -37 458 -37 Q396 -37 348.5 -21.5 Q301 -6 269 21 Q237 48 221 85 Q205 122 205 165 L205 182 Z " />
<glyph glyph-name="uniFF19" unicode="&#xff19;" horiz-adv-x="910" d="M280 119 Q314 99 351 89 Q388 79 433 79 Q468 79 495 89 Q522 99 541 122.5 Q560 146 570.5 184.5 Q581 223 584 281 Q558 250 513.5 234 Q469 218 422 218 Q369 218 327.5 234.5 Q286 251 257 281 Q228 311 212.5 353.5 Q197 396 197 449 L197 469 Q197 519 214.5 562.5 Q232 606 265 638 Q298 670 345.5 688 Q393 706 453 706 Q522 706 571 684.5 Q620 663 651 623 Q682 583 696.5 526.5 Q711 470 711 401 L711 355 Q711 236 690.5 159.5 Q670 83 632.5 39.5 Q595 -4 542 -20.5 Q489 -37 425 -37 Q376 -37 325 -25.5 Q274 -14 233 13 L280 119 Z M582 466 Q582 525 550 557.5 Q518 590 456 590 Q390 590 356.5 557.5 Q323 525 323 465 L323 454 Q323 391 354 360.5 Q385 330 451 330 Q485 330 510 339.5 Q535 349 551 365.5 Q567 382 574.5 404 Q582 426 582 451 L582 466 Z " />
<glyph glyph-name="uniFF1A" unicode="&#xff1a;" horiz-adv-x="910" d="M392 131 L519 131 L519 1 L392 1 L392 131 Z M392 581 L519 581 L519 451 L392 451 L392 581 Z " />
<glyph glyph-name="uniFF1B" unicode="&#xff1b;" horiz-adv-x="910" d="M402 581 L529 581 L529 451 L402 451 L402 581 Z M405 136 L547 136 L465 -95 L363 -95 L405 136 Z " />
<glyph glyph-name="uniFF1C" unicode="&#xff1c;" horiz-adv-x="910" d="M353 319 L697 148 L697 21 L213 271 L213 370 L697 620 L697 494 L353 325 L353 319 Z " />
<glyph glyph-name="uniFF1D" unicode="&#xff1d;" horiz-adv-x="910" d="M219 478 L691 478 L691 373 L219 373 L219 478 Z M219 267 L691 267 L691 162 L219 162 L219 267 Z " />
<glyph glyph-name="uniFF1E" unicode="&#xff1e;" horiz-adv-x="910" d="M557 325 L213 494 L213 620 L697 370 L697 271 L213 21 L213 148 L557 319 L557 325 Z " />
<glyph glyph-name="uniFF1F" unicode="&#xff1f;" horiz-adv-x="910" d="M371 141 L371 186 Q371 211 374.5 230.5 Q378 250 387.5 269 Q397 288 414 309 Q431 330 458 358 Q494 395 514 416.5 Q534 438 544 453 Q554 468 556 480.5 Q558 493 558 511 L558 521 Q558 532 553.5 545 Q549 558 538 569 Q527 580 507 587 Q487 594 456 594 Q409 594 369.5 575.5 Q330 557 298 526 L223 618 Q274 668 328.5 687 Q383 706 454 706 Q509 706 552 692.5 Q595 679 625 655 Q655 631 670.5 597 Q686 563 686 522 L686 511 Q686 474 676 445.5 Q666 417 649.5 393 Q633 369 611.5 348 Q590 327 567 305 Q550 289 539 275.5 Q528 262 520.5 248 Q513 234 510 218 Q507 202 507 183 L507 141 L371 141 Z M375 52 L507 52 L507 -80 L375 -80 L375 52 Z " />
<glyph glyph-name="uniFF20" unicode="&#xff20;" horiz-adv-x="910" d="M716 35 Q676 35 642 54 Q608 73 594 121 L593 121 Q584 97 565 81 Q546 65 524 55 Q502 45 479.5 41 Q457 37 439 37 Q390 37 351.5 51.5 Q313 66 286 93 Q259 120 245 157.5 Q231 195 231 240 L231 320 Q231 366 245 403.5 Q259 441 284 467.5 Q309 494 344 508.5 Q379 523 421 523 Q478 523 509 506.5 Q540 490 551 471 L551 515 L666 515 L666 208 Q666 166 679 145.5 Q692 125 724 125 Q744 125 760 133.5 Q776 142 787 162.5 Q798 183 803.5 216 Q809 249 809 298 L809 306 Q809 390 784.5 454.5 Q760 519 713.5 563.5 Q667 608 599.5 631 Q532 654 446 654 Q372 654 309 630 Q246 606 199.5 560 Q153 514 126.5 447 Q100 380 100 294 L100 280 Q100 187 126 117.5 Q152 48 199.5 1 Q247 -46 314 -69.5 Q381 -93 464 -93 Q536 -93 608.5 -77.5 Q681 -62 742 -30 L777 -111 Q714 -145 635.5 -163.5 Q557 -182 467 -182 Q357 -182 270.5 -149.5 Q184 -117 124.5 -57 Q65 3 34 88.5 Q3 174 3 279 L3 295 Q3 392 34 474 Q65 556 123 615.5 Q181 675 262.5 708.5 Q344 742 446 742 Q557 742 643 711 Q729 680 787.5 623.5 Q846 567 876 487 Q906 407 906 309 L906 299 Q906 254 897.5 207 Q889 160 867.5 122 Q846 84 809 59.5 Q772 35 716 35 Z M354 254 Q354 203 376.5 175 Q399 147 446 147 Q488 147 515.5 171.5 Q543 196 543 243 L543 314 Q543 362 520 389 Q497 416 446 416 Q403 416 378.5 390.5 Q354 365 354 304 L354 254 Z " />
<glyph glyph-name="uniFF21" unicode="&#xff21;" horiz-adv-x="910" d="M782 -26 L643 -26 L573 172 L330 172 L259 -26 L128 -26 L396 695 L511 695 L782 -26 Z M367 279 L536 279 L487 426 Q474 462 466.5 486.5 Q459 511 451 537 Q447 522 443.5 510 Q440 498 436 485.5 Q432 473 427.5 459 Q423 445 416 426 L367 279 Z " />
<glyph glyph-name="uniFF22" unicode="&#xff22;" horiz-adv-x="910" d="M185 695 L465 695 Q692 695 692 519 L692 498 Q692 474 686.5 451.5 Q681 429 667.5 409.5 Q654 390 632 375.5 Q610 361 578 353 Q644 343 684.5 303.5 Q725 264 725 189 L725 164 Q725 75 669 24.5 Q613 -26 496 -26 L185 -26 L185 695 Z M312 80 L428 80 Q470 80 501.5 83.5 Q533 87 553.5 97.5 Q574 108 584 127 Q594 146 594 178 L594 200 Q594 228 584.5 246.5 Q575 265 553 276.5 Q531 288 495.5 292.5 Q460 297 409 297 L312 297 L312 80 Z M312 589 L312 401 L406 401 Q443 401 472.5 403 Q502 405 521.5 414 Q541 423 551.5 441.5 Q562 460 562 494 L562 512 Q562 558 526.5 573.5 Q491 589 410 589 L312 589 Z " />
<glyph glyph-name="uniFF23" unicode="&#xff23;" horiz-adv-x="910" d="M473 706 Q549 706 607.5 688 Q666 670 721 626 L652 528 Q608 565 565 576.5 Q522 588 473 588 Q441 588 410 578.5 Q379 569 355 544 Q331 519 316 476 Q301 433 301 366 L301 292 Q301 235 315 195 Q329 155 352.5 130 Q376 105 407 93.5 Q438 82 472 82 Q522 82 574.5 97.5 Q627 113 670 157 L738 59 Q706 27 670.5 8.5 Q635 -10 600 -20.5 Q565 -31 531 -34 Q497 -37 467 -37 Q408 -37 354.5 -20 Q301 -3 260.5 34 Q220 71 196 128 Q172 185 172 266 L172 395 Q172 476 195.5 534.5 Q219 593 260 631.5 Q301 670 355.5 688 Q410 706 473 706 Z " />
<glyph glyph-name="uniFF24" unicode="&#xff24;" horiz-adv-x="910" d="M424 695 Q585 695 661 615.5 Q737 536 737 386 L737 283 Q737 208 720 150.5 Q703 93 665.5 54 Q628 15 569 -5.5 Q510 -26 426 -26 L173 -26 L173 695 L424 695 Z M300 82 L407 82 Q455 82 492.5 93 Q530 104 555.5 128 Q581 152 594.5 191.5 Q608 231 608 288 L608 381 Q608 495 557.5 541 Q507 587 407 587 L300 587 L300 82 Z " />
<glyph glyph-name="uniFF25" unicode="&#xff25;" horiz-adv-x="910" d="M683 695 L683 589 L346 589 L346 395 L662 395 L662 291 L346 291 L346 80 L690 80 L690 -26 L219 -26 L219 695 L683 695 Z " />
<glyph glyph-name="uniFF26" unicode="&#xff26;" horiz-adv-x="910" d="M223 -26 L223 695 L687 695 L687 587 L351 587 L351 381 L666 381 L666 273 L351 273 L351 -26 L223 -26 Z " />
<glyph glyph-name="uniFF27" unicode="&#xff27;" horiz-adv-x="910" d="M488 706 Q552 706 615 688 Q678 670 734 625 L665 527 Q625 562 579 576 Q533 590 488 590 Q446 590 411 580.5 Q376 571 350.5 546.5 Q325 522 310.5 478.5 Q296 435 296 366 L296 292 Q296 233 311 192.5 Q326 152 352.5 126.5 Q379 101 415.5 90 Q452 79 496 79 Q531 79 559 84 Q587 89 614 100 L614 273 L463 273 L463 380 L741 380 L741 29 Q717 13 687 0.5 Q657 -12 624 -20 Q591 -28 556.5 -32.5 Q522 -37 490 -37 Q421 -37 362.5 -20 Q304 -3 260.5 34 Q217 71 192.5 128 Q168 185 168 266 L168 395 Q168 476 192 534.5 Q216 593 258.5 631.5 Q301 670 360 688 Q419 706 488 706 Z " />
<glyph glyph-name="uniFF28" unicode="&#xff28;" horiz-adv-x="910" d="M604 297 L305 297 L305 -26 L177 -26 L177 695 L305 695 L305 403 L604 403 L604 695 L732 695 L732 -26 L604 -26 L604 297 Z " />
<glyph glyph-name="uniFF29" unicode="&#xff29;" horiz-adv-x="910" d="M391 695 L519 695 L519 -26 L391 -26 L391 695 Z " />
<glyph glyph-name="uniFF2A" unicode="&#xff2a;" horiz-adv-x="910" d="M526 695 L654 695 L654 179 Q654 119 638.5 77.5 Q623 36 593.5 10.5 Q564 -15 522 -26 Q480 -37 428 -37 Q383 -37 336.5 -21 Q290 -5 255 26 L314 124 Q346 100 370.5 90 Q395 80 430 80 Q477 80 501.5 108 Q526 136 526 210 L526 695 Z " />
<glyph glyph-name="uniFF2B" unicode="&#xff2b;" horiz-adv-x="910" d="M448 377 L742 -26 L580 -26 L362 284 L295 211 L295 -26 L167 -26 L167 695 L295 695 L295 365 L579 695 L727 695 L448 377 Z " />
<glyph glyph-name="uniFF2C" unicode="&#xff2c;" horiz-adv-x="910" d="M354 695 L354 82 L683 82 L683 -26 L226 -26 L226 695 L354 695 Z " />
<glyph glyph-name="uniFF2D" unicode="&#xff2d;" horiz-adv-x="910" d="M254 474 Q246 493 238 518.5 Q230 544 217 583 L217 -26 L98 -26 L98 695 L280 695 L457 247 L627 695 L811 695 L811 -26 L690 -26 L690 583 Q679 538 671 515.5 Q663 493 656 474 L505 94 L403 94 L254 474 Z " />
<glyph glyph-name="uniFF2E" unicode="&#xff2e;" horiz-adv-x="910" d="M175 695 L322 695 L568 258 Q579 238 592.5 208.5 Q606 179 614 144 L614 695 L734 695 L734 -26 L587 -26 L340 412 Q326 436 314 464 Q302 492 295 523 L295 -26 L175 -26 L175 695 Z " />
<glyph glyph-name="uniFF2F" unicode="&#xff2f;" horiz-adv-x="910" d="M455 706 Q516 706 571.5 688.5 Q627 671 669 633.5 Q711 596 735.5 537 Q760 478 760 394 L760 275 Q760 190 735.5 130.5 Q711 71 669.5 34 Q628 -3 572.5 -20 Q517 -37 455 -37 Q393 -37 337.5 -20 Q282 -3 240.5 34 Q199 71 174.5 130.5 Q150 190 150 275 L150 394 Q150 478 174.5 537 Q199 596 241 633.5 Q283 671 338.5 688.5 Q394 706 455 706 Z M455 80 Q492 80 524 89.5 Q556 99 580 123 Q604 147 617.5 188 Q631 229 631 291 L631 378 Q631 440 617.5 481 Q604 522 580 546 Q556 570 524 579.5 Q492 589 455 589 Q419 589 387 579.5 Q355 570 331 546 Q307 522 293 481 Q279 440 279 378 L279 291 Q279 229 293 188 Q307 147 331 123 Q355 99 387 89.5 Q419 80 455 80 Z " />
<glyph glyph-name="uniFF30" unicode="&#xff30;" horiz-adv-x="910" d="M195 695 L467 695 Q532 695 578.5 679.5 Q625 664 655 636.5 Q685 609 699.5 571 Q714 533 714 489 L714 468 Q714 424 699 384.5 Q684 345 653 315.5 Q622 286 576 268.5 Q530 251 467 251 L323 251 L323 -26 L195 -26 L195 695 Z M323 588 L323 359 L450 359 Q513 359 549 383 Q585 407 585 470 L585 488 Q585 518 576 537 Q567 556 550.5 567.5 Q534 579 511 583.5 Q488 588 461 588 L323 588 Z " />
<glyph glyph-name="uniFF31" unicode="&#xff31;" horiz-adv-x="910" d="M445 706 Q506 706 561.5 688.5 Q617 671 659 633.5 Q701 596 725.5 537 Q750 478 750 394 L750 275 Q750 203 733 151 Q716 99 686 61 L769 -21 L696 -96 L603 -4 Q568 -21 528 -29 Q488 -37 445 -37 Q383 -37 327.5 -20 Q272 -3 230.5 34 Q189 71 164.5 130.5 Q140 190 140 275 L140 394 Q140 478 164.5 537 Q189 596 231 633.5 Q273 671 328.5 688.5 Q384 706 445 706 Z M445 80 Q462 80 478.5 81.5 Q495 83 510 88 L425 173 L498 248 L592 154 Q606 178 613.5 211.5 Q621 245 621 291 L621 378 Q621 440 607.5 481 Q594 522 570 546 Q546 570 514 579.5 Q482 589 445 589 Q409 589 377 579.5 Q345 570 321 546 Q297 522 283 481 Q269 440 269 378 L269 291 Q269 229 283 188 Q297 147 321 123 Q345 99 377 89.5 Q409 80 445 80 Z " />
<glyph glyph-name="uniFF32" unicode="&#xff32;" horiz-adv-x="910" d="M462 263 L315 263 L315 -26 L187 -26 L187 695 L460 695 Q516 695 559.5 680 Q603 665 632.5 639 Q662 613 677.5 576.5 Q693 540 693 497 L693 460 Q693 403 665 357.5 Q637 312 581 287 Q617 208 651.5 130.5 Q686 53 722 -26 L583 -26 L462 263 Z M315 588 L315 370 L433 370 Q507 370 536.5 396 Q566 422 566 463 L566 493 Q566 535 538 561.5 Q510 588 444 588 L315 588 Z " />
<glyph glyph-name="uniFF33" unicode="&#xff33;" horiz-adv-x="910" d="M457 78 Q526 78 557 102.5 Q588 127 588 164 L588 175 Q588 219 555.5 240.5 Q523 262 461 276 Q416 286 370.5 297 Q325 308 288.5 330 Q252 352 229 389.5 Q206 427 206 490 L206 503 Q206 536 219 571.5 Q232 607 262 637 Q292 667 341.5 686.5 Q391 706 464 706 Q524 706 579 693.5 Q634 681 689 646 L629 547 Q585 575 547 583.5 Q509 592 466 592 Q432 592 407 584 Q382 576 365.5 563 Q349 550 341 535 Q333 520 333 505 L333 493 Q333 467 345.5 451 Q358 435 379 424.5 Q400 414 428.5 407.5 Q457 401 489 394 Q553 380 596.5 359.5 Q640 339 666.5 313 Q693 287 704.5 255.5 Q716 224 716 187 L716 174 Q716 114 694.5 73.5 Q673 33 636 8.5 Q599 -16 551 -26.5 Q503 -37 451 -37 Q412 -37 374.5 -30.5 Q337 -24 304 -13 Q271 -2 242.5 13.5 Q214 29 193 46 L255 148 Q288 120 340 99 Q392 78 457 78 Z " />
<glyph glyph-name="uniFF34" unicode="&#xff34;" horiz-adv-x="910" d="M730 695 L730 587 L519 587 L519 -26 L391 -26 L391 587 L179 587 L179 695 L730 695 Z " />
<glyph glyph-name="uniFF35" unicode="&#xff35;" horiz-adv-x="910" d="M455 79 Q494 79 523 88.5 Q552 98 570.5 120.5 Q589 143 598 179.5 Q607 216 607 269 L607 695 L735 695 L735 271 Q735 182 716.5 123 Q698 64 662.5 28.5 Q627 -7 575 -22 Q523 -37 455 -37 Q387 -37 335 -22 Q283 -7 247.5 28.5 Q212 64 193.5 123 Q175 182 175 271 L175 695 L303 695 L303 269 Q303 216 312 179.5 Q321 143 339.5 120.5 Q358 98 387 88.5 Q416 79 455 79 Z " />
<glyph glyph-name="uniFF36" unicode="&#xff36;" horiz-adv-x="910" d="M129 695 L266 695 L455 131 L651 695 L781 695 L509 -26 L394 -26 L129 695 Z " />
<glyph glyph-name="uniFF37" unicode="&#xff37;" horiz-adv-x="910" d="M-14 695 L119 695 L251 160 L397 695 L520 695 L665 161 L802 695 L925 695 L726 -26 L604 -26 L458 529 L306 -26 L182 -26 L-14 695 Z " />
<glyph glyph-name="uniFF38" unicode="&#xff38;" horiz-adv-x="910" d="M539 344 L763 -26 L615 -26 L450 265 L290 -26 L146 -26 L369 351 L164 695 L318 695 L462 429 L611 695 L754 695 L539 344 Z " />
<glyph glyph-name="uniFF39" unicode="&#xff39;" horiz-adv-x="910" d="M519 259 L519 -26 L391 -26 L391 259 L144 695 L287 695 L458 377 L626 695 L766 695 L519 259 Z " />
<glyph glyph-name="uniFF3A" unicode="&#xff3a;" horiz-adv-x="910" d="M722 598 L327 84 L741 84 L741 -26 L169 -26 L169 79 L559 585 L193 585 L193 695 L722 695 L722 598 Z " />
<glyph glyph-name="uniFF3B" unicode="&#xff3b;" horiz-adv-x="910" d="M868 -170 L575 -170 L575 766 L868 766 L868 656 L704 656 L704 -60 L868 -60 L868 -170 Z " />
<glyph glyph-name="uniFFE6" unicode="&#xffe6;" horiz-adv-x="910" d="M6 398 L112 398 L38 695 L165 695 L229 398 L334 398 L412 695 L523 695 L593 398 L689 398 L749 695 L874 695 L801 398 L904 398 L904 327 L784 327 L700 -26 L590 -26 L509 327 L413 327 L324 -26 L218 -26 L130 327 L6 327 L6 398 Z M275 169 L317 327 L243 327 L275 169 Z M646 163 L675 327 L608 327 L646 163 Z M431 398 L493 398 L465 530 L431 398 Z " />
<glyph glyph-name="uniFF3D" unicode="&#xff3d;" horiz-adv-x="910" d="M42 -60 L206 -60 L206 656 L42 656 L42 766 L335 766 L335 -170 L42 -170 L42 -60 Z " />
<glyph glyph-name="uniFF3E" unicode="&#xff3e;" horiz-adv-x="910" d="M557 401 L455 625 L353 401 L235 401 L397 724 L514 724 L675 401 L557 401 Z " />
<glyph glyph-name="uniFF3F" unicode="&#xff3f;" horiz-adv-x="910" d="M715 -150 L195 -150 L195 -75 L715 -75 L715 -150 Z " />
<glyph glyph-name="uniFF40" unicode="&#xff40;" horiz-adv-x="910" d="M481 562 L333 717 L482 717 L595 562 L481 562 Z " />
<glyph glyph-name="uniFF41" unicode="&#xff41;" horiz-adv-x="910" d="M412 -34 Q323 -34 274 6.5 Q225 47 225 120 L225 152 Q225 186 235.5 214.5 Q246 243 270.5 264 Q295 285 335 297 Q375 309 433 309 L559 309 L559 330 Q559 381 535.5 403.5 Q512 426 461 426 Q375 426 305 371 L243 463 Q285 492 338 514.5 Q391 537 462 537 Q510 537 551 525 Q592 513 621.5 490.5 Q651 468 667.5 435.5 Q684 403 684 361 L684 -26 L571 -26 L569 42 Q561 24 543.5 9.5 Q526 -5 504 -14.5 Q482 -24 458 -29 Q434 -34 412 -34 Z M559 211 L436 211 Q386 211 366.5 192 Q347 173 347 141 L347 129 Q347 102 366 87 Q385 72 422 72 Q499 72 536 109 Q553 126 556 145.5 Q559 165 559 196 L559 211 Z " />
<glyph glyph-name="uniFF42" unicode="&#xff42;" horiz-adv-x="910" d="M329 38 L329 -26 L209 -26 L209 730 L335 730 L335 471 Q348 490 367.5 503 Q387 516 407.5 523.5 Q428 531 448.5 534 Q469 537 486 537 Q539 537 579.5 520.5 Q620 504 647 473 Q674 442 687.5 399 Q701 356 701 302 L701 205 Q701 149 685 104.5 Q669 60 640 29.5 Q611 -1 570.5 -17.5 Q530 -34 480 -34 Q425 -34 388 -14 Q351 6 332 38 L329 38 Z M576 282 Q576 352 549 390.5 Q522 429 461 429 Q398 429 365.5 392.5 Q333 356 333 299 L333 182 Q333 163 343 143.5 Q353 124 370 108.5 Q387 93 411 83 Q435 73 464 73 Q519 73 547.5 111.5 Q576 150 576 219 L576 282 Z " />
<glyph glyph-name="uniFF43" unicode="&#xff43;" horiz-adv-x="910" d="M473 537 Q512 537 542 531.5 Q572 526 596 517 Q620 508 639 496 Q658 484 674 472 L613 380 Q579 407 545.5 417 Q512 427 473 427 Q449 427 427 419.5 Q405 412 388 395.5 Q371 379 361 352.5 Q351 326 351 288 L351 221 Q351 179 362.5 151 Q374 123 392 106.5 Q410 90 432 83.5 Q454 77 475 77 Q527 77 561.5 89.5 Q596 102 625 124 L685 32 Q657 6 603 -14 Q549 -34 474 -34 Q352 -34 288 33.5 Q224 101 224 219 L224 288 Q224 406 290.5 471.5 Q357 537 473 537 Z " />
<glyph glyph-name="uniFF44" unicode="&#xff44;" horiz-adv-x="910" d="M581 39 L578 39 Q556 -1 513 -17.5 Q470 -34 420 -34 Q314 -34 261.5 27.5 Q209 89 209 201 L209 298 Q209 354 224.5 398.5 Q240 443 269 473.5 Q298 504 338.5 520.5 Q379 537 429 537 Q462 537 486.5 531 Q511 525 528.5 516.5 Q546 508 557 497.5 Q568 487 574 478 L574 730 L700 730 L700 -26 L581 -26 L581 39 Z M333 220 Q333 150 361.5 111.5 Q390 73 445 73 Q476 73 500.5 83.5 Q525 94 541.5 112.5 Q558 131 567 155.5 Q576 180 576 208 L576 320 Q576 339 568.5 358.5 Q561 378 545.5 393.5 Q530 409 506.5 419 Q483 429 450 429 Q390 429 361.5 390 Q333 351 333 282 L333 220 Z " />
<glyph glyph-name="uniFF45" unicode="&#xff45;" horiz-adv-x="910" d="M580 299 L580 323 Q580 345 573.5 365 Q567 385 552 400 Q537 415 514 424 Q491 433 458 433 Q395 433 363.5 400 Q332 367 332 320 L332 299 L580 299 Z M687 25 Q647 -2 593 -18 Q539 -34 461 -34 Q413 -34 368 -21.5 Q323 -9 287.5 20.5 Q252 50 230.5 99.5 Q209 149 209 223 L209 280 Q209 347 228.5 395.5 Q248 444 282 475.5 Q316 507 361.5 522 Q407 537 460 537 Q512 537 556.5 522 Q601 507 633 476.5 Q665 446 683 400.5 Q701 355 701 295 L701 204 L332 204 Q332 138 367 104.5 Q402 71 468 71 Q517 71 555 81.5 Q593 92 635 116 L687 25 Z " />
<glyph glyph-name="uniFF46" unicode="&#xff46;" horiz-adv-x="910" d="M357 422 L269 422 L269 525 L357 525 L357 563 Q357 646 401.5 691 Q446 736 537 736 Q568 736 596 731 Q624 726 641 720 L621 619 Q591 629 549 629 Q483 629 483 560 L483 525 L622 525 L622 422 L483 422 L483 -26 L357 -26 L357 422 Z " />
<glyph glyph-name="uniFF47" unicode="&#xff47;" horiz-adv-x="910" d="M576 48 L574 48 Q552 8 511 -8 Q470 -24 420 -24 Q314 -24 261.5 37.5 Q209 99 209 211 L209 298 Q209 353 224.5 397.5 Q240 442 269 473 Q298 504 338.5 520.5 Q379 537 429 537 Q461 537 486 531 Q511 525 529.5 516 Q548 507 560 496.5 Q572 486 578 477 L579 477 L579 525 L700 525 L700 -21 Q700 -136 637 -192.5 Q574 -249 438 -249 Q386 -249 334.5 -232 Q283 -215 249 -189 L306 -91 Q314 -98 329 -106.5 Q344 -115 362 -122 Q380 -129 400 -133.5 Q420 -138 440 -138 Q507 -138 541.5 -109.5 Q576 -81 576 -20 L576 48 Z M333 230 Q333 160 361.5 121.5 Q390 83 445 83 Q476 83 500.5 93.5 Q525 104 541.5 122.5 Q558 141 567 165.5 Q576 190 576 218 L576 320 Q576 339 568.5 358.5 Q561 378 545.5 393.5 Q530 409 506.5 419 Q483 429 450 429 Q390 429 361.5 390 Q333 351 333 282 L333 230 Z " />
<glyph glyph-name="uniFF48" unicode="&#xff48;" horiz-adv-x="910" d="M501 537 Q538 537 572.5 526 Q607 515 634 490.5 Q661 466 677 427 Q693 388 693 333 L693 -26 L567 -26 L567 306 Q567 427 462 427 Q447 427 426.5 422.5 Q406 418 387.5 404.5 Q369 391 356 366 Q343 341 343 300 L343 -26 L217 -26 L217 730 L336 730 L336 462 L338 462 Q367 504 409.5 520.5 Q452 537 501 537 Z " />
<glyph glyph-name="uniFF49" unicode="&#xff49;" horiz-adv-x="910" d="M392 525 L518 525 L518 -26 L392 -26 L392 525 Z M389 742 L521 742 L521 606 L389 606 L389 742 Z " />
<glyph glyph-name="uniFF4A" unicode="&#xff4a;" horiz-adv-x="910" d="M466 742 L598 742 L598 606 L466 606 L466 742 Z M595 -76 Q595 -115 585.5 -146.5 Q576 -178 555.5 -201 Q535 -224 501.5 -236.5 Q468 -249 420 -249 Q389 -249 358.5 -244.5 Q328 -240 311 -234 L331 -132 Q353 -138 369.5 -140 Q386 -142 403 -142 Q438 -142 453.5 -126.5 Q469 -111 469 -71 L469 525 L595 525 L595 -76 Z " />
<glyph glyph-name="uniFF4B" unicode="&#xff4b;" horiz-adv-x="910" d="M482 297 L705 -26 L544 -26 L394 208 L331 138 L331 -26 L205 -26 L205 730 L331 730 L331 292 L537 525 L696 525 L482 297 Z " />
<glyph glyph-name="uniFF4C" unicode="&#xff4c;" horiz-adv-x="910" d="M392 730 L518 730 L518 -26 L392 -26 L392 730 Z " />
<glyph glyph-name="uniFF4D" unicode="&#xff4d;" horiz-adv-x="910" d="M655 537 Q693 537 727.5 524 Q762 511 788 485 Q814 459 829.5 420 Q845 381 845 329 L845 -26 L719 -26 L719 303 Q719 340 711 364 Q703 388 689 401.5 Q675 415 657 420 Q639 425 619 425 Q601 425 582.5 419.5 Q564 414 550 400.5 Q536 387 527 364 Q518 341 518 307 L518 -26 L392 -26 L392 305 Q392 340 384 363 Q376 386 362.5 400 Q349 414 331 419.5 Q313 425 292 425 Q247 425 219 397 Q191 369 191 312 L191 -26 L65 -26 L65 525 L184 525 L184 455 L186 455 Q206 493 244.5 515 Q283 537 337 537 Q388 537 428.5 514 Q469 491 484 453 Q513 495 552.5 516 Q592 537 655 537 Z " />
<glyph glyph-name="uniFF4E" unicode="&#xff4e;" horiz-adv-x="910" d="M501 537 Q538 537 572.5 526 Q607 515 634 490.5 Q661 466 677 427 Q693 388 693 333 L693 -26 L567 -26 L567 306 Q567 427 462 427 Q447 427 426.5 422.5 Q406 418 387.5 404.5 Q369 391 356 366 Q343 341 343 300 L343 -26 L217 -26 L217 525 L336 525 L336 462 L338 462 Q367 504 409.5 520.5 Q452 537 501 537 Z " />
<glyph glyph-name="uniFF4F" unicode="&#xff4f;" horiz-adv-x="910" d="M455 76 Q483 76 507 84 Q531 92 548.5 109 Q566 126 576 154 Q586 182 586 221 L586 282 Q586 361 550.5 394 Q515 427 455 427 Q395 427 359.5 394 Q324 361 324 282 L324 221 Q324 182 334 154 Q344 126 361.5 109 Q379 92 403 84 Q427 76 455 76 Z M455 -34 Q396 -34 348.5 -17 Q301 0 267.5 32 Q234 64 215.5 111.5 Q197 159 197 219 L197 284 Q197 345 215.5 392 Q234 439 267.5 471 Q301 503 348.5 520 Q396 537 455 537 Q513 537 561 520 Q609 503 642.5 471 Q676 439 694.5 392 Q713 345 713 284 L713 219 Q713 159 694.5 111.5 Q676 64 642.5 32 Q609 0 561 -17 Q513 -34 455 -34 Z " />
<glyph glyph-name="uniFF50" unicode="&#xff50;" horiz-adv-x="910" d="M479 -34 Q429 -34 393 -16.5 Q357 1 335 30 L335 -240 L209 -240 L209 525 L330 525 L330 465 Q344 486 363 500 Q382 514 402.5 522 Q423 530 444.5 533.5 Q466 537 485 537 Q539 537 579.5 520 Q620 503 647 472.5 Q674 442 687.5 398.5 Q701 355 701 302 L701 205 Q701 149 685.5 105 Q670 61 641 30 Q612 -1 571 -17.5 Q530 -34 479 -34 Z M576 282 Q576 352 549 390.5 Q522 429 461 429 Q398 429 365.5 392.5 Q333 356 333 299 L333 182 Q333 163 343 143.5 Q353 124 370 108.5 Q387 93 411 83 Q435 73 464 73 Q519 73 547.5 111.5 Q576 150 576 219 L576 282 Z " />
<glyph glyph-name="uniFF51" unicode="&#xff51;" horiz-adv-x="910" d="M576 38 L573 38 Q551 -2 510.5 -18 Q470 -34 420 -34 Q314 -34 261.5 27.5 Q209 89 209 201 L209 298 Q209 354 224.5 398.5 Q240 443 269 473.5 Q298 504 338.5 520.5 Q379 537 429 537 Q460 537 484.5 531 Q509 525 527 516.5 Q545 508 557 497.5 Q569 487 576 478 L578 478 L578 525 L700 525 L700 -240 L576 -240 L576 38 Z M333 220 Q333 150 361.5 111.5 Q390 73 445 73 Q476 73 500.5 83.5 Q525 94 541.5 112.5 Q558 131 567 155.5 Q576 180 576 208 L576 320 Q576 339 568.5 358.5 Q561 378 545.5 393.5 Q530 409 506.5 419 Q483 429 450 429 Q390 429 361.5 390 Q333 351 333 282 L333 220 Z " />
<glyph glyph-name="uniFF52" unicode="&#xff52;" horiz-adv-x="910" d="M596 412 Q582 418 566 421 Q550 424 526 424 Q500 424 477.5 415 Q455 406 438.5 389.5 Q422 373 412.5 350.5 Q403 328 403 301 L403 -26 L277 -26 L277 529 L398 529 L398 445 L400 445 Q422 487 458.5 512 Q495 537 554 537 Q575 537 596 534 Q617 531 632 526 L596 412 Z " />
<glyph glyph-name="uniFF53" unicode="&#xff53;" horiz-adv-x="910" d="M458 73 Q501 73 526.5 84.5 Q552 96 552 128 L552 134 Q552 148 548.5 157.5 Q545 167 533 174 Q521 181 498.5 187 Q476 193 437 201 Q387 211 351.5 224.5 Q316 238 293.5 258 Q271 278 260.5 306 Q250 334 250 373 L250 383 Q250 411 261.5 438.5 Q273 466 298.5 488 Q324 510 364.5 523.5 Q405 537 463 537 Q511 537 564.5 528 Q618 519 666 487 L612 396 Q584 415 549.5 423 Q515 431 479 431 Q420 431 398 417.5 Q376 404 376 382 L376 376 Q376 361 380 352 Q384 343 395 336.5 Q406 330 426 325 Q446 320 478 314 Q530 303 568.5 291 Q607 279 631.5 259.5 Q656 240 668 210.5 Q680 181 680 137 L680 126 Q680 94 665.5 65 Q651 36 623 14 Q595 -8 554 -21 Q513 -34 461 -34 Q392 -34 330.5 -16 Q269 2 229 34 L285 130 Q322 105 364 89 Q406 73 458 73 Z " />
<glyph glyph-name="uniFF54" unicode="&#xff54;" horiz-adv-x="910" d="M360 421 L272 421 L272 525 L360 525 L360 666 L486 666 L486 525 L625 525 L625 421 L486 421 L486 131 Q486 96 500.5 85 Q515 74 540 74 Q559 74 577.5 77.5 Q596 81 618 90 L638 -11 Q621 -19 591.5 -26.5 Q562 -34 525 -34 Q478 -34 446 -23 Q414 -12 395 9 Q376 30 368 60.5 Q360 91 360 130 L360 421 Z " />
<glyph glyph-name="uniFF55" unicode="&#xff55;" horiz-adv-x="910" d="M409 -35 Q322 -35 270 16.5 Q218 68 218 169 L218 525 L344 525 L344 196 Q344 160 352 136.5 Q360 113 374 99.5 Q388 86 407 80.5 Q426 75 448 75 Q467 75 487.5 81 Q508 87 525 102 Q542 117 553.5 142 Q565 167 565 204 L565 525 L691 525 L691 -26 L571 -26 L571 40 L569 40 Q557 20 539 6 Q521 -8 499.5 -17 Q478 -26 454.5 -30.5 Q431 -35 409 -35 Z " />
<glyph glyph-name="uniFF56" unicode="&#xff56;" horiz-adv-x="910" d="M373 -26 L193 526 L331 526 L456 92 L460 92 L586 526 L717 526 L537 -26 L373 -26 Z " />
<glyph glyph-name="uniFF57" unicode="&#xff57;" horiz-adv-x="910" d="M216 -26 L79 525 L214 525 L295 98 L299 98 L399 525 L518 525 L613 98 L617 98 L705 525 L831 525 L695 -26 L548 -26 L458 362 L454 362 L363 -26 L216 -26 Z " />
<glyph glyph-name="uniFF58" unicode="&#xff58;" horiz-adv-x="910" d="M536 260 L710 -26 L560 -26 L451 175 L341 -26 L199 -26 L377 260 L206 525 L357 525 L460 341 L566 525 L705 525 L536 260 Z " />
<glyph glyph-name="uniFF59" unicode="&#xff59;" horiz-adv-x="910" d="M330 525 L455 118 L459 118 L585 525 L719 525 L433 -255 L315 -214 L386 -33 L190 525 L330 525 Z " />
<glyph glyph-name="uniFF5A" unicode="&#xff5a;" horiz-adv-x="910" d="M665 425 L395 84 L681 84 L681 -26 L229 -26 L229 60 L511 415 L249 415 L249 525 L665 525 L665 425 Z " />
<glyph glyph-name="uniFF5B" unicode="&#xff5b;" horiz-adv-x="910" d="M473 360 Q528 361 553.5 377.5 Q579 394 579 437 L579 615 Q579 689 624.5 727.5 Q670 766 747 766 L868 766 L868 655 L770 655 Q749 655 736.5 650 Q724 645 717.5 634.5 Q711 624 709.5 606 Q708 588 708 563 L708 430 Q708 412 704 393 Q700 374 690 357 Q680 340 663 326.5 Q646 313 620 307 Q645 301 662 288.5 Q679 276 689.5 259 Q700 242 704 222.5 Q708 203 708 184 L708 25 Q708 -1 710 -17 Q712 -33 718.5 -42.5 Q725 -52 737 -55.5 Q749 -59 770 -59 L868 -59 L868 -170 L747 -170 Q670 -170 624.5 -135 Q579 -100 579 -27 L579 176 Q579 220 553.5 237 Q528 254 473 255 L473 360 Z " />
<glyph glyph-name="uniFF5C" unicode="&#xff5c;" horiz-adv-x="910" d="M519 -170 L392 -170 L392 765 L519 765 L519 -170 Z " />
<glyph glyph-name="uniFF5D" unicode="&#xff5d;" horiz-adv-x="910" d="M437 255 Q382 254 356.5 237 Q331 220 331 176 L331 -27 Q331 -100 285.5 -135 Q240 -170 163 -170 L42 -170 L42 -59 L140 -59 Q161 -59 173 -55.5 Q185 -52 191.5 -42.5 Q198 -33 200 -17 Q202 -1 202 25 L202 184 Q202 203 206 222.5 Q210 242 220.5 259 Q231 276 247.5 288.5 Q264 301 290 307 Q264 313 247 326.5 Q230 340 220 357 Q210 374 206 393 Q202 412 202 430 L202 563 Q202 588 200.5 606 Q199 624 192.5 634.5 Q186 645 173.5 650 Q161 655 140 655 L42 655 L42 766 L163 766 Q240 766 285.5 727.5 Q331 689 331 615 L331 437 Q331 394 356.5 377.5 Q382 361 437 360 L437 255 Z " />
<glyph glyph-name="&amp;#x203e;" unicode="&#x203e;" horiz-adv-x="910" d="M905 723 L5 723 L5 762 L905 762 L905 723 Z " />
<glyph glyph-name="&amp;#xffe3;" unicode="&#xffe3;" horiz-adv-x="910" d="M905 723 L5 723 L5 762 L905 762 L905 723 Z " />
<glyph glyph-name="uni3131" unicode="&#x3131;" horiz-adv-x="910" d="M616 56 L616 443 L138 443 L138 550 L742 550 L742 56 L616 56 Z " />
<glyph glyph-name="uni3132" unicode="&#x3132;" horiz-adv-x="910" d="M303 56 L303 443 L99 443 L99 550 L429 550 L429 56 L303 56 Z M659 56 L659 443 L467 443 L467 550 L785 550 L785 56 L659 56 Z " />
<glyph glyph-name="uni3133" unicode="&#x3133;" horiz-adv-x="910" d="M301 56 L301 439 L120 439 L120 546 L427 546 L427 56 L301 56 Z M657 214 Q653 206 644.5 192.5 Q636 179 620 159 Q598 131 572 101 Q546 71 514 37 L432 116 Q466 152 493.5 184 Q521 216 550 256 Q563 273 571 288.5 Q579 304 584 320.5 Q589 337 591 356 Q593 375 593 400 L593 555 L719 555 L719 400 Q719 375 721 356 Q723 337 728 320.5 Q733 304 741 288.5 Q749 273 762 256 Q791 216 818.5 184 Q846 152 880 116 L800 39 Q768 73 742.5 102.5 Q717 132 695 160 Q679 180 670.5 193 Q662 206 658 214 L657 214 Z " />
<glyph glyph-name="uni3134" unicode="&#x3134;" horiz-adv-x="910" d="M294 557 L294 163 L762 163 L762 56 L168 56 L168 557 L294 557 Z " />
<glyph glyph-name="uni3135" unicode="&#x3135;" horiz-adv-x="910" d="M260 153 Q295 153 333 155.5 Q371 158 408 163 L412 124 Q439 156 461 184.5 Q483 213 504 244 Q519 266 528 283.5 Q537 301 542.5 318 Q548 335 549.5 354 Q551 373 551 397 L551 447 L431 447 L431 554 L795 554 L795 447 L676 447 L676 397 Q676 373 678 354 Q680 335 685 318 Q690 301 699 283.5 Q708 266 723 244 Q746 211 771 178.5 Q796 146 828 109 L742 38 Q716 67 693 97.5 Q670 128 652 154 Q632 183 625.5 195.5 Q619 208 616 216 L615 216 Q612 208 604.5 194.5 Q597 181 577 152 Q559 126 536 95.5 Q513 65 487 36 L415 95 L419 59 Q384 53 338 50 Q292 47 242 47 L134 47 L134 548 L260 548 L260 153 Z " />
<glyph glyph-name="uni3136" unicode="&#x3136;" horiz-adv-x="910" d="M257 153 Q298 153 335.5 155.5 Q373 158 418 163 L429 59 Q394 53 348 50 Q302 47 252 47 L134 47 L134 548 L257 548 L257 153 Z M673 500 L807 500 L807 403 L415 403 L415 500 L553 500 L553 579 L673 579 L673 500 Z M613 29 Q571 29 539 41.5 Q507 54 485.5 74.5 Q464 95 453.5 122 Q443 149 443 178 L443 224 Q443 253 453.5 280 Q464 307 485.5 327.5 Q507 348 539 360.5 Q571 373 613 373 Q655 373 687 360.5 Q719 348 740.5 327.5 Q762 307 772.5 280 Q783 253 783 224 L783 178 Q783 149 772.5 122 Q762 95 740.5 74.5 Q719 54 687 41.5 Q655 29 613 29 Z M613 281 Q596 281 584 274.5 Q572 268 564 258 Q556 248 552 236 Q548 224 548 212 L548 190 Q548 178 552 166 Q556 154 564 144 Q572 134 584 127.5 Q596 121 613 121 Q630 121 642 127.5 Q654 134 662 144 Q670 154 674 166 Q678 178 678 190 L678 212 Q678 224 674 236 Q670 248 662 258 Q654 268 642 274.5 Q630 281 613 281 Z " />
<glyph glyph-name="uni3137" unicode="&#x3137;" horiz-adv-x="910" d="M158 54 L158 552 L754 552 L754 445 L284 445 L284 161 L760 161 L760 54 L158 54 Z " />
<glyph glyph-name="uni3138" unicode="&#x3138;" horiz-adv-x="910" d="M479 54 L479 552 L785 552 L785 445 L605 445 L605 161 L788 161 L788 54 L479 54 Z M143 54 L143 552 L432 552 L432 445 L269 445 L269 161 L435 161 L435 54 L143 54 Z " />
<glyph glyph-name="uni3139" unicode="&#x3139;" horiz-adv-x="910" d="M152 46 L152 356 L633 356 L633 456 L152 456 L152 562 L758 562 L758 252 L277 252 L277 152 L771 152 L771 46 L152 46 Z " />
<glyph glyph-name="uni313A" unicode="&#x313a;" horiz-adv-x="910" d="M673 54 L673 447 L485 447 L485 554 L799 554 L799 54 L673 54 Z M132 54 L132 356 L325 356 L325 448 L132 448 L132 554 L443 554 L443 252 L250 252 L250 160 L461 160 L461 54 L132 54 Z " />
<glyph glyph-name="uni313B" unicode="&#x313b;" horiz-adv-x="910" d="M122 54 L122 356 L306 356 L306 448 L122 448 L122 554 L422 554 L422 252 L238 252 L238 160 L435 160 L435 54 L122 54 Z M684 447 L588 447 L588 161 L684 161 L684 447 Z M474 54 L474 554 L798 554 L798 54 L474 54 Z " />
<glyph glyph-name="uni313C" unicode="&#x313c;" horiz-adv-x="910" d="M684 289 L588 289 L588 161 L684 161 L684 289 Z M474 54 L474 554 L588 554 L588 395 L684 395 L684 554 L798 554 L798 54 L474 54 Z M122 54 L122 356 L306 356 L306 448 L122 448 L122 554 L422 554 L422 252 L238 252 L238 160 L435 160 L435 54 L122 54 Z " />
<glyph glyph-name="uni313D" unicode="&#x313d;" horiz-adv-x="910" d="M122 54 L122 356 L304 356 L304 448 L122 448 L122 554 L422 554 L422 252 L240 252 L240 160 L435 160 L435 137 Q461 166 484.5 194 Q508 222 533 256 Q546 273 554 288.5 Q562 304 567 320.5 Q572 337 574 356 Q576 375 576 400 L576 555 L702 555 L702 400 Q702 375 704 356 Q706 337 711 320.5 Q716 304 724 288.5 Q732 273 745 256 Q774 216 801.5 184 Q829 152 863 116 L783 39 Q751 73 725.5 102.5 Q700 132 678 160 Q662 180 653.5 193 Q645 206 641 214 L640 214 Q636 206 627.5 192.5 Q619 179 603 159 Q581 131 555 101 Q529 71 497 37 L435 96 L435 54 L122 54 Z " />
<glyph glyph-name="uni313E" unicode="&#x313e;" horiz-adv-x="910" d="M474 54 L474 554 L782 554 L782 448 L591 448 L591 356 L772 356 L772 252 L591 252 L591 160 L787 160 L787 54 L474 54 Z M122 54 L122 356 L306 356 L306 448 L122 448 L122 554 L422 554 L422 252 L238 252 L238 160 L435 160 L435 54 L122 54 Z " />
<glyph glyph-name="uni313F" unicode="&#x313f;" horiz-adv-x="910" d="M799 54 L453 54 L453 159 L496 159 L496 449 L458 449 L458 554 L794 554 L794 449 L756 449 L756 159 L799 159 L799 54 Z M118 54 L118 356 L300 356 L300 448 L118 448 L118 554 L414 554 L414 252 L232 252 L232 160 L427 160 L427 54 L118 54 Z M603 159 L649 159 L649 449 L603 449 L603 159 Z " />
<glyph glyph-name="uni3140" unicode="&#x3140;" horiz-adv-x="910" d="M113 54 L113 356 L287 356 L287 448 L113 448 L113 554 L403 554 L403 252 L229 252 L229 160 L416 160 L416 54 L113 54 Z M685 500 L816 500 L816 403 L434 403 L434 500 L565 500 L565 579 L685 579 L685 500 Z M625 29 Q583 29 551 41.5 Q519 54 497.5 74.5 Q476 95 465.5 122 Q455 149 455 178 L455 224 Q455 253 465.5 280 Q476 307 497.5 327.5 Q519 348 551 360.5 Q583 373 625 373 Q667 373 699 360.5 Q731 348 752.5 327.5 Q774 307 784.5 280 Q795 253 795 224 L795 178 Q795 149 784.5 122 Q774 95 752.5 74.5 Q731 54 699 41.5 Q667 29 625 29 Z M625 281 Q608 281 596 274.5 Q584 268 576 258 Q568 248 564 236 Q560 224 560 212 L560 190 Q560 178 564 166 Q568 154 576 144 Q584 134 596 127.5 Q608 121 625 121 Q642 121 654 127.5 Q666 134 674 144 Q682 154 686 166 Q690 178 690 190 L690 212 Q690 224 686 236 Q682 248 674 258 Q666 268 654 274.5 Q642 281 625 281 Z " />
<glyph glyph-name="uni3141" unicode="&#x3141;" horiz-adv-x="910" d="M631 447 L279 447 L279 161 L631 161 L631 447 Z M153 54 L153 554 L757 554 L757 54 L153 54 Z " />
<glyph glyph-name="uni3142" unicode="&#x3142;" horiz-adv-x="910" d="M631 289 L279 289 L279 160 L631 160 L631 289 Z M153 53 L153 560 L279 560 L279 396 L631 396 L631 560 L757 560 L757 53 L153 53 Z " />
<glyph glyph-name="uni3143" unicode="&#x3143;" horiz-adv-x="910" d="M431 53 L123 53 L123 560 L235 560 L235 396 L319 396 L319 560 L431 560 L431 53 Z M787 53 L479 53 L479 560 L591 560 L591 396 L675 396 L675 560 L787 560 L787 53 Z M591 158 L675 158 L675 290 L591 290 L591 158 Z M235 158 L319 158 L319 290 L235 290 L235 158 Z " />
<glyph glyph-name="uni3144" unicode="&#x3144;" horiz-adv-x="910" d="M640 214 Q636 206 627.5 192.5 Q619 179 603 159 Q581 131 555 101 Q529 71 497 37 L432 99 L432 53 L114 53 L114 560 L226 560 L226 396 L320 396 L320 560 L432 560 L432 134 Q460 164 483.5 192.5 Q507 221 533 256 Q546 273 554 288.5 Q562 304 567 320.5 Q572 337 574 356 Q576 375 576 400 L576 560 L702 560 L702 400 Q702 375 704 356 Q706 337 711 320.5 Q716 304 724 288.5 Q732 273 745 256 Q774 216 801.5 184 Q829 152 863 116 L783 39 Q751 73 725.5 102.5 Q700 132 678 160 Q662 180 653.5 193 Q645 206 641 214 L640 214 Z M226 158 L320 158 L320 290 L226 290 L226 158 Z " />
<glyph glyph-name="uni3145" unicode="&#x3145;" horiz-adv-x="910" d="M519 449 Q519 419 523 395 Q527 371 537.5 350.5 Q548 330 567 310 Q586 290 616 267 Q661 233 707 201.5 Q753 170 804 138 L738 44 Q686 77 636.5 111 Q587 145 546 176 Q513 201 488 223 Q463 245 458 256 L457 256 Q453 245 426 221.5 Q399 198 366 173 Q325 142 275.5 108 Q226 74 174 41 L106 138 Q157 170 203 201.5 Q249 233 294 267 Q324 290 343 310 Q362 330 372.5 350.5 Q383 371 387 395 Q391 419 391 449 L391 568 L519 568 L519 449 Z " />
<glyph glyph-name="uni3146" unicode="&#x3146;" horiz-adv-x="910" d="M686 572 L686 408 Q686 381 688.5 359 Q691 337 698.5 317.5 Q706 298 718.5 278.5 Q731 259 752 236 Q772 213 805.5 181 Q839 149 870 120 L795 39 Q764 66 736 93 Q708 120 685 143 Q665 163 649.5 180.5 Q634 198 626 211 L625 211 Q618 200 600.5 180.5 Q583 161 563 141 Q539 117 510 89 Q481 61 455 38 Q429 62 400 89.5 Q371 117 347 141 Q327 161 309.5 180.5 Q292 200 285 211 L284 211 Q276 198 260.5 180.5 Q245 163 225 143 Q202 120 174 93 Q146 66 115 39 L40 120 Q71 149 104.5 181 Q138 213 158 236 Q179 259 191.5 278.5 Q204 298 211.5 317.5 Q219 337 221.5 359 Q224 381 224 408 L224 572 L345 572 L345 408 Q345 378 346 358 Q347 338 351.5 321.5 Q356 305 366 289.5 Q376 274 393 254 Q404 240 419.5 224 Q435 208 455 187 Q475 208 490.5 224 Q506 240 517 254 Q534 274 544 289.5 Q554 305 558.5 321.5 Q563 338 564 358 Q565 378 565 408 L565 572 L686 572 Z " />
<glyph glyph-name="uni3147" unicode="&#x3147;" horiz-adv-x="910" d="M455 47 Q389 47 333.5 65 Q278 83 238.5 114.5 Q199 146 176.5 190 Q154 234 154 285 L154 329 Q154 380 176.5 424 Q199 468 238.5 499.5 Q278 531 333.5 549 Q389 567 455 567 Q521 567 576.5 549 Q632 531 671.5 499.5 Q711 468 733.5 424 Q756 380 756 329 L756 285 Q756 234 733.5 190 Q711 146 671.5 114.5 Q632 83 576.5 65 Q521 47 455 47 Z M455 457 Q415 457 382.5 446 Q350 435 327 417 Q304 399 291.5 375 Q279 351 279 326 L279 288 Q279 262 291.5 238.5 Q304 215 327 197 Q350 179 382.5 168 Q415 157 455 157 Q495 157 527.5 168 Q560 179 583 197 Q606 215 618.5 238.5 Q631 262 631 288 L631 326 Q631 351 618.5 375 Q606 399 583 417 Q560 435 527.5 446 Q495 457 455 457 Z " />
<glyph glyph-name="uni3148" unicode="&#x3148;" horiz-adv-x="910" d="M145 561 L765 561 L765 450 L519 450 L519 436 Q519 406 522.5 383.5 Q526 361 536 341 Q546 321 565 302 Q584 283 614 261 Q661 228 706 198.5 Q751 169 804 137 L741 41 Q688 73 638 106 Q588 139 546 169 Q512 192 487 215 Q462 238 458 246 L457 246 Q454 238 431 216.5 Q408 195 366 166 Q324 136 274 103 Q224 70 171 38 L106 137 Q159 169 204 198.5 Q249 228 296 261 Q326 283 345 302 Q364 321 374 341 Q384 361 387.5 383.5 Q391 406 391 436 L391 450 L145 450 L145 561 Z " />
<glyph glyph-name="uni3149" unicode="&#x3149;" horiz-adv-x="910" d="M117 561 L793 561 L793 451 L672 451 L672 407 Q672 381 674.5 360 Q677 339 684 319.5 Q691 300 704 280.5 Q717 261 737 238 Q757 216 784 190 Q811 164 848 130 L774 50 Q749 72 727 93 Q705 114 686 133 Q658 161 639.5 181.5 Q621 202 616 212 L615 212 Q610 202 591.5 182 Q573 162 554 143 Q530 119 504 94.5 Q478 70 455 48 Q432 70 406 94.5 Q380 119 356 143 Q337 162 318.5 182 Q300 202 295 212 L294 212 Q289 202 270.5 181.5 Q252 161 224 133 Q205 114 183 93 Q161 72 136 50 L62 130 Q99 164 126 190 Q153 216 173 238 Q193 261 206 280.5 Q219 300 226 319.5 Q233 339 235.5 360 Q238 381 238 407 L238 451 L117 451 L117 561 Z M498 240 Q516 260 527.5 276 Q539 292 545.5 310 Q552 328 554.5 350.5 Q557 373 557 407 L557 451 L353 451 L353 407 Q353 373 355.5 350.5 Q358 328 364.5 310 Q371 292 382.5 276 Q394 260 412 240 Q430 220 455 197 Q480 220 498 240 Z " />
<glyph glyph-name="uni314A" unicode="&#x314a;" horiz-adv-x="910" d="M391 528 L391 637 L519 637 L519 528 L778 528 L778 418 L519 418 Q519 389 523 366.5 Q527 344 537.5 325.5 Q548 307 565.5 290.5 Q583 274 610 256 Q658 224 704 196 Q750 168 804 139 L745 41 Q691 72 640 102.5 Q589 133 546 162 Q511 185 486 205.5 Q461 226 458 234 L457 234 Q455 230 447.5 222 Q440 214 427.5 203.5 Q415 193 399.5 181.5 Q384 170 366 159 Q323 130 272 99.5 Q221 69 167 38 L106 139 Q160 168 206 196 Q252 224 300 256 Q327 274 344.5 291 Q362 308 372.5 326.5 Q383 345 387 367 Q391 389 391 418 L132 418 L132 528 L391 528 Z " />
<glyph glyph-name="uni314B" unicode="&#x314b;" horiz-adv-x="910" d="M630 48 L630 224 L135 217 L131 323 L630 330 L630 455 L151 455 L151 561 L755 561 L755 48 L630 48 Z " />
<glyph glyph-name="uni314C" unicode="&#x314c;" horiz-adv-x="910" d="M775 52 L159 52 L159 554 L767 554 L767 448 L284 448 L284 355 L756 355 L756 251 L284 251 L284 158 L775 158 L775 52 Z " />
<glyph glyph-name="uni314D" unicode="&#x314d;" horiz-adv-x="910" d="M133 552 L777 552 L777 446 L664 446 L664 159 L787 159 L787 53 L123 53 L123 159 L246 159 L246 446 L133 446 L133 552 Z M370 159 L540 159 L540 446 L370 446 L370 159 Z " />
<glyph glyph-name="uni314E" unicode="&#x314e;" horiz-adv-x="910" d="M519 530 L778 530 L778 424 L132 424 L132 530 L391 530 L391 637 L519 637 L519 530 Z M455 7 Q394 7 344 18 Q294 29 258.5 51 Q223 73 203.5 104.5 Q184 136 184 177 L184 217 Q184 258 203.5 289.5 Q223 321 258.5 343 Q294 365 344 376 Q394 387 455 387 Q516 387 566 376 Q616 365 651.5 343 Q687 321 706.5 289.5 Q726 258 726 217 L726 177 Q726 136 706.5 104.5 Q687 73 651.5 51 Q616 29 566 18 Q516 7 455 7 Z M455 285 Q381 285 342.5 264 Q304 243 304 208 L304 186 Q304 151 342.5 130 Q381 109 455 109 Q529 109 567.5 130 Q606 151 606 186 L606 208 Q606 243 567.5 264 Q529 285 455 285 Z " />
<glyph glyph-name="uni314F" unicode="&#x314f;" horiz-adv-x="910" d="M499 421 L680 421 L680 311 L499 311 L499 -144 L372 -144 L372 786 L499 786 L499 421 Z " />
<glyph glyph-name="uni3150" unicode="&#x3150;" horiz-adv-x="910" d="M625 -144 L504 -144 L504 312 L404 312 L404 -99 L283 -99 L283 767 L404 767 L404 421 L504 421 L504 786 L625 786 L625 -144 Z " />
<glyph glyph-name="uni3151" unicode="&#x3151;" horiz-adv-x="910" d="M498 529 L672 529 L672 421 L498 421 L498 305 L672 305 L672 197 L498 197 L498 -144 L372 -144 L372 786 L498 786 L498 529 Z " />
<glyph glyph-name="uni3152" unicode="&#x3152;" horiz-adv-x="910" d="M401 539 L507 539 L507 786 L625 786 L625 -144 L507 -144 L507 187 L401 187 L401 -99 L283 -99 L283 767 L401 767 L401 539 Z M401 293 L507 293 L507 433 L401 433 L401 293 Z " />
<glyph glyph-name="uni3153" unicode="&#x3153;" horiz-adv-x="910" d="M472 786 L599 786 L599 -144 L472 -144 L472 311 L291 311 L291 421 L472 421 L472 786 Z " />
<glyph glyph-name="uni3154" unicode="&#x3154;" horiz-adv-x="910" d="M364 314 L227 314 L227 423 L364 423 L364 767 L484 767 L484 -99 L364 -99 L364 314 Z M682 -144 L562 -144 L562 786 L682 786 L682 -144 Z " />
<glyph glyph-name="uni3155" unicode="&#x3155;" horiz-adv-x="910" d="M473 786 L599 786 L599 -144 L473 -144 L473 197 L299 197 L299 305 L473 305 L473 421 L299 421 L299 529 L473 529 L473 786 Z " />
<glyph glyph-name="uni3156" unicode="&#x3156;" horiz-adv-x="910" d="M364 198 L227 198 L227 306 L364 306 L364 422 L227 422 L227 530 L364 530 L364 767 L484 767 L484 -99 L364 -99 L364 198 Z M682 -144 L562 -144 L562 786 L682 786 L682 -144 Z " />
<glyph glyph-name="uni3157" unicode="&#x3157;" horiz-adv-x="910" d="M519 160 L881 160 L881 53 L29 53 L29 160 L392 160 L392 494 L519 494 L519 160 Z " />
<glyph glyph-name="uni3158" unicode="&#x3158;" horiz-adv-x="910" d="M778 444 L907 444 L907 334 L778 334 L778 -144 L653 -144 L653 786 L778 786 L778 444 Z M32 151 Q92 151 147.5 151 Q203 151 254 152 L254 415 L379 415 L379 155 Q450 157 506.5 160 Q563 163 607 168 L616 63 Q576 58 523 54 Q470 50 399.5 47.5 Q329 45 238.5 43.5 Q148 42 32 42 L32 151 Z " />
<glyph glyph-name="uni3159" unicode="&#x3159;" horiz-adv-x="910" d="M681 436 L746 436 L746 786 L867 786 L867 -144 L746 -144 L746 327 L681 327 L681 -119 L560 -119 L560 770 L681 770 L681 436 Z M528 78 Q479 73 426.5 70 Q374 67 314.5 65 Q255 63 188 62.5 Q121 62 43 62 L43 168 L219 168 L219 413 L343 413 L343 171 Q385 173 428.5 174.5 Q472 176 523 180 L528 78 Z " />
<glyph glyph-name="uni315A" unicode="&#x315a;" horiz-adv-x="910" d="M813 -144 L688 -144 L688 786 L813 786 L813 -144 Z M48 151 Q110 151 166.5 151 Q223 151 274 152 L274 415 L399 415 L399 154 Q476 156 536.5 159.5 Q597 163 642 168 L651 63 Q611 58 557.5 54 Q504 50 431.5 47.5 Q359 45 264.5 43.5 Q170 42 48 42 L48 151 Z " />
<glyph glyph-name="uni315B" unicode="&#x315b;" horiz-adv-x="910" d="M659 494 L659 159 L881 159 L881 53 L29 53 L29 159 L251 159 L251 494 L376 494 L376 159 L534 159 L534 494 L659 494 Z " />
<glyph glyph-name="uni315C" unicode="&#x315c;" horiz-adv-x="910" d="M881 333 L881 226 L519 226 L519 -105 L392 -105 L392 226 L29 226 L29 333 L881 333 Z " />
<glyph glyph-name="uni315D" unicode="&#x315d;" horiz-adv-x="910" d="M689 161 L689 786 L814 786 L814 -144 L689 -144 L689 55 L505 55 L505 161 L689 161 Z M50 339 Q254 339 402.5 343 Q551 347 642 356 L651 253 Q606 247 544.5 242.5 Q483 238 396 236 L396 -117 L271 -117 L271 233 Q222 232 167.5 232 Q113 232 50 232 L50 339 Z " />
<glyph glyph-name="uni315E" unicode="&#x315e;" horiz-adv-x="910" d="M548 175 L548 770 L669 770 L669 -119 L548 -119 L548 71 L404 71 L404 175 L548 175 Z M850 -144 L729 -144 L729 786 L850 786 L850 -144 Z M515 233 Q473 228 429 225.5 Q385 223 336 221 L336 -85 L215 -85 L215 218 Q172 217 126.5 217 Q81 217 30 217 L30 323 Q94 323 151 323 Q208 323 264.5 324.5 Q321 326 380.5 328 Q440 330 510 335 L515 233 Z " />
<glyph glyph-name="uni315F" unicode="&#x315f;" horiz-adv-x="910" d="M814 -144 L689 -144 L689 786 L814 786 L814 -144 Z M50 296 Q254 296 402.5 300 Q551 304 642 313 L651 209 Q606 203 546.5 199 Q487 195 403 192 L403 -117 L278 -117 L278 189 Q228 188 171.5 188 Q115 188 50 188 L50 296 Z " />
<glyph glyph-name="uni3160" unicode="&#x3160;" horiz-adv-x="910" d="M881 333 L881 227 L659 227 L659 -105 L534 -105 L534 227 L376 227 L376 -105 L251 -105 L251 227 L29 227 L29 333 L881 333 Z " />
<glyph glyph-name="uni3161" unicode="&#x3161;" horiz-adv-x="910" d="M881 190 L881 83 L29 83 L29 190 L881 190 Z " />
<glyph glyph-name="uni3162" unicode="&#x3162;" horiz-adv-x="910" d="M813 -144 L688 -144 L688 786 L813 786 L813 -144 Z M48 182 Q260 182 407 186 Q554 190 642 199 L651 94 Q611 89 557.5 85 Q504 81 431.5 78.5 Q359 76 264.5 74.5 Q170 73 48 73 L48 182 Z " />
<glyph glyph-name="uni3163" unicode="&#x3163;" horiz-adv-x="910" d="M519 -144 L392 -144 L392 786 L519 786 L519 -144 Z " />
<glyph glyph-name="uni3165" unicode="&#x3165;" horiz-adv-x="910" d="M466 54 L466 552 L592 552 L592 161 L775 161 L775 54 L466 54 Z M133 54 L133 552 L259 552 L259 161 L422 161 L422 54 L133 54 Z " />
<glyph glyph-name="uni3166" unicode="&#x3166;" horiz-adv-x="910" d="M466 54 L466 552 L772 552 L772 445 L592 445 L592 161 L775 161 L775 54 L466 54 Z M133 54 L133 552 L259 552 L259 161 L422 161 L422 54 L133 54 Z " />
<glyph glyph-name="uni3167" unicode="&#x3167;" horiz-adv-x="910" d="M88 54 L88 552 L214 552 L214 161 L377 161 L377 120 Q409 155 435.5 186 Q462 217 491 256 Q504 273 512 288.5 Q520 304 525 320.5 Q530 337 532 356 Q534 375 534 400 L534 555 L660 555 L660 400 Q660 375 662 356 Q664 337 669 320.5 Q674 304 682 288.5 Q690 273 703 256 Q732 216 759.5 184 Q787 152 821 116 L741 39 Q709 73 683.5 102.5 Q658 132 636 160 Q620 180 611.5 193 Q603 206 599 214 L598 214 Q594 206 585.5 192.5 Q577 179 561 159 Q539 131 513 101 Q487 71 455 37 L377 112 L377 54 L88 54 Z " />
<glyph glyph-name="uni3168" unicode="&#x3168;" horiz-adv-x="910" d="M110 54 L110 552 L236 552 L236 161 L399 161 L399 54 L110 54 Z M653 157 L605 322 L557 157 L653 157 Z M788 54 L423 54 L605 603 L788 54 Z " />
<glyph glyph-name="uni3169" unicode="&#x3169;" horiz-adv-x="910" d="M752 388 Q752 359 755.5 335.5 Q759 312 772.5 284 Q786 256 812.5 217.5 Q839 179 886 119 L810 52 Q757 118 731 155 Q705 192 698 209 Q692 191 665.5 154 Q639 117 585 49 L541 88 L541 55 L430 55 L430 448 L312 448 L312 556 L541 556 L541 165 Q575 210 595 241 Q615 272 625 296 Q635 320 637.5 341 Q640 362 640 388 L640 554 L752 554 L752 388 Z M36 55 L36 357 L171 357 L171 450 L36 450 L36 556 L282 556 L282 253 L145 253 L145 161 L320 161 L320 55 L36 55 Z " />
<glyph glyph-name="uni316A" unicode="&#x316a;" horiz-adv-x="910" d="M129 54 L129 356 L313 356 L313 448 L129 448 L129 554 L429 554 L429 252 L245 252 L245 160 L442 160 L442 54 L129 54 Z M481 54 L481 554 L782 554 L782 447 L607 447 L607 161 L790 161 L790 54 L481 54 Z " />
<glyph glyph-name="uni316B" unicode="&#x316b;" horiz-adv-x="910" d="M293 54 L293 560 L398 560 L398 384 L443 384 L443 560 L548 560 L548 149 Q580 200 598.5 234 Q617 268 626 293 Q635 318 637.5 339.5 Q640 361 640 388 L640 554 L752 554 L752 388 Q752 359 755 336 Q758 313 769.5 284 Q781 255 804.5 215 Q828 175 869 111 L787 50 Q764 85 748.5 111 Q733 137 723 156 Q713 175 707 187.5 Q701 200 698 209 Q695 200 689.5 187 Q684 174 674.5 155.5 Q665 137 649 110.5 Q633 84 609 48 L548 92 L548 54 L293 54 Z M25 54 L25 357 L152 357 L152 450 L25 450 L25 556 L259 556 L259 253 L130 253 L130 160 L270 160 L270 54 L25 54 Z M443 279 L398 279 L398 158 L443 158 L443 279 Z " />
<glyph glyph-name="uni316C" unicode="&#x316c;" horiz-adv-x="910" d="M111 54 L111 356 L295 356 L295 448 L111 448 L111 554 L411 554 L411 252 L227 252 L227 160 L424 160 L424 54 L111 54 Z M663 156 L615 321 L567 156 L663 156 Z M798 53 L433 53 L615 602 L798 53 Z " />
<glyph glyph-name="uni316D" unicode="&#x316d;" horiz-adv-x="910" d="M113 54 L113 356 L297 356 L297 448 L113 448 L113 554 L413 554 L413 252 L229 252 L229 160 L436 160 L436 54 L113 54 Z M797 553 L797 446 L453 446 L453 553 L797 553 Z M625 31 Q583 31 551 44 Q519 57 497.5 78.5 Q476 100 465.5 127.5 Q455 155 455 185 L455 231 Q455 261 465.5 288.5 Q476 316 497.5 337.5 Q519 359 551 372 Q583 385 625 385 Q667 385 699 372 Q731 359 752.5 337.5 Q774 316 784.5 288.5 Q795 261 795 231 L795 185 Q795 155 784.5 127.5 Q774 100 752.5 78.5 Q731 57 699 44 Q667 31 625 31 Z M625 291 Q608 291 596 284 Q584 277 576 266.5 Q568 256 564 243.5 Q560 231 560 219 L560 197 Q560 185 564 172.5 Q568 160 576 149.5 Q584 139 596 132 Q608 125 625 125 Q642 125 654 132 Q666 139 674 149.5 Q682 160 686 172.5 Q690 185 690 197 L690 219 Q690 231 686 243.5 Q682 256 674 266.5 Q666 277 654 284 Q642 291 625 291 Z " />
<glyph glyph-name="uni316E" unicode="&#x316e;" horiz-adv-x="910" d="M787 53 L479 53 L479 560 L591 560 L591 394 L675 394 L675 560 L787 560 L787 53 Z M591 158 L675 158 L675 288 L591 288 L591 158 Z M319 447 L235 447 L235 160 L319 160 L319 447 Z M123 53 L123 554 L431 554 L431 53 L123 53 Z " />
<glyph glyph-name="uni316F" unicode="&#x316f;" horiz-adv-x="910" d="M89 53 L89 554 L407 554 L407 134 Q435 164 458.5 192.5 Q482 221 508 256 Q521 273 529 288.5 Q537 304 542 320.5 Q547 337 549 356 Q551 375 551 400 L551 555 L677 555 L677 400 Q677 375 679 356 Q681 337 686 320.5 Q691 304 699 288.5 Q707 273 720 256 Q749 216 776.5 184 Q804 152 838 116 L758 39 Q726 73 700.5 102.5 Q675 132 653 160 Q637 180 628.5 193 Q620 206 616 214 L615 214 Q611 206 602.5 192.5 Q594 179 578 159 Q556 131 530 101 Q504 71 472 37 L407 99 L407 53 L89 53 Z M295 447 L201 447 L201 160 L295 160 L295 447 Z " />
<glyph glyph-name="uni3170" unicode="&#x3170;" horiz-adv-x="910" d="M308 447 L214 447 L214 160 L308 160 L308 447 Z M102 53 L102 554 L420 554 L420 53 L102 53 Z M661 156 L613 321 L565 156 L661 156 Z M796 53 L431 53 L613 602 L796 53 Z " />
<glyph glyph-name="uni3171" unicode="&#x3171;" horiz-adv-x="910" d="M211 285 L211 672 L698 672 L698 285 L211 285 Z M328 387 L581 387 L581 570 L328 570 L328 387 Z M637 84 Q637 60 625 37 Q613 14 590 -4 Q567 -22 533 -33.5 Q499 -45 455 -45 Q411 -45 377.5 -33.5 Q344 -22 321 -4 Q298 14 286 37 Q274 60 274 84 L274 116 Q274 140 286 163 Q298 186 321 204 Q344 222 377.5 233.5 Q411 245 455 245 Q499 245 533 233.5 Q567 222 590 204 Q613 186 625 163 Q637 140 637 116 L637 84 Z M531 108 Q531 131 509 143.5 Q487 156 455 156 Q423 156 401.5 143.5 Q380 131 380 108 L380 92 Q380 69 401.5 56.5 Q423 44 455 44 Q487 44 509 56.5 Q531 69 531 92 L531 108 Z " />
<glyph glyph-name="uni3172" unicode="&#x3172;" horiz-adv-x="910" d="M447 53 L123 53 L123 560 L235 560 L235 394 L335 394 L335 560 L447 560 L447 53 Z M235 158 L335 158 L335 288 L235 288 L235 158 Z M663 54 L663 447 L495 447 L495 554 L789 554 L789 54 L663 54 Z " />
<glyph glyph-name="uni3173" unicode="&#x3173;" horiz-adv-x="910" d="M438 53 L130 53 L130 560 L242 560 L242 394 L326 394 L326 560 L438 560 L438 53 Z M242 158 L326 158 L326 288 L242 288 L242 158 Z M487 54 L487 554 L769 554 L769 447 L611 447 L611 161 L779 161 L779 54 L487 54 Z " />
<glyph glyph-name="uni3174" unicode="&#x3174;" horiz-adv-x="910" d="M69 54 L69 554 L174 554 L174 382 L231 382 L231 554 L336 554 L336 173 Q368 216 386.5 245 Q405 274 414.5 297.5 Q424 321 426.5 341.5 Q429 362 429 388 L429 554 L541 554 L541 388 Q541 359 544.5 335.5 Q548 312 561.5 284 Q575 256 601.5 217.5 Q628 179 675 119 L599 52 Q546 118 520 155 Q494 192 487 209 Q481 191 454.5 154 Q428 117 374 49 L336 82 L336 54 L69 54 Z M838 55 L727 55 L727 446 L592 446 L592 554 L838 554 L838 55 Z M231 277 L174 277 L174 158 L231 158 L231 277 Z " />
<glyph glyph-name="uni3175" unicode="&#x3175;" horiz-adv-x="910" d="M66 54 L66 554 L171 554 L171 382 L216 382 L216 554 L321 554 L321 157 Q351 206 368.5 238 Q386 270 395 295 Q404 320 406 341 Q408 362 408 388 L408 554 L520 554 L520 388 Q520 361 522.5 339.5 Q525 318 534 293 Q543 268 561 235 Q579 202 611 151 L611 554 L822 554 L822 447 L720 447 L720 161 L832 161 L832 54 L611 54 L611 91 L555 50 Q532 85 516.5 111 Q501 137 491 156 Q481 175 475 187.5 Q469 200 466 209 Q463 200 457.5 187 Q452 174 442.5 155.5 Q433 137 417 110.5 Q401 84 377 48 L321 88 L321 54 L66 54 Z M216 277 L171 277 L171 158 L216 158 L216 277 Z " />
<glyph glyph-name="uni3176" unicode="&#x3176;" horiz-adv-x="910" d="M680 447 L680 397 Q680 373 682.5 354 Q685 335 690.5 318 Q696 301 705.5 283.5 Q715 266 729 244 Q751 211 774 179 Q797 147 829 109 L743 40 Q718 70 696.5 100 Q675 130 657 156 Q637 185 630.5 196.5 Q624 208 621 216 L620 216 Q617 208 610.5 195.5 Q604 183 584 154 Q566 128 543.5 97 Q521 66 496 36 L426 92 L426 53 L111 53 L111 560 L223 560 L223 394 L314 394 L314 560 L426 560 L426 130 Q450 160 469.5 187.5 Q489 215 509 244 Q524 266 533 283.5 Q542 301 547 318 Q552 335 554 354 Q556 373 556 397 L556 447 L442 447 L442 554 L800 554 L800 447 L680 447 Z M223 158 L314 158 L314 288 L223 288 L223 158 Z " />
<glyph glyph-name="uni3177" unicode="&#x3177;" horiz-adv-x="910" d="M438 53 L130 53 L130 560 L242 560 L242 394 L326 394 L326 560 L438 560 L438 53 Z M487 54 L487 554 L769 554 L769 448 L604 448 L604 356 L759 356 L759 252 L604 252 L604 160 L774 160 L774 54 L487 54 Z M242 158 L326 158 L326 288 L242 288 L242 158 Z " />
<glyph glyph-name="uni3178" unicode="&#x3178;" horiz-adv-x="910" d="M582 477 L327 477 L327 393 L582 393 L582 477 Z M211 292 L211 679 L327 679 L327 578 L582 578 L582 679 L698 679 L698 292 L211 292 Z M637 84 Q637 60 625 37 Q613 14 590 -4 Q567 -22 533 -33.5 Q499 -45 455 -45 Q411 -45 377.5 -33.5 Q344 -22 321 -4 Q298 14 286 37 Q274 60 274 84 L274 116 Q274 140 286 163 Q298 186 321 204 Q344 222 377.5 233.5 Q411 245 455 245 Q499 245 533 233.5 Q567 222 590 204 Q613 186 625 163 Q637 140 637 116 L637 84 Z M531 108 Q531 131 509 143.5 Q487 156 455 156 Q423 156 401.5 143.5 Q380 131 380 108 L380 92 Q380 69 401.5 56.5 Q423 44 455 44 Q487 44 509 56.5 Q531 69 531 92 L531 108 Z " />
<glyph glyph-name="uni3179" unicode="&#x3179;" horiz-adv-x="910" d="M175 289 L175 663 L277 663 L277 560 L338 560 L338 663 L438 663 L438 289 L175 289 Z M338 462 L277 462 L277 386 L338 386 L338 462 Z M473 289 L473 663 L575 663 L575 560 L634 560 L634 663 L736 663 L736 289 L473 289 Z M634 462 L575 462 L575 386 L634 386 L634 462 Z M637 84 Q637 60 625 37 Q613 14 590 -4 Q567 -22 533 -33.5 Q499 -45 455 -45 Q411 -45 377.5 -33.5 Q344 -22 321 -4 Q298 14 286 37 Q274 60 274 84 L274 116 Q274 140 286 163 Q298 186 321 204 Q344 222 377.5 233.5 Q411 245 455 245 Q499 245 533 233.5 Q567 222 590 204 Q613 186 625 163 Q637 140 637 116 L637 84 Z M531 108 Q531 131 509 143.5 Q487 156 455 156 Q423 156 401.5 143.5 Q380 131 380 108 L380 92 Q380 69 401.5 56.5 Q423 44 455 44 Q487 44 509 56.5 Q531 69 531 92 L531 108 Z " />
<glyph glyph-name="uni317A" unicode="&#x317a;" horiz-adv-x="910" d="M331 214 Q327 206 318.5 192.5 Q310 179 294 159 Q272 131 246 101 Q220 71 188 37 L106 116 Q140 152 167.5 184 Q195 216 224 256 Q237 273 245 288.5 Q253 304 258 320.5 Q263 337 265 356 Q267 375 267 400 L267 555 L393 555 L393 400 Q393 375 395 356 Q397 337 402 320.5 Q407 304 415 288.5 Q423 273 436 256 Q465 216 492.5 184 Q520 152 554 116 L474 39 Q442 73 416.5 102.5 Q391 132 369 160 Q353 180 344.5 193 Q336 206 332 214 L331 214 Z M671 56 L671 442 L468 442 L468 549 L797 549 L797 56 L671 56 Z " />
<glyph glyph-name="uni317B" unicode="&#x317b;" horiz-adv-x="910" d="M501 54 L501 95 L443 39 Q411 73 385.5 102.5 Q360 132 338 160 Q322 180 313.5 193 Q305 206 301 214 L300 214 Q296 206 287.5 192.5 Q279 179 263 159 Q241 131 215 101 Q189 71 157 37 L75 116 Q109 152 136.5 184 Q164 216 193 256 Q206 273 214 288.5 Q222 304 227 320.5 Q232 337 234 356 Q236 375 236 400 L236 555 L362 555 L362 400 Q362 375 364 356 Q366 337 371 320.5 Q376 304 384 288.5 Q392 273 405 256 Q429 223 452 195.5 Q475 168 501 139 L501 555 L627 555 L627 161 L810 161 L810 54 L501 54 Z " />
<glyph glyph-name="uni317C" unicode="&#x317c;" horiz-adv-x="910" d="M300 214 Q296 206 287.5 192.5 Q279 179 263 159 Q241 131 215 101 Q189 71 157 37 L75 116 Q109 152 136.5 184 Q164 216 193 256 Q206 273 214 288.5 Q222 304 227 320.5 Q232 337 234 356 Q236 375 236 400 L236 555 L362 555 L362 400 Q362 375 364 356 Q366 337 371 320.5 Q376 304 384 288.5 Q392 273 405 256 Q429 223 452 195.5 Q475 168 501 139 L501 554 L800 554 L800 447 L625 447 L625 161 L810 161 L810 54 L501 54 L501 95 L443 39 Q411 73 385.5 102.5 Q360 132 338 160 Q322 180 313.5 193 Q305 206 301 214 L300 214 Z " />
<glyph glyph-name="uni317D" unicode="&#x317d;" horiz-adv-x="910" d="M300 214 Q296 206 287.5 192.5 Q279 179 263 159 Q241 131 215 101 Q189 71 157 37 L75 116 Q109 152 136.5 184 Q164 216 193 256 Q206 273 214 288.5 Q222 304 227 320.5 Q232 337 234 356 Q236 375 236 400 L236 555 L362 555 L362 400 Q362 375 364 356 Q366 337 371 320.5 Q376 304 384 288.5 Q392 273 405 256 Q429 223 452 195.5 Q475 168 501 139 L501 560 L613 560 L613 394 L697 394 L697 560 L809 560 L809 53 L501 53 L501 95 L443 39 Q411 73 385.5 102.5 Q360 132 338 160 Q322 180 313.5 193 Q305 206 301 214 L300 214 Z M613 158 L697 158 L697 288 L613 288 L613 158 Z " />
</font>
</svg>
