<?xml version="1.0" encoding="UTF-8"?>
<svg xmlns="http://www.w3.org/2000/svg" xmlns:xlink="http://www.w3.org/1999/xlink" version="1.2" >
<font id="NanumSquare Bold">
<font-face  font-family="NanumSquare" units-per-em="1000" ascent="850" descent="-255" font-style="normal" font-weight="700" font-stretch="normal" cap-height="695" x-height="521" underline-position="-75" underline-thickness="50" />
<missing-glyph  horiz-adv-x="910" d="M855 -143 L55 -143 L55 757 L855 757 L855 -143 Z M455 278 L120 -107 L790 -107 L455 278 Z M95 -76 L429 308 L95 692 L95 -76 Z M454 337 L788 721 L121 721 L454 337 Z M815 693 L481 307 L815 -77 L815 693 Z " />
<glyph glyph-name="&amp;#x0;" horiz-adv-x="250" d="" />
<glyph glyph-name="&amp;#x1;" unicode="&#x1;" horiz-adv-x="250" d="" />
<glyph glyph-name="&amp;#x2;" unicode="&#x2;" horiz-adv-x="250" d="" />
<glyph glyph-name="&amp;#x3;" unicode="&#x3;" horiz-adv-x="250" d="" />
<glyph glyph-name="&amp;#x4;" unicode="&#x4;" horiz-adv-x="250" d="" />
<glyph glyph-name="&amp;#x5;" unicode="&#x5;" horiz-adv-x="250" d="" />
<glyph glyph-name="&amp;#x6;" unicode="&#x6;" horiz-adv-x="250" d="" />
<glyph glyph-name="&amp;#x7;" unicode="&#x7;" horiz-adv-x="250" d="" />
<glyph glyph-name="&amp;#x8;" unicode="&#x8;" horiz-adv-x="250" d="" />
<glyph glyph-name="&amp;#x9;" unicode="&#x9;" horiz-adv-x="250" d="" />
<glyph glyph-name="&amp;#xa;" unicode="&#xa;" horiz-adv-x="250" d="" />
<glyph glyph-name="&amp;#xb;" unicode="&#xb;" horiz-adv-x="250" d="" />
<glyph glyph-name="&amp;#xc;" unicode="&#xc;" horiz-adv-x="250" d="" />
<glyph glyph-name="&amp;#xd;" unicode="&#xd;" horiz-adv-x="250" d="" />
<glyph glyph-name="&amp;#xe;" unicode="&#xe;" horiz-adv-x="250" d="" />
<glyph glyph-name="&amp;#xf;" unicode="&#xf;" horiz-adv-x="250" d="" />
<glyph glyph-name="&amp;#x10;" unicode="&#x10;" horiz-adv-x="250" d="" />
<glyph glyph-name="&amp;#x11;" unicode="&#x11;" horiz-adv-x="250" d="" />
<glyph glyph-name="&amp;#x12;" unicode="&#x12;" horiz-adv-x="250" d="" />
<glyph glyph-name="&amp;#x13;" unicode="&#x13;" horiz-adv-x="250" d="" />
<glyph glyph-name="&amp;#x14;" unicode="&#x14;" horiz-adv-x="250" d="" />
<glyph glyph-name="&amp;#x15;" unicode="&#x15;" horiz-adv-x="250" d="" />
<glyph glyph-name="&amp;#x16;" unicode="&#x16;" horiz-adv-x="250" d="" />
<glyph glyph-name="&amp;#x17;" unicode="&#x17;" horiz-adv-x="250" d="" />
<glyph glyph-name="&amp;#x18;" unicode="&#x18;" horiz-adv-x="250" d="" />
<glyph glyph-name="&amp;#x19;" unicode="&#x19;" horiz-adv-x="250" d="" />
<glyph glyph-name="&amp;#x1a;" unicode="&#x1a;" horiz-adv-x="250" d="" />
<glyph glyph-name="&amp;#x1b;" unicode="&#x1b;" horiz-adv-x="250" d="" />
<glyph glyph-name="&amp;#x1c;" unicode="&#x1c;" horiz-adv-x="250" d="" />
<glyph glyph-name="&amp;#x1d;" unicode="&#x1d;" horiz-adv-x="250" d="" />
<glyph glyph-name="&amp;#x1e;" unicode="&#x1e;" horiz-adv-x="250" d="" />
<glyph glyph-name="&amp;#x1f;" unicode="&#x1f;" horiz-adv-x="250" d="" />
<glyph glyph-name="&amp;#x20;" unicode="&#x20;" horiz-adv-x="250" d="" />
<glyph glyph-name="&amp;#xa0;" unicode="&#xa0;" horiz-adv-x="250" d="" />
<glyph glyph-name="exclam" unicode="&#x21;" horiz-adv-x="300" d="M93 48 L207 48 L207 -67 L93 -67 L93 48 Z M108 151 L94 734 L206 734 L192 151 L108 151 Z " />
<glyph glyph-name="quotedbl" unicode="&#x22;" horiz-adv-x="387" d="M70 488 L60 734 L164 734 L154 488 L70 488 Z M233 488 L223 734 L327 734 L317 488 L233 488 Z " />
<glyph glyph-name="numbersign" unicode="&#x23;" horiz-adv-x="614" d="M543 262 L543 175 L430 175 L402 -26 L322 -26 L350 175 L219 175 L192 -26 L111 -26 L139 175 L40 175 L40 262 L151 262 L172 412 L71 412 L71 499 L185 499 L212 695 L292 695 L265 499 L395 499 L422 695 L503 695 L475 499 L574 499 L574 412 L463 412 L442 262 L543 262 Z M383 412 L252 412 L231 262 L362 262 L383 412 Z " />
<glyph glyph-name="dollar" unicode="&#x24;" horiz-adv-x="628" d="M286 -21 Q222 -17 161.5 4.5 Q101 26 60 59 L110 134 Q145 107 191.5 87.5 Q238 68 286 63 L286 303 Q239 314 200 328.5 Q161 343 133 365 Q105 387 89.5 418.5 Q74 450 74 495 L74 513 Q74 547 87 577 Q100 607 126.5 631 Q153 655 192.5 670.5 Q232 686 286 690 L286 751 L347 751 L347 691 Q406 688 455.5 671 Q505 654 540 627 L492 557 Q424 602 347 608 L347 377 Q410 360 452.5 341.5 Q495 323 520.5 299.5 Q546 276 557 247.5 Q568 219 568 183 L568 168 Q568 123 551.5 89 Q535 55 506 32 Q477 9 436 -4 Q395 -17 347 -20 L347 -93 L286 -93 L286 -21 Z M471 176 Q471 195 466 211 Q461 227 447 240.5 Q433 254 409 266 Q385 278 347 288 L347 63 Q409 70 440 97 Q471 124 471 161 L471 176 Z M170 497 Q170 454 200 432 Q230 410 286 393 L286 607 Q225 601 197.5 573.5 Q170 546 170 514 L170 497 Z " />
<glyph glyph-name="percent" unicode="&#x25;" horiz-adv-x="893" d="M186 -25 L617 695 L706 695 L276 -25 L186 -25 Z M227 706 Q303 706 346.5 661 Q390 616 390 537 L390 495 Q390 416 346.5 371 Q303 326 227 326 Q151 326 107.5 371 Q64 416 64 495 L64 537 Q64 616 107.5 661 Q151 706 227 706 Z M227 394 Q312 394 312 497 L312 535 Q312 638 227 638 Q142 638 142 535 L142 497 Q142 394 227 394 Z M666 346 Q742 346 785.5 301 Q829 256 829 177 L829 135 Q829 56 785.5 11 Q742 -34 666 -34 Q590 -34 546.5 11 Q503 56 503 135 L503 177 Q503 256 546.5 301 Q590 346 666 346 Z M666 34 Q751 34 751 137 L751 175 Q751 278 666 278 Q581 278 581 175 L581 137 Q581 34 666 34 Z " />
<glyph glyph-name="ampersand" unicode="&#x26;" horiz-adv-x="677" d="M281 49 Q329 49 369 65.5 Q409 82 439 111 L270 313 Q235 294 209 277.5 Q183 261 166.5 244 Q150 227 142 208.5 Q134 190 134 168 L134 152 Q134 131 145 112.5 Q156 94 176 79.5 Q196 65 222.5 57 Q249 49 281 49 Z M217 544 Q217 530 224 515 Q231 500 241.5 484 Q252 468 265.5 451.5 Q279 435 292 420 Q325 439 345 455.5 Q365 472 376 487.5 Q387 503 391 517 Q395 531 395 544 L395 555 Q395 583 369 602.5 Q343 622 306 622 Q264 622 240.5 601.5 Q217 581 217 555 L217 544 Z M616 361 Q616 209 553 112 L669 -25 L555 -25 L496 45 Q451 3 395 -17 Q339 -37 283 -37 L277 -37 Q232 -37 189.5 -26 Q147 -15 114 8 Q81 31 61 66 Q41 101 41 149 L41 172 Q41 206 51.5 235 Q62 264 83.5 289 Q105 314 137 336 Q169 358 213 380 Q198 398 182.5 416.5 Q167 435 155 454.5 Q143 474 135 495.5 Q127 517 127 541 L127 559 Q127 588 138.5 614.5 Q150 641 172.5 661.5 Q195 682 228.5 694 Q262 706 306 706 Q348 706 381 693 Q414 680 437.5 659 Q461 638 473.5 612 Q486 586 486 559 L486 540 Q486 516 479.5 493 Q473 470 457 447.5 Q441 425 414 402 Q387 379 346 355 L492 184 Q509 216 517 257 Q525 298 525 361 L616 361 Z " />
<glyph glyph-name="quotesingle" unicode="&#x27;" horiz-adv-x="228" d="M70 488 L60 734 L168 734 L158 488 L70 488 Z " />
<glyph glyph-name="parenleft" unicode="&#x28;" horiz-adv-x="337" d="M177 274 Q177 160 207 48 Q237 -64 314 -170 L222 -170 Q147 -81 111 32 Q75 145 75 279 L75 319 Q75 453 111 565 Q147 677 222 766 L314 766 Q240 666 208.5 555.5 Q177 445 177 324 L177 274 Z " />
<glyph glyph-name="parenright" unicode="&#x29;" horiz-adv-x="337" d="M160 324 Q160 445 128.5 555.5 Q97 666 23 766 L115 766 Q190 677 226 565 Q262 453 262 319 L262 279 Q262 145 226 32 Q190 -81 115 -170 L23 -170 Q100 -64 130 48 Q160 160 160 274 L160 324 Z " />
<glyph glyph-name="asterisk" unicode="&#x2a;" horiz-adv-x="469" d="M84 400 L43 477 L182 536 L43 594 L84 671 L203 588 L192 731 L278 731 L266 588 L386 671 L426 594 L287 536 L426 477 L386 400 L266 483 L278 341 L192 341 L204 483 L84 400 Z " />
<glyph glyph-name="plus" unicode="&#x2b;" horiz-adv-x="600" d="M345 571 L345 360 L552 360 L552 276 L345 276 L345 51 L255 51 L255 276 L48 276 L48 360 L255 360 L255 571 L345 571 Z " />
<glyph glyph-name="comma" unicode="&#x2c;" horiz-adv-x="294" d="M100 53 L215 53 L138 -175 L58 -175 L100 53 Z " />
<glyph glyph-name="hyphen" unicode="&#x2d;" horiz-adv-x="420" d="M46 376 L372 376 L372 292 L46 292 L46 376 Z " />
<glyph glyph-name="period" unicode="&#x2e;" horiz-adv-x="294" d="M90 48 L204 48 L204 -67 L90 -67 L90 48 Z " />
<glyph glyph-name="slash" unicode="&#x2f;" horiz-adv-x="437" d="M419 768 L113 -128 L18 -128 L323 768 L419 768 Z " />
<glyph glyph-name="zero" unicode="0" horiz-adv-x="610" d="M560 279 Q560 126 497.5 44.5 Q435 -37 305 -37 Q176 -37 113 45 Q50 127 50 279 L50 391 Q50 543 114 624.5 Q178 706 305 706 Q433 706 496.5 624.5 Q560 543 560 391 L560 279 Z M459 392 Q459 458 447.5 501 Q436 544 415 569 Q394 594 366 604 Q338 614 305 614 Q273 614 245 604 Q217 594 196 568.5 Q175 543 163 500.5 Q151 458 151 392 L151 278 Q151 212 163 168.5 Q175 125 196 100 Q217 75 245 65 Q273 55 305 55 Q338 55 366 65 Q394 75 415 100 Q436 125 447.5 168 Q459 211 459 278 L459 392 Z " />
<glyph glyph-name="one" unicode="1" horiz-adv-x="610" d="M326 -26 L326 579 L157 479 L110 559 L342 695 L425 695 L425 -26 L326 -26 Z " />
<glyph glyph-name="two" unicode="2" horiz-adv-x="610" d="M333 349 Q364 383 382 408 Q400 433 409 452.5 Q418 472 420.5 487.5 Q423 503 423 517 L423 525 Q423 568 389.5 592.5 Q356 617 299 617 Q279 617 258.5 612.5 Q238 608 218 596 Q198 584 179 563.5 Q160 543 142 512 L66 561 Q79 584 98 609.5 Q117 635 144.5 656.5 Q172 678 209.5 692 Q247 706 297 706 Q352 706 394 692.5 Q436 679 464.5 655 Q493 631 507.5 597.5 Q522 564 522 525 L522 515 Q522 456 491 404 Q460 352 411 300 L186 60 L548 60 L548 -26 L64 -26 L64 57 L333 349 Z " />
<glyph glyph-name="three" unicode="3" horiz-adv-x="610" d="M75 598 Q91 620 110.5 640 Q130 660 155.5 674.5 Q181 689 212.5 697.5 Q244 706 285 706 Q335 706 375 693 Q415 680 443.5 656.5 Q472 633 487.5 599.5 Q503 566 503 526 L503 516 Q503 495 498 471 Q493 447 480 425 Q467 403 445 384 Q423 365 390 353 Q463 340 499.5 295 Q536 250 536 187 L536 172 Q536 132 521.5 94.5 Q507 57 476.5 27.5 Q446 -2 398 -19.5 Q350 -37 284 -37 Q221 -37 162.5 -17.5 Q104 2 53 43 L102 122 Q155 84 196 68.5 Q237 53 284 53 Q323 53 352 62.5 Q381 72 400 88 Q419 104 428 125.5 Q437 147 437 171 L437 184 Q437 220 425.5 243.5 Q414 267 394 281 Q374 295 346.5 301 Q319 307 288 307 L199 307 L199 393 L284 393 Q318 393 341 403.5 Q364 414 378 431 Q392 448 398.5 470 Q405 492 405 515 L405 523 Q405 547 395.5 564.5 Q386 582 370 594 Q354 606 332 612 Q310 618 286 618 Q241 618 208 601 Q175 584 146 546 L75 598 Z " />
<glyph glyph-name="four" unicode="4" horiz-adv-x="610" d="M485 434 L485 213 L587 213 L587 129 L485 129 L485 -26 L387 -26 L387 129 L27 129 L27 203 L366 695 L475 695 L143 213 L387 213 L387 434 L485 434 Z " />
<glyph glyph-name="five" unicode="5" horiz-adv-x="610" d="M559 191 Q559 151 545 110.5 Q531 70 501 37 Q471 4 423 -16.5 Q375 -37 308 -37 Q234 -37 174 -17.5 Q114 2 63 43 L112 122 Q164 81 211.5 67 Q259 53 310 53 Q349 53 377.5 65 Q406 77 424.5 96.5 Q443 116 451.5 141 Q460 166 460 191 L460 203 Q460 275 422 310.5 Q384 346 315 346 Q269 346 233.5 329 Q198 312 174 289 L98 289 L121 695 L512 695 L512 610 L211 610 L200 385 Q224 403 261.5 416 Q299 429 344 429 Q395 429 435 411.5 Q475 394 502.5 363.5 Q530 333 544.5 292.5 Q559 252 559 206 L559 191 Z " />
<glyph glyph-name="six" unicode="6" horiz-adv-x="610" d="M488 573 Q454 593 415 604 Q376 615 333 615 Q296 615 265.5 602.5 Q235 590 212.5 561 Q190 532 176.5 484 Q163 436 160 365 Q169 381 185.5 395.5 Q202 410 224.5 421.5 Q247 433 274.5 440 Q302 447 332 447 Q380 447 421.5 431 Q463 415 493.5 385 Q524 355 541.5 312.5 Q559 270 559 217 L559 195 Q559 143 541 100.5 Q523 58 491 27.5 Q459 -3 413.5 -20 Q368 -37 313 -37 Q191 -37 126.5 38.5 Q62 114 62 260 L62 297 Q62 415 82.5 494 Q103 573 139.5 620 Q176 667 227 686.5 Q278 706 339 706 Q388 706 436.5 694 Q485 682 526 657 L488 573 Z M163 205 Q163 135 202 94 Q241 53 309 53 Q379 53 419.5 91 Q460 129 460 200 L460 213 Q460 285 419 322 Q378 359 312 359 Q279 359 251.5 348 Q224 337 204.5 318.5 Q185 300 174 274.5 Q163 249 163 219 L163 205 Z " />
<glyph glyph-name="seven" unicode="7" horiz-adv-x="610" d="M271 -26 L163 -26 L449 609 L57 609 L57 695 L556 695 L556 619 L271 -26 Z " />
<glyph glyph-name="eight" unicode="8" horiz-adv-x="610" d="M185 499 Q185 445 219.5 415 Q254 385 305 385 Q356 385 390.5 415 Q425 445 425 499 L425 510 Q425 561 392 590 Q359 619 305 619 Q251 619 218 590 Q185 561 185 510 L185 499 Z M166 166 Q166 115 203.5 83.5 Q241 52 306 52 Q371 52 407.5 83.5 Q444 115 444 166 L444 177 Q444 236 405 267 Q366 298 306 298 Q277 298 251.5 290.5 Q226 283 207 267.5 Q188 252 177 229.5 Q166 207 166 177 L166 166 Z M64 178 Q64 208 73.5 234.5 Q83 261 100 282.5 Q117 304 139.5 320 Q162 336 188 344 Q136 369 110.5 413 Q85 457 85 503 L85 517 Q85 556 99.5 590 Q114 624 142 650 Q170 676 211 691 Q252 706 305 706 Q357 706 398 691 Q439 676 467 650 Q495 624 510 590 Q525 556 525 517 L525 503 Q525 457 500 414 Q475 371 422 344 Q475 328 510.5 283 Q546 238 546 178 L546 161 Q546 118 529.5 81.5 Q513 45 482 19 Q451 -7 406.5 -22 Q362 -37 305 -37 Q248 -37 203.5 -22 Q159 -7 128 19 Q97 45 80.5 81.5 Q64 118 64 161 L64 178 Z " />
<glyph glyph-name="nine" unicode="9" horiz-adv-x="610" d="M122 98 Q156 78 195 66 Q234 54 277 54 Q314 54 345.5 66 Q377 78 399.5 106.5 Q422 135 435 182 Q448 229 450 300 Q441 284 424 269.5 Q407 255 384.5 243.5 Q362 232 335 225 Q308 218 278 218 Q230 218 188.5 234 Q147 250 116.5 280 Q86 310 68.5 352.5 Q51 395 51 448 L51 470 Q51 522 69 565 Q87 608 119 639.5 Q151 671 196.5 688.5 Q242 706 297 706 Q418 706 483 632.5 Q548 559 548 413 L548 376 Q548 257 530 178 Q512 99 476.5 51 Q441 3 389.5 -17 Q338 -37 271 -37 Q222 -37 173.5 -24 Q125 -11 84 14 L122 98 Z M447 462 Q447 532 408 574 Q369 616 301 616 Q231 616 190.5 577 Q150 538 150 467 L150 454 Q150 382 192 344 Q234 306 298 306 Q331 306 358.5 317 Q386 328 405.5 347.5 Q425 367 436 392.5 Q447 418 447 448 L447 462 Z " />
<glyph glyph-name="colon" unicode="&#x3a;" horiz-adv-x="354" d="M120 128 L234 128 L234 13 L120 13 L120 128 Z M120 574 L234 574 L234 459 L120 459 L120 574 Z " />
<glyph glyph-name="semicolon" unicode="&#x3b;" horiz-adv-x="354" d="M120 574 L234 574 L234 459 L120 459 L120 574 Z M130 133 L245 133 L168 -95 L88 -95 L130 133 Z " />
<glyph glyph-name="less" unicode="&#x3c;" horiz-adv-x="610" d="M179 318 L541 131 L541 31 L69 281 L69 360 L541 610 L541 511 L179 324 L179 318 Z " />
<glyph glyph-name="equal" unicode="&#x3d;" horiz-adv-x="610" d="M74 468 L536 468 L536 383 L74 383 L74 468 Z M74 257 L536 257 L536 172 L74 172 L74 257 Z " />
<glyph glyph-name="greater" unicode="&#x3e;" horiz-adv-x="610" d="M431 324 L69 511 L69 610 L541 360 L541 281 L69 31 L69 131 L431 318 L431 324 Z " />
<glyph glyph-name="question" unicode="&#x3f;" horiz-adv-x="542" d="M198 141 L198 187 Q198 212 202 231.5 Q206 251 216.5 270 Q227 289 245 310 Q263 331 290 358 Q317 385 335.5 403.5 Q354 422 365.5 437.5 Q377 453 382 469.5 Q387 486 387 510 L387 523 Q387 561 358.5 589.5 Q330 618 268 618 Q219 618 178.5 598.5 Q138 579 106 546 L46 615 Q85 657 138.5 681.5 Q192 706 266 706 Q371 706 429 656 Q487 606 487 524 L487 510 Q487 473 476.5 445 Q466 417 448.5 393 Q431 369 408.5 348 Q386 327 363 305 Q346 289 334.5 275.5 Q323 262 315 248 Q307 234 303.5 218.5 Q300 203 300 184 L300 141 L198 141 Z M193 48 L307 48 L307 -67 L193 -67 L193 48 Z " />
<glyph glyph-name="at" unicode="&#x40;" horiz-adv-x="993" d="M758 40 Q718 40 681 60.5 Q644 81 629 126 L628 126 Q619 102 601 86 Q583 70 561.5 60 Q540 50 518 46 Q496 42 478 42 Q382 42 332 96 Q282 150 282 241 L282 319 Q282 411 330.5 464.5 Q379 518 463 518 Q519 518 552 501 Q585 484 599 460 L599 512 L693 512 L693 197 Q693 155 710 135.5 Q727 116 759 116 Q784 116 803 125.5 Q822 135 835 156.5 Q848 178 855 212.5 Q862 247 862 297 L862 308 Q862 392 837.5 458 Q813 524 765 570.5 Q717 617 647 641.5 Q577 666 486 666 Q408 666 343 641 Q278 616 231.5 568.5 Q185 521 159 452 Q133 383 133 296 L133 279 Q133 186 158.5 114.5 Q184 43 232 -5.5 Q280 -54 349.5 -79.5 Q419 -105 506 -105 Q581 -105 655 -88.5 Q729 -72 791 -40 L819 -110 Q756 -144 677.5 -162.5 Q599 -181 509 -181 Q401 -181 316 -149 Q231 -117 172 -57 Q113 3 81.5 88 Q50 173 50 278 L50 297 Q50 393 80.5 474.5 Q111 556 167.5 615 Q224 674 304.5 707.5 Q385 741 486 741 Q597 741 682 709.5 Q767 678 825 621 Q883 564 913 485 Q943 406 943 311 L943 298 Q943 254 934.5 208.5 Q926 163 905 125.5 Q884 88 848.5 64 Q813 40 758 40 Z M381 257 Q381 200 406 166.5 Q431 133 485 133 Q506 133 525.5 138 Q545 143 560.5 155 Q576 167 585 187 Q594 207 594 237 L594 325 Q594 345 588.5 363.5 Q583 382 570 396.5 Q557 411 536 419.5 Q515 428 485 428 Q436 428 408.5 401 Q381 374 381 303 L381 257 Z " />
<glyph glyph-name="A" unicode="A" horiz-adv-x="673" d="M653 -26 L549 -26 L473 186 L197 186 L121 -26 L20 -26 L288 695 L384 695 L653 -26 Z M227 271 L443 271 L383 440 Q375 462 369 478.5 Q363 495 358 510.5 Q353 526 347.5 543 Q342 560 335 585 Q327 560 322 542.5 Q317 525 312 510 Q307 495 301.5 478.5 Q296 462 288 440 L227 271 Z " />
<glyph glyph-name="B" unicode="B" horiz-adv-x="635" d="M82 695 L338 695 Q567 695 567 519 L567 498 Q567 474 561 451.5 Q555 429 541.5 410 Q528 391 505.5 376.5 Q483 362 451 354 Q517 344 558.5 304 Q600 264 600 189 L600 164 Q600 75 543.5 24.5 Q487 -26 369 -26 L82 -26 L82 695 Z M181 60 L332 60 Q374 60 405.5 64.5 Q437 69 457.5 81 Q478 93 488 113.5 Q498 134 498 166 L498 188 Q498 221 489 244 Q480 267 458 282 Q436 297 400 303.5 Q364 310 310 310 L181 310 L181 60 Z M181 610 L181 391 L309 391 Q346 391 375.5 395 Q405 399 425 411 Q445 423 455.5 444 Q466 465 466 499 L466 517 Q466 549 456.5 567.5 Q447 586 426.5 595.5 Q406 605 375 607.5 Q344 610 302 610 L181 610 Z " />
<glyph glyph-name="C" unicode="C" horiz-adv-x="644" d="M604 55 Q550 3 486 -17 Q422 -37 349 -37 Q284 -37 231 -17.5 Q178 2 140 42 Q102 82 81 141 Q60 200 60 280 L60 389 Q60 468 81 527 Q102 586 140.5 626 Q179 666 232 686 Q285 706 349 706 Q424 706 480 687.5 Q536 669 587 629 L536 548 Q487 588 442.5 601 Q398 614 349 614 Q308 614 273.5 600 Q239 586 213.5 557 Q188 528 174 483 Q160 438 160 376 L160 293 Q160 231 174 186 Q188 141 213.5 112 Q239 83 273.5 69 Q308 55 349 55 Q401 55 453 71 Q505 87 550 131 L604 55 Z " />
<glyph glyph-name="D" unicode="D" horiz-adv-x="688" d="M321 695 Q470 695 547 615.5 Q624 536 624 386 L624 283 Q624 133 549 53.5 Q474 -26 321 -26 L82 -26 L82 695 L321 695 Z M181 62 L312 62 Q360 62 399 74.5 Q438 87 465.5 114 Q493 141 508 184 Q523 227 523 288 L523 381 Q523 442 508 485 Q493 528 465.5 555.5 Q438 583 399 595.5 Q360 608 312 608 L181 608 L181 62 Z " />
<glyph glyph-name="E" unicode="E" horiz-adv-x="598" d="M531 695 L531 610 L181 610 L181 386 L510 386 L510 301 L181 301 L181 59 L538 59 L538 -26 L82 -26 L82 695 L531 695 Z " />
<glyph glyph-name="F" unicode="F" horiz-adv-x="568" d="M528 695 L528 610 L181 610 L181 369 L507 369 L507 284 L181 284 L181 -26 L82 -26 L82 695 L528 695 Z " />
<glyph glyph-name="G" unicode="G" horiz-adv-x="671" d="M613 28 Q565 -5 500.5 -21 Q436 -37 368 -37 Q296 -37 239 -17.5 Q182 2 142.5 42 Q103 82 81.5 141 Q60 200 60 280 L60 389 Q60 468 81 527 Q102 586 141 626 Q180 666 235.5 686 Q291 706 360 706 Q430 706 489 688 Q548 670 599 630 L548 550 Q501 587 456 601.5 Q411 616 360 616 Q266 616 212.5 558.5 Q159 501 159 376 L159 293 Q159 168 216.5 110.5 Q274 53 371 53 Q412 53 448.5 60.5 Q485 68 514 82 L514 285 L354 285 L354 370 L613 370 L613 28 Z " />
<glyph glyph-name="H" unicode="H" horiz-adv-x="697" d="M615 695 L615 -26 L516 -26 L516 306 L181 306 L181 -26 L82 -26 L82 695 L181 695 L181 394 L516 394 L516 695 L615 695 Z " />
<glyph glyph-name="I" unicode="I" horiz-adv-x="263" d="M181 695 L181 -26 L82 -26 L82 695 L181 695 Z " />
<glyph glyph-name="J" unicode="J" horiz-adv-x="472" d="M392 172 Q392 112 376 72 Q360 32 332 7.5 Q304 -17 266 -27 Q228 -37 183 -37 Q144 -37 97.5 -23 Q51 -9 16 22 L63 100 Q95 75 123 65 Q151 55 186 55 Q242 55 267.5 86.5 Q293 118 293 193 L293 695 L392 695 L392 172 Z " />
<glyph glyph-name="K" unicode="K" horiz-adv-x="655" d="M328 383 L635 -26 L509 -26 L260 311 L181 226 L181 -26 L82 -26 L82 695 L181 695 L181 350 L497 695 L618 695 L328 383 Z " />
<glyph glyph-name="L" unicode="L" horiz-adv-x="546" d="M181 695 L181 59 L526 59 L526 -26 L82 -26 L82 695 L181 695 Z " />
<glyph glyph-name="M" unicode="M" horiz-adv-x="850" d="M213 494 Q208 505 204 515.5 Q200 526 196 537 Q192 548 187 562 Q182 576 176 594 L176 -26 L82 -26 L82 695 L228 695 L428 223 L623 695 L768 695 L768 -26 L673 -26 L673 594 Q668 574 663.5 560.5 Q659 547 655.5 536 Q652 525 648 515 Q644 505 639 494 L467 94 L383 94 L213 494 Z " />
<glyph glyph-name="N" unicode="N" horiz-adv-x="701" d="M196 695 L476 209 Q487 191 500.5 163.5 Q514 136 527 104 L527 695 L619 695 L619 -26 L505 -26 L225 458 Q214 478 200.5 505 Q187 532 174 564 L174 -26 L82 -26 L82 695 L196 695 Z " />
<glyph glyph-name="O" unicode="O" horiz-adv-x="706" d="M353 -37 Q288 -37 234.5 -17.5 Q181 2 142 42 Q103 82 81.5 141 Q60 200 60 280 L60 389 Q60 468 81.5 527 Q103 586 142 626 Q181 666 235 686 Q289 706 353 706 Q417 706 471 686 Q525 666 564 626 Q603 586 624.5 527 Q646 468 646 389 L646 280 Q646 200 624.5 141 Q603 82 564 42 Q525 2 471 -17.5 Q417 -37 353 -37 Z M353 616 Q311 616 275.5 602.5 Q240 589 214.5 560.5 Q189 532 174.5 486.5 Q160 441 160 378 L160 291 Q160 228 174.5 182.5 Q189 137 214.5 108.5 Q240 80 275.5 66.5 Q311 53 353 53 Q395 53 430.5 66.5 Q466 80 491.5 108.5 Q517 137 531.5 182.5 Q546 228 546 291 L546 378 Q546 441 531.5 486.5 Q517 532 491.5 560.5 Q466 589 430.5 602.5 Q395 616 353 616 Z " />
<glyph glyph-name="P" unicode="P" horiz-adv-x="617" d="M82 695 L340 695 Q401 695 446 679.5 Q491 664 520.5 636.5 Q550 609 564.5 571 Q579 533 579 489 L579 468 Q579 424 563.5 385.5 Q548 347 518 318 Q488 289 443.5 272 Q399 255 340 255 L181 255 L181 -26 L82 -26 L82 695 Z M181 609 L181 341 L323 341 Q479 341 479 470 L479 488 Q479 550 441.5 579.5 Q404 609 334 609 L181 609 Z " />
<glyph glyph-name="Q" unicode="Q" horiz-adv-x="698" d="M349 -37 Q284 -37 231 -17.5 Q178 2 140 42 Q102 82 81 141 Q60 200 60 280 L60 389 Q60 468 81 527 Q102 586 140.5 626 Q179 666 232 686 Q285 706 349 706 Q413 706 466 686 Q519 666 557.5 626 Q596 586 617 527 Q638 468 638 389 L638 280 Q638 208 621 153 Q604 98 573 59 L658 -25 L599 -86 L509 3 Q441 -37 349 -37 Z M349 616 Q308 616 273 602.5 Q238 589 213 560.5 Q188 532 174 486.5 Q160 441 160 378 L160 291 Q160 228 174 182.5 Q188 137 213 108.5 Q238 80 273 66.5 Q308 53 349 53 Q374 53 396.5 57.5 Q419 62 439 73 L349 163 L408 224 L501 131 Q519 160 528.5 199 Q538 238 538 291 L538 378 Q538 441 524 486.5 Q510 532 485 560.5 Q460 589 425.5 602.5 Q391 616 349 616 Z " />
<glyph glyph-name="R" unicode="R" horiz-adv-x="645" d="M181 -26 L82 -26 L82 695 L343 695 Q398 695 441 680 Q484 665 513 639 Q542 613 557.5 577 Q573 541 573 498 L573 472 Q573 411 541.5 364 Q510 317 452 294 L595 -26 L488 -26 L358 275 L181 275 L181 -26 Z M181 359 L319 359 Q403 359 438.5 390.5 Q474 422 474 475 L474 495 Q474 548 439 579 Q404 610 329 610 L181 610 L181 359 Z " />
<glyph glyph-name="S" unicode="S" horiz-adv-x="616" d="M312 53 Q389 53 427.5 84 Q466 115 466 158 L466 174 Q466 198 458 216 Q450 234 431 248 Q412 262 382 273.5 Q352 285 308 294 Q257 305 213 319.5 Q169 334 137 356.5 Q105 379 86.5 412.5 Q68 446 68 495 L68 513 Q68 550 83 584.5 Q98 619 129 646 Q160 673 206.5 689.5 Q253 706 315 706 Q381 706 435 690 Q489 674 535 643 L488 566 Q448 593 407 605 Q366 617 316 617 Q248 617 207.5 587 Q167 557 167 514 L167 498 Q167 473 178 455.5 Q189 438 210 425 Q231 412 262 402.5 Q293 393 333 384 Q400 369 444.5 349.5 Q489 330 516 305 Q543 280 554.5 249 Q566 218 566 181 L566 163 Q566 113 546.5 76 Q527 39 493 13.5 Q459 -12 411.5 -24.5 Q364 -37 309 -37 Q232 -37 167.5 -12.5 Q103 12 58 48 L108 129 Q128 114 154 100 Q180 86 207 75.5 Q234 65 261.5 59 Q289 53 312 53 Z " />
<glyph glyph-name="T" unicode="T" horiz-adv-x="571" d="M236 -26 L236 610 L16 610 L16 695 L555 695 L555 610 L335 610 L335 -26 L236 -26 Z " />
<glyph glyph-name="U" unicode="U" horiz-adv-x="684" d="M610 695 L610 263 Q610 181 592 124 Q574 67 540 31 Q506 -5 456 -21 Q406 -37 342 -37 Q278 -37 228 -21 Q178 -5 144 31 Q110 67 92 124 Q74 181 74 263 L74 695 L173 695 L173 275 Q173 214 183 171.5 Q193 129 214 102.5 Q235 76 267 64 Q299 52 342 52 Q385 52 417 64 Q449 76 470 102.5 Q491 129 501 171.5 Q511 214 511 275 L511 695 L610 695 Z " />
<glyph glyph-name="V" unicode="V" horiz-adv-x="673" d="M128 695 L337 99 L551 695 L653 695 L381 -26 L288 -26 L20 695 L128 695 Z " />
<glyph glyph-name="W" unicode="W" horiz-adv-x="975" d="M947 695 L748 -26 L649 -26 L489 563 L326 -26 L225 -26 L28 695 L132 695 L280 106 L441 695 L537 695 L698 106 L848 695 L947 695 Z " />
<glyph glyph-name="X" unicode="X" horiz-adv-x="655" d="M392 346 L625 -26 L508 -26 L325 283 L142 -26 L30 -26 L263 350 L45 695 L163 695 L333 411 L502 695 L613 695 L392 346 Z " />
<glyph glyph-name="Y" unicode="Y" horiz-adv-x="625" d="M363 264 L363 -26 L264 -26 L264 264 L16 695 L126 695 L315 358 L499 695 L609 695 L363 264 Z " />
<glyph glyph-name="Z" unicode="Z" horiz-adv-x="613" d="M560 622 L146 60 L579 60 L579 -26 L26 -26 L26 55 L435 609 L50 609 L50 695 L560 695 L560 622 Z " />
<glyph glyph-name="bracketleft" unicode="&#x5b;" horiz-adv-x="389" d="M349 -170 L85 -170 L85 766 L349 766 L349 680 L183 680 L183 -84 L349 -84 L349 -170 Z " />
<glyph glyph-name="backslash" unicode="&#x5c;" horiz-adv-x="959" d="M36 401 L138 401 L66 695 L165 695 L229 401 L366 401 L440 695 L529 695 L599 401 L732 401 L795 695 L890 695 L818 401 L923 401 L923 340 L803 340 L715 -26 L625 -26 L539 340 L427 340 L337 -26 L243 -26 L153 340 L36 340 L36 401 Z M293 106 L351 340 L242 340 L293 106 Z M669 106 L719 340 L613 340 L669 106 Z M442 401 L525 401 L485 575 L442 401 Z " />
<glyph glyph-name="bracketright" unicode="&#x5d;" horiz-adv-x="389" d="M40 -84 L206 -84 L206 680 L40 680 L40 766 L304 766 L304 -170 L40 -170 L40 -84 Z " />
<glyph glyph-name="asciicircum" unicode="&#x5e;" horiz-adv-x="524" d="M384 401 L262 644 L140 401 L46 401 L217 724 L308 724 L478 401 L384 401 Z " />
<glyph glyph-name="underscore" unicode="&#x5f;" horiz-adv-x="500" d="M500 -140 L0 -140 L0 -75 L500 -75 L500 -140 Z " />
<glyph glyph-name="grave" unicode="&#x60;" horiz-adv-x="610" d="M328 565 L192 713 L308 713 L417 565 L328 565 Z " />
<glyph glyph-name="a" unicode="a" horiz-adv-x="552" d="M230 -34 Q147 -34 98.5 7 Q50 48 50 120 L50 147 Q50 217 97 261 Q144 305 249 305 L388 305 L388 337 Q388 392 361.5 418.5 Q335 445 275 445 Q227 445 191.5 430 Q156 415 118 390 L70 462 Q110 490 160 510.5 Q210 531 276 531 Q322 531 360 519.5 Q398 508 425.5 485.5 Q453 463 468.5 430.5 Q484 398 484 357 L484 -26 L391 -26 L391 40 L390 40 Q382 25 368.5 12.5 Q355 0 339 -9 Q317 -21 291.5 -27.5 Q266 -34 230 -34 Z M388 223 L251 223 Q194 223 169.5 201 Q145 179 145 140 L145 126 Q145 86 173 68 Q201 50 240 50 Q276 50 302.5 58.5 Q329 67 351 84 Q371 99 379.5 118.5 Q388 138 388 169 L388 223 Z " />
<glyph glyph-name="b" unicode="b" horiz-adv-x="596" d="M175 458 Q201 499 243.5 515 Q286 531 331 531 Q435 531 490 470.5 Q545 410 545 298 L545 201 Q545 145 529 101.5 Q513 58 484.5 28 Q456 -2 416 -18 Q376 -34 328 -34 Q266 -34 229 -12.5 Q192 9 174 38 L172 38 L172 -26 L78 -26 L78 730 L175 730 L175 458 Z M174 169 Q174 148 184.5 126.5 Q195 105 214.5 88.5 Q234 72 260 61.5 Q286 51 318 51 Q380 51 414.5 94 Q449 137 449 215 L449 282 Q449 360 414 403 Q379 446 318 446 Q288 446 262 436 Q236 426 216.5 408 Q197 390 185.5 364.5 Q174 339 174 307 L174 169 Z " />
<glyph glyph-name="c" unicode="c" horiz-adv-x="509" d="M286 531 Q354 531 397.5 514 Q441 497 475 471 L429 398 Q391 426 358.5 435.5 Q326 445 286 445 Q259 445 234 436 Q209 427 190 407.5 Q171 388 159.5 358 Q148 328 148 286 L148 217 Q148 173 159.5 141.5 Q171 110 190.5 90.5 Q210 71 235.5 62 Q261 53 288 53 Q342 53 377.5 67 Q413 81 442 103 L489 29 Q460 5 411 -14.5 Q362 -34 287 -34 Q173 -34 111.5 32 Q50 98 50 216 L50 285 Q50 344 67 389.5 Q84 435 114.5 466.5 Q145 498 188.5 514.5 Q232 531 286 531 Z " />
<glyph glyph-name="d" unicode="d" horiz-adv-x="596" d="M423 42 Q400 0 357.5 -17 Q315 -34 264 -34 Q160 -34 105.5 26.5 Q51 87 51 199 L51 296 Q51 351 67 395 Q83 439 111.5 469 Q140 499 180 515 Q220 531 268 531 Q331 531 367.5 509.5 Q404 488 421 464 L421 730 L518 730 L518 -26 L425 -26 L425 42 L423 42 Z M422 330 Q422 351 411.5 372 Q401 393 381.5 409.5 Q362 426 335.5 436 Q309 446 278 446 Q216 446 181.5 403 Q147 360 147 282 L147 215 Q147 137 182 94 Q217 51 278 51 Q308 51 334 60.5 Q360 70 379.5 88 Q399 106 410.5 131.5 Q422 157 422 189 L422 330 Z " />
<glyph glyph-name="e" unicode="e" horiz-adv-x="562" d="M285 448 Q255 448 229.5 437.5 Q204 427 185.5 408.5 Q167 390 156.5 363.5 Q146 337 146 306 L146 292 L420 292 L420 310 Q420 373 384 410.5 Q348 448 285 448 Z M501 26 Q465 1 415 -16.5 Q365 -34 290 -34 Q239 -34 195.5 -19.5 Q152 -5 119.5 25.5 Q87 56 68.5 104 Q50 152 50 218 L50 280 Q50 342 67.5 389 Q85 436 116.5 467.5 Q148 499 191 515 Q234 531 285 531 Q390 531 452 467 Q514 403 514 286 L514 213 L146 213 L146 209 Q146 131 187 90.5 Q228 50 294 50 Q348 50 386.5 63 Q425 76 460 99 L501 26 Z " />
<glyph glyph-name="f" unicode="f" horiz-adv-x="386" d="M116 438 L26 438 L26 521 L116 521 L116 575 Q116 658 156.5 697 Q197 736 275 736 Q301 736 328.5 732 Q356 728 373 722 L358 643 Q322 653 284 653 Q270 653 257 650 Q244 647 234.5 638.5 Q225 630 219 614 Q213 598 213 571 L213 521 L357 521 L357 438 L213 438 L213 -26 L116 -26 L116 438 Z " />
<glyph glyph-name="g" unicode="g" horiz-adv-x="596" d="M518 -19 Q518 -249 274 -249 Q218 -249 172 -233 Q126 -217 92 -191 L136 -115 Q163 -135 199.5 -148 Q236 -161 277 -161 Q348 -161 384.5 -126.5 Q421 -92 421 -19 L421 48 Q398 9 356 -7.5 Q314 -24 264 -24 Q160 -24 105.5 36.5 Q51 97 51 209 L51 296 Q51 351 67 395 Q83 439 111.5 469 Q140 499 180 515 Q220 531 268 531 Q331 531 367.5 509.5 Q404 488 421 464 L421 521 L518 521 L518 -19 Z M422 330 Q422 351 411.5 372 Q401 393 381.5 409.5 Q362 426 335.5 436 Q309 446 278 446 Q216 446 181.5 403 Q147 360 147 282 L147 225 Q147 147 182 104 Q217 61 278 61 Q308 61 334 70.5 Q360 80 379.5 98 Q399 116 410.5 141.5 Q422 167 422 199 L422 330 Z " />
<glyph glyph-name="h" unicode="h" horiz-adv-x="599" d="M529 -26 L432 -26 L432 314 Q432 383 403 414 Q374 445 313 445 Q288 445 263.5 436.5 Q239 428 219.5 411.5 Q200 395 187.5 370 Q175 345 175 313 L175 -26 L78 -26 L78 730 L175 730 L175 455 Q200 492 240.5 511.5 Q281 531 337 531 Q377 531 412 519 Q447 507 473 483 Q499 459 514 422 Q529 385 529 336 L529 -26 Z " />
<glyph glyph-name="i" unicode="i" horiz-adv-x="259" d="M178 521 L178 -26 L81 -26 L81 521 L178 521 Z M181 717 L181 611 L78 611 L78 717 L181 717 Z " />
<glyph glyph-name="j" unicode="j" horiz-adv-x="276" d="M198 717 L198 611 L95 611 L95 717 L198 717 Z M195 -88 Q195 -171 154.5 -210 Q114 -249 36 -249 Q10 -249 -17.5 -245 Q-45 -241 -62 -235 L-47 -156 Q-11 -166 27 -166 Q41 -166 54 -163 Q67 -160 76.5 -151.5 Q86 -143 92 -127 Q98 -111 98 -84 L98 521 L195 521 L195 -88 Z " />
<glyph glyph-name="k" unicode="k" horiz-adv-x="561" d="M318 302 L547 -26 L425 -26 L251 234 L175 157 L175 -26 L78 -26 L78 730 L175 730 L175 275 L409 521 L534 521 L318 302 Z " />
<glyph glyph-name="l" unicode="l" horiz-adv-x="253" d="M175 730 L175 -26 L78 -26 L78 730 L175 730 Z " />
<glyph glyph-name="m" unicode="m" horiz-adv-x="899" d="M829 -26 L732 -26 L732 302 Q732 443 629 443 Q606 443 583.5 435.5 Q561 428 543 412.5 Q525 397 513.5 372.5 Q502 348 502 315 L502 -26 L405 -26 L405 302 Q405 443 302 443 Q279 443 256.5 436 Q234 429 216 414 Q198 399 186.5 375.5 Q175 352 175 320 L175 -26 L78 -26 L78 521 L174 521 L174 447 L175 447 Q191 483 227.5 507 Q264 531 321 531 Q376 531 416.5 507.5 Q457 484 478 440 Q504 480 543.5 505.5 Q583 531 648 531 Q733 531 781 479.5 Q829 428 829 333 L829 -26 Z " />
<glyph glyph-name="n" unicode="n" horiz-adv-x="599" d="M529 -26 L432 -26 L432 314 Q432 383 403 414 Q374 445 313 445 Q288 445 263.5 436.5 Q239 428 219.5 411.5 Q200 395 187.5 370 Q175 345 175 313 L175 -26 L78 -26 L78 521 L172 521 L172 452 L173 452 Q198 490 239 510.5 Q280 531 337 531 Q377 531 412 519 Q447 507 473 483 Q499 459 514 422 Q529 385 529 336 L529 -26 Z " />
<glyph glyph-name="o" unicode="o" horiz-adv-x="588" d="M294 531 Q407 531 472.5 466 Q538 401 538 282 L538 215 Q538 96 472.5 31 Q407 -34 294 -34 Q181 -34 115.5 31 Q50 96 50 215 L50 282 Q50 402 115.5 466.5 Q181 531 294 531 Z M294 51 Q359 51 399.5 93.5 Q440 136 440 223 L440 274 Q440 361 399.5 403.5 Q359 446 294 446 Q229 446 188.5 403.5 Q148 361 148 274 L148 223 Q148 136 188.5 93.5 Q229 51 294 51 Z " />
<glyph glyph-name="p" unicode="p" horiz-adv-x="596" d="M172 453 Q196 495 239.5 513 Q283 531 332 531 Q436 531 490.5 469 Q545 407 545 298 L545 201 Q545 144 529 100.5 Q513 57 484.5 27 Q456 -3 415.5 -18.5 Q375 -34 326 -34 Q265 -34 228.5 -12 Q192 10 175 34 L175 -240 L78 -240 L78 521 L172 521 L172 453 Z M174 169 Q174 148 184.5 126.5 Q195 105 214.5 88.5 Q234 72 260 61.5 Q286 51 318 51 Q380 51 414.5 94 Q449 137 449 215 L449 282 Q449 360 414 403 Q379 446 318 446 Q288 446 262 436 Q236 426 216.5 408 Q197 390 185.5 364.5 Q174 339 174 307 L174 169 Z " />
<glyph glyph-name="q" unicode="q" horiz-adv-x="596" d="M421 -240 L421 38 Q398 -1 356 -17.5 Q314 -34 264 -34 Q160 -34 105.5 26.5 Q51 87 51 199 L51 296 Q51 351 67 395 Q83 439 111.5 469 Q140 499 180 515 Q220 531 268 531 Q331 531 367.5 509.5 Q404 488 421 464 L421 521 L518 521 L518 -240 L421 -240 Z M422 330 Q422 351 411.5 372 Q401 393 381.5 409.5 Q362 426 335.5 436 Q309 446 278 446 Q216 446 181.5 403 Q147 360 147 282 L147 215 Q147 137 182 94 Q217 51 278 51 Q308 51 334 60.5 Q360 70 379.5 88 Q399 106 410.5 131.5 Q422 157 422 189 L422 330 Z " />
<glyph glyph-name="r" unicode="r" horiz-adv-x="417" d="M376 426 Q362 432 345.5 435.5 Q329 439 309 439 Q282 439 257.5 428.5 Q233 418 215 398.5 Q197 379 186 352 Q175 325 175 293 L175 -26 L78 -26 L78 521 L172 521 L172 434 L173 434 Q197 480 235.5 505.5 Q274 531 334 531 Q370 531 405 520 L376 426 Z " />
<glyph glyph-name="s" unicode="s" horiz-adv-x="498" d="M248 50 Q302 50 332 69 Q362 88 362 121 L362 129 Q362 146 357 158 Q352 170 338 179 Q324 188 300 195.5 Q276 203 237 211 Q192 220 157 233 Q122 246 98 264.5 Q74 283 61.5 309 Q49 335 49 371 L49 383 Q49 411 61 438 Q73 465 98 485.5 Q123 506 161.5 518.5 Q200 531 253 531 Q309 531 357.5 518.5 Q406 506 447 477 L404 404 Q377 424 339.5 436 Q302 448 260 448 Q199 448 172.5 429.5 Q146 411 146 382 L146 373 Q146 341 173 325.5 Q200 310 264 298 Q314 289 351 276 Q388 263 412 243.5 Q436 224 448 197 Q460 170 460 132 L460 119 Q460 87 445.5 59 Q431 31 404 10.5 Q377 -10 338.5 -22 Q300 -34 252 -34 Q183 -34 127 -16 Q71 2 32 32 L77 108 Q114 83 156 66.5 Q198 50 248 50 Z " />
<glyph glyph-name="t" unicode="t" horiz-adv-x="389" d="M112 438 L22 438 L22 521 L112 521 L112 659 L209 659 L209 521 L353 521 L353 438 L209 438 L209 127 Q209 102 214 86.5 Q219 71 228.5 63 Q238 55 251 52 Q264 49 279 49 Q315 49 351 62 L366 -16 Q349 -23 321 -28.5 Q293 -34 264 -34 Q186 -34 149 5 Q112 44 112 127 L112 438 Z " />
<glyph glyph-name="u" unicode="u" horiz-adv-x="595" d="M70 521 L167 521 L167 181 Q167 112 195 81 Q223 50 284 50 Q309 50 333 58.5 Q357 67 376.5 83.5 Q396 100 408 125 Q420 150 420 182 L420 521 L517 521 L517 -26 L423 -26 L423 43 L422 43 Q397 5 357 -15.5 Q317 -36 260 -36 Q220 -36 185.5 -24 Q151 -12 125.5 12 Q100 36 85 72.5 Q70 109 70 159 L70 521 Z " />
<glyph glyph-name="v" unicode="v" horiz-adv-x="522" d="M264 65 L407 521 L509 521 L324 -26 L200 -26 L13 521 L118 521 L262 65 L264 65 Z " />
<glyph glyph-name="w" unicode="w" horiz-adv-x="765" d="M382 400 L272 -26 L158 -26 L16 521 L118 521 L218 75 L220 75 L336 521 L434 521 L549 75 L551 75 L653 521 L749 521 L609 -26 L495 -26 L384 400 L382 400 Z " />
<glyph glyph-name="x" unicode="x" horiz-adv-x="525" d="M325 258 L505 -26 L388 -26 L261 194 L131 -26 L20 -26 L203 258 L29 521 L146 521 L267 319 L390 521 L498 521 L325 258 Z " />
<glyph glyph-name="y" unicode="y" horiz-adv-x="526" d="M267 84 L411 521 L513 521 L229 -252 L141 -221 L212 -34 L13 521 L118 521 L263 84 L267 84 Z " />
<glyph glyph-name="z" unicode="z" horiz-adv-x="493" d="M448 446 L148 58 L463 58 L463 -26 L25 -26 L25 44 L329 436 L45 436 L45 521 L448 521 L448 446 Z " />
<glyph glyph-name="braceleft" unicode="&#x7b;" horiz-adv-x="449" d="M40 353 Q95 354 120.5 372 Q146 390 146 433 L146 621 Q146 695 185.5 730.5 Q225 766 302 766 L409 766 L409 680 L318 680 Q275 680 259.5 662.5 Q244 645 244 594 L244 433 Q244 415 241 396 Q238 377 229 360 Q220 343 203.5 329.5 Q187 316 161 310 Q186 304 202.5 291.5 Q219 279 228 262 Q237 245 240.5 225.5 Q244 206 244 187 L244 -5 Q244 -31 248 -46.5 Q252 -62 260.5 -70 Q269 -78 283 -81 Q297 -84 318 -84 L409 -84 L409 -170 L302 -170 Q225 -170 185.5 -137.5 Q146 -105 146 -32 L146 186 Q146 230 120.5 248.5 Q95 267 40 268 L40 353 Z " />
<glyph glyph-name="bar" unicode="&#x7c;" horiz-adv-x="294" d="M194 -170 L100 -170 L100 765 L194 765 L194 -170 Z " />
<glyph glyph-name="braceright" unicode="&#x7d;" horiz-adv-x="449" d="M409 268 Q354 267 328.5 248.5 Q303 230 303 186 L303 -32 Q303 -105 263.5 -137.5 Q224 -170 147 -170 L40 -170 L40 -84 L131 -84 Q152 -84 166 -81 Q180 -78 188.5 -70 Q197 -62 201 -46.5 Q205 -31 205 -5 L205 187 Q205 206 208.5 225.5 Q212 245 221 262 Q230 279 246 291.5 Q262 304 288 310 Q262 316 245.5 329.5 Q229 343 220 360 Q211 377 208 396 Q205 415 205 433 L205 594 Q205 645 189.5 662.5 Q174 680 131 680 L40 680 L40 766 L147 766 Q224 766 263.5 730.5 Q303 695 303 621 L303 433 Q303 390 328.5 372 Q354 354 409 353 L409 268 Z " />
<glyph glyph-name="asciitilde" unicode="&#x7e;" horiz-adv-x="600" d="M394 232 Q357 232 332 246.5 Q307 261 286.5 279 Q266 297 248 311.5 Q230 326 208 326 Q193 326 181.5 316 Q170 306 162.5 291.5 Q155 277 151 260 Q147 243 145 229 L58 229 Q61 266 72.5 299 Q84 332 103 357 Q122 382 148 396 Q174 410 207 410 Q243 410 268.5 395.5 Q294 381 314 363 Q334 345 353 330.5 Q372 316 395 316 Q425 316 439.5 341.5 Q454 367 459 413 L544 413 Q538 330 500 281 Q462 232 394 232 Z " />
<glyph glyph-name="uni20A9" unicode="&#x20a9;" horiz-adv-x="959" d="M36 401 L138 401 L66 695 L165 695 L229 401 L366 401 L440 695 L529 695 L599 401 L732 401 L795 695 L890 695 L818 401 L923 401 L923 340 L803 340 L715 -26 L625 -26 L539 340 L427 340 L337 -26 L243 -26 L153 340 L36 340 L36 401 Z M293 106 L351 340 L242 340 L293 106 Z M669 106 L719 340 L613 340 L669 106 Z M442 401 L525 401 L485 575 L442 401 Z " />
<glyph glyph-name="uni2010" unicode="&#x2010;" horiz-adv-x="419" d="M30 337 L389 337 L389 244 L30 244 L30 337 Z " />
<glyph glyph-name="copyright" unicode="&#xa9;" horiz-adv-x="824" d="M419 19 Q487 19 543.5 42.5 Q600 66 641 108 Q682 150 705 208 Q728 266 728 335 Q728 404 705 462 Q682 520 640.5 562 Q599 604 542.5 627 Q486 650 419 650 Q352 650 296 627 Q240 604 199 562 Q158 520 135 462 Q112 404 112 335 Q112 266 135 208 Q158 150 199 108 Q240 66 296 42.5 Q352 19 419 19 Z M419 -33 Q338 -33 271 -4 Q204 25 156 75 Q108 125 81 192 Q54 259 54 335 Q54 411 81 478 Q108 545 156 594.5 Q204 644 271 673 Q338 702 419 702 Q501 702 568.5 673 Q636 644 684.5 594.5 Q733 545 759.5 478 Q786 411 786 335 Q786 259 759 192 Q732 125 683.5 75 Q635 25 567.5 -4 Q500 -33 419 -33 Z M428 545 Q483 545 515.5 531 Q548 517 573 498 L532 434 Q503 455 480.5 462 Q458 469 428 469 Q412 469 395 464 Q378 459 364.5 446.5 Q351 434 342.5 413.5 Q334 393 334 362 L334 310 Q334 277 343 255.5 Q352 234 366 221.5 Q380 209 397 203.5 Q414 198 429 198 Q468 198 494 207.5 Q520 217 542 234 L583 169 Q563 151 524 136.5 Q485 122 428 122 Q340 122 293.5 171.5 Q247 221 247 309 L247 361 Q247 449 295.5 497 Q344 545 428 545 Z " />
<glyph glyph-name="&amp;#x3000;" unicode="&#x3000;" horiz-adv-x="910" d="" />
<glyph glyph-name="&amp;#x3164;" unicode="&#x3164;" horiz-adv-x="910" d="" />
<glyph glyph-name="uni3001" unicode="&#x3001;" horiz-adv-x="910" d="M252 -116 Q227 -82 204.5 -54.5 Q182 -27 159 -3 Q136 21 111 43 Q86 65 56 89 L124 151 Q156 127 182 105.5 Q208 84 231.5 60.5 Q255 37 278 11 Q301 -15 327 -48 L252 -116 Z " />
<glyph glyph-name="uni3002" unicode="&#x3002;" horiz-adv-x="910" d="M174 -49 Q213 -49 236.5 -23.5 Q260 2 260 38 Q260 73 236.5 99 Q213 125 174 125 Q134 125 111.5 99 Q89 73 89 38 Q89 2 111.5 -23.5 Q134 -49 174 -49 Z M174 -110 Q141 -110 113.5 -98.5 Q86 -87 66.5 -67 Q47 -47 36 -20 Q25 7 25 38 Q25 69 36 95.5 Q47 122 66.5 142 Q86 162 113.5 173.5 Q141 185 174 185 Q207 185 234.5 173.5 Q262 162 281.5 142 Q301 122 312 95.5 Q323 69 323 38 Q323 7 312 -20 Q301 -47 281.5 -67 Q262 -87 234.5 -98.5 Q207 -110 174 -110 Z " />
<glyph glyph-name="&amp;#xb7;" unicode="&#xb7;" horiz-adv-x="421" d="M153 360 L267 360 L267 245 L153 245 L153 360 Z " />
<glyph glyph-name="&amp;#x30fb;" unicode="&#x30fb;" horiz-adv-x="421" d="M153 360 L267 360 L267 245 L153 245 L153 360 Z " />
<glyph glyph-name="twodotenleader" unicode="&#x2025;" horiz-adv-x="910" d="M255 360 L369 360 L369 245 L255 245 L255 360 Z M540 360 L654 360 L654 245 L540 245 L540 360 Z " />
<glyph glyph-name="&amp;#x2026;" unicode="&#x2026;" horiz-adv-x="910" d="M130 360 L244 360 L244 245 L130 245 L130 360 Z M398 360 L512 360 L512 245 L398 245 L398 360 Z M666 360 L780 360 L780 245 L666 245 L666 360 Z " />
<glyph glyph-name="&amp;#x22ef;" unicode="&#x22ef;" horiz-adv-x="910" d="M130 360 L244 360 L244 245 L130 245 L130 360 Z M398 360 L512 360 L512 245 L398 245 L398 360 Z M666 360 L780 360 L780 245 L666 245 L666 360 Z " />
<glyph glyph-name="dieresis" unicode="&#xa8;" horiz-adv-x="509" d="M123 680 L211 680 L211 588 L123 588 L123 680 Z M298 680 L386 680 L386 588 L298 588 L298 680 Z " />
<glyph glyph-name="uni3003" unicode="&#x3003;" horiz-adv-x="910" d="M550 448 L661 448 L504 134 L434 134 L550 448 Z M475 448 L319 134 L249 134 L364 448 L475 448 Z " />
<glyph glyph-name="&amp;#xad;" unicode="&#xad;" horiz-adv-x="425" d="M425 279 L0 279 L0 349 L425 349 L425 279 Z " />
<glyph glyph-name="&amp;#x2013;" unicode="&#x2013;" horiz-adv-x="425" d="M425 279 L0 279 L0 349 L425 349 L425 279 Z " />
<glyph glyph-name="&amp;#x2014;" unicode="&#x2014;" horiz-adv-x="850" d="M850 279 L0 279 L0 349 L850 349 L850 279 Z " />
<glyph glyph-name="&amp;#x2015;" unicode="&#x2015;" horiz-adv-x="850" d="M850 279 L0 279 L0 349 L850 349 L850 279 Z " />
<glyph glyph-name="uni2016" unicode="&#x2016;" horiz-adv-x="910" d="M571 -180 L514 -180 L514 780 L571 780 L571 -180 Z M395 -180 L339 -180 L339 780 L395 780 L395 -180 Z " />
<glyph glyph-name="uniFF3C" unicode="&#xff3c;" horiz-adv-x="910" d="M868 -123 L837 -154 L42 725 L72 758 L868 -123 Z " />
<glyph glyph-name="&amp;#x223c;" unicode="&#x223c;" horiz-adv-x="910" d="M742 339 Q731 321 714 304 Q697 287 677 274 Q657 261 635 253 Q613 245 591 245 Q548 245 517.5 254 Q487 263 455 280 Q429 294 394 307.5 Q359 321 319 321 Q282 321 255 303.5 Q228 286 209 258 L168 285 Q179 303 196 320 Q213 337 233 350 Q253 363 275 371 Q297 379 319 379 Q362 379 392.5 370 Q423 361 455 344 Q487 327 519 315 Q551 303 591 303 Q628 303 655 320.5 Q682 338 701 366 L742 339 Z " />
<glyph glyph-name="&amp;#x301c;" unicode="&#x301c;" horiz-adv-x="910" d="M742 339 Q731 321 714 304 Q697 287 677 274 Q657 261 635 253 Q613 245 591 245 Q548 245 517.5 254 Q487 263 455 280 Q429 294 394 307.5 Q359 321 319 321 Q282 321 255 303.5 Q228 286 209 258 L168 285 Q179 303 196 320 Q213 337 233 350 Q253 363 275 371 Q297 379 319 379 Q362 379 392.5 370 Q423 361 455 344 Q487 327 519 315 Q551 303 591 303 Q628 303 655 320.5 Q682 338 701 366 L742 339 Z " />
<glyph glyph-name="&amp;#xff5e;" unicode="&#xff5e;" horiz-adv-x="910" d="M742 339 Q731 321 714 304 Q697 287 677 274 Q657 261 635 253 Q613 245 591 245 Q548 245 517.5 254 Q487 263 455 280 Q429 294 394 307.5 Q359 321 319 321 Q282 321 255 303.5 Q228 286 209 258 L168 285 Q179 303 196 320 Q213 337 233 350 Q253 363 275 371 Q297 379 319 379 Q362 379 392.5 370 Q423 361 455 344 Q487 327 519 315 Q551 303 591 303 Q628 303 655 320.5 Q682 338 701 366 L742 339 Z " />
<glyph glyph-name="quoteleft" unicode="&#x2018;" horiz-adv-x="200" d="M138 545 L28 545 L103 773 L180 773 L138 545 Z " />
<glyph glyph-name="quoteright" unicode="&#x2019;" horiz-adv-x="200" d="M62 758 L172 758 L97 530 L20 530 L62 758 Z " />
<glyph glyph-name="quotedblleft" unicode="&#x201c;" horiz-adv-x="350" d="M286 545 L179 545 L254 773 L328 773 L286 545 Z M142 545 L35 545 L110 773 L184 773 L142 545 Z " />
<glyph glyph-name="quotedblright" unicode="&#x201d;" horiz-adv-x="350" d="M64 758 L171 758 L96 530 L22 530 L64 758 Z M208 758 L315 758 L240 530 L166 530 L208 758 Z " />
<glyph glyph-name="uni3014" unicode="&#x3014;" horiz-adv-x="344" d="M311 -91 L279 -146 L37 -12 L37 614 L279 749 L311 694 L104 578 L104 26 L311 -91 Z " />
<glyph glyph-name="uni3015" unicode="&#x3015;" horiz-adv-x="358" d="M313 -12 L72 -146 L40 -91 L246 25 L246 578 L40 694 L72 749 L313 614 L313 -12 Z " />
<glyph glyph-name="uni3008" unicode="&#x3008;" horiz-adv-x="467" d="M427 -98 L382 -133 L41 301 L381 735 L427 701 L112 301 L427 -98 Z " />
<glyph glyph-name="uni3009" unicode="&#x3009;" horiz-adv-x="477" d="M431 301 L91 -133 L44 -98 L359 301 L44 701 L90 735 L431 301 Z " />
<glyph glyph-name="uni300A" unicode="&#x300a;" horiz-adv-x="489" d="M459 -124 L412 -151 L150 301 L412 754 L459 726 L214 301 L459 -124 Z M338 -124 L290 -151 L29 301 L290 754 L338 726 L92 301 L338 -124 Z " />
<glyph glyph-name="uni300B" unicode="&#x300b;" horiz-adv-x="490" d="M457 301 L195 -151 L148 -124 L394 301 Q384 318 365 351.5 Q346 385 321.5 426.5 Q297 468 271 513.5 Q245 559 220.5 600.5 Q196 642 177 675.5 Q158 709 148 726 L195 754 L457 301 Z M335 301 L74 -151 L26 -124 L272 301 Q262 318 243 351.5 Q224 385 200 426.5 Q176 468 149.5 513.5 Q123 559 99 600.5 Q75 642 55.5 675.5 Q36 709 26 726 L74 754 L335 301 Z " />
<glyph glyph-name="uni300C" unicode="&#x300c;" horiz-adv-x="351" d="M326 701 L104 701 L104 334 L25 334 L25 769 L326 769 L326 701 Z " />
<glyph glyph-name="uni300D" unicode="&#x300d;" horiz-adv-x="351" d="M326 -167 L25 -167 L25 -99 L247 -99 L247 268 L326 268 L326 -167 Z " />
<glyph glyph-name="uni300E" unicode="&#x300e;" horiz-adv-x="371" d="M286 687 L286 719 L80 719 L80 383 L117 383 L117 687 L286 687 Z M338 638 L170 638 L170 334 L28 334 L28 769 L338 769 L338 638 Z " />
<glyph glyph-name="uni300F" unicode="&#x300f;" horiz-adv-x="366" d="M286 -117 L286 220 L248 220 L248 -84 L80 -84 L80 -117 L286 -117 Z M338 -166 L28 -166 L28 -35 L196 -35 L196 269 L338 269 L338 -166 Z " />
<glyph glyph-name="uni3010" unicode="&#x3010;" horiz-adv-x="374" d="M23 -130 L23 731 L360 731 Q306 696 261.5 649 Q217 602 185.5 546.5 Q154 491 137 428 Q120 365 120 299 Q120 233 137 171 Q154 109 185.5 53.5 Q217 -2 261.5 -48.5 Q306 -95 361 -130 L23 -130 Z " />
<glyph glyph-name="uni3011" unicode="&#x3011;" horiz-adv-x="382" d="M355 -131 L17 -131 Q71 -96 115.5 -49.5 Q160 -3 191.5 52.5 Q223 108 240.5 170.5 Q258 233 258 299 Q258 365 240.5 428 Q223 491 191.5 546.5 Q160 602 115.5 649 Q71 696 17 731 L355 731 L355 -131 Z " />
<glyph glyph-name="plusminus" unicode="&#xb1;" horiz-adv-x="610" d="M561 112 L561 28 L48 28 L48 112 L561 112 Z M345 650 L345 449 L552 449 L552 365 L345 365 L345 150 L255 150 L255 365 L48 365 L48 449 L255 449 L255 650 L345 650 Z " />
<glyph glyph-name="multiply" unicode="&#xd7;" horiz-adv-x="610" d="M248 318 L64 513 L118 566 L302 371 L486 566 L540 513 L356 318 L540 123 L486 70 L302 265 L118 70 L64 123 L248 318 Z " />
<glyph glyph-name="divide" unicode="&#xf7;" horiz-adv-x="610" d="M48 360 L552 360 L552 276 L48 276 L48 360 Z M250 565 L349 565 L349 468 L250 468 L250 565 Z M250 168 L349 168 L349 71 L250 71 L250 168 Z " />
<glyph glyph-name="notequal" unicode="&#x2260;" horiz-adv-x="610" d="M74 468 L355 468 L436 592 L516 592 L435 468 L536 468 L536 383 L379 383 L297 257 L536 257 L536 172 L241 172 L162 50 L82 50 L161 172 L74 172 L74 257 L217 257 L299 383 L74 383 L74 468 Z " />
<glyph glyph-name="lessequal" unicode="&#x2264;" horiz-adv-x="610" d="M541 151 L66 360 L66 445 L541 653 L541 562 L170 404 L170 403 L541 244 L541 151 Z M69 38 L69 119 L541 119 L541 38 L69 38 Z " />
<glyph glyph-name="greaterequal" unicode="&#x2265;" horiz-adv-x="610" d="M66 244 L437 403 L437 404 L66 562 L66 653 L541 445 L541 360 L66 151 L66 244 Z M66 38 L66 119 L538 119 L538 38 L66 38 Z " />
<glyph glyph-name="infinity" unicode="&#x221e;" horiz-adv-x="610" d="M154 222 Q173 222 188 229 Q203 236 216 247.5 Q229 259 241 273 Q253 287 268 302 Q257 314 246 328 Q235 342 221.5 354.5 Q208 367 192 375 Q176 383 156 383 Q118 383 97.5 361 Q77 339 77 302 Q77 266 97.5 244 Q118 222 154 222 Z M458 222 Q493 222 513.5 244 Q534 266 534 302 Q534 341 514.5 362 Q495 383 457 383 Q442 383 428.5 376.5 Q415 370 402.5 359 Q390 348 378 333.5 Q366 319 353 303 Q365 289 377.5 275 Q390 261 403 249 Q416 237 429.5 229.5 Q443 222 458 222 Z M454 158 Q429 158 409 167 Q389 176 371.5 190 Q354 204 339 222 Q324 240 310 258 Q293 237 276.5 218.5 Q260 200 241.5 186.5 Q223 173 200 165.5 Q177 158 149 158 Q84 158 46.5 196 Q9 234 9 302 Q9 333 19.5 359.5 Q30 386 49 405 Q68 424 95.5 435 Q123 446 157 446 Q186 446 207.5 438.5 Q229 431 246.5 417.5 Q264 404 279.5 386 Q295 368 312 348 Q328 365 342.5 382.5 Q357 400 373.5 414 Q390 428 411 437 Q432 446 462 446 Q526 446 563.5 408 Q601 370 601 302 Q601 271 591 245 Q581 219 562 199.5 Q543 180 515.5 169 Q488 158 454 158 Z " />
<glyph glyph-name="therefore" unicode="&#x2234;" horiz-adv-x="610" d="M188 133 Q188 105 168.5 85.5 Q149 66 121 66 Q94 66 74 85.5 Q54 105 54 133 Q54 159 74 179 Q94 199 121 199 Q149 199 168.5 179 Q188 159 188 133 Z M556 133 Q556 105 535.5 85.5 Q515 66 489 66 Q460 66 441 85.5 Q422 105 422 133 Q422 159 441 179 Q460 199 489 199 Q515 199 535.5 179 Q556 159 556 133 Z M366 505 Q366 478 346.5 457.5 Q327 437 300 437 Q273 437 252.5 457.5 Q232 478 232 505 Q232 532 252.5 551.5 Q273 571 300 571 Q327 571 346.5 551.5 Q366 532 366 505 Z " />
<glyph glyph-name="degree" unicode="&#xb0;" horiz-adv-x="312" d="M280 609 Q280 583 271 560.5 Q262 538 246 521.5 Q230 505 207 495 Q184 485 156 485 Q128 485 105 495 Q82 505 66 521.5 Q50 538 41 560.5 Q32 583 32 609 Q32 634 41 657 Q50 680 66 696.5 Q82 713 105 723 Q128 733 156 733 Q184 733 207 723 Q230 713 246 696.5 Q262 680 271 657 Q280 634 280 609 Z M219 609 Q219 636 202 655.5 Q185 675 156 675 Q127 675 110 655.5 Q93 636 93 609 Q93 582 110 562.5 Q127 543 156 543 Q185 543 202 562.5 Q219 582 219 609 Z " />
<glyph glyph-name="minute" unicode="&#x2032;" horiz-adv-x="428" d="M200 735 L308 735 L173 480 L120 480 L200 735 Z " />
<glyph glyph-name="second" unicode="&#x2033;" horiz-adv-x="595" d="M368 735 L475 735 L340 480 L288 480 L368 735 Z M200 735 L307 735 L172 480 L120 480 L200 735 Z " />
<glyph glyph-name="uni2103" unicode="&#x2103;" horiz-adv-x="833" d="M793 55 Q739 3 675 -17 Q611 -37 538 -37 Q473 -37 420 -17.5 Q367 2 329 42 Q291 82 270 141 Q249 200 249 280 L249 389 Q249 468 270 527 Q291 586 329.5 626 Q368 666 421 686 Q474 706 538 706 Q613 706 669 687.5 Q725 669 776 629 L725 548 Q676 588 631.5 601 Q587 614 538 614 Q497 614 462.5 600 Q428 586 402.5 557 Q377 528 363 483 Q349 438 349 376 L349 293 Q349 231 363 186 Q377 141 402.5 112 Q428 83 462.5 69 Q497 55 538 55 Q590 55 642 71 Q694 87 739 131 L793 55 Z M249 625 Q249 606 242 589 Q235 572 222 559.5 Q209 547 191 539.5 Q173 532 151 532 Q129 532 111 539.5 Q93 547 80 559.5 Q67 572 60 589 Q53 606 53 625 Q53 644 60 661 Q67 678 80 690.5 Q93 703 111 710.5 Q129 718 151 718 Q173 718 191 710.5 Q209 703 222 690.5 Q235 678 242 661 Q249 644 249 625 Z M107 624 Q107 604 119 591 Q131 578 151 578 Q171 578 182.5 591 Q194 604 194 624 Q194 644 182.5 657.5 Q171 671 151 671 Q131 671 119 657.5 Q107 644 107 624 Z " />
<glyph glyph-name="uni212B" unicode="&#x212b;" horiz-adv-x="673" d="M434 713 Q434 693 425.5 675 Q417 657 403 644 L653 -26 L549 -26 L473 186 L197 186 L121 -26 L20 -26 L268 643 Q254 656 245.5 674.5 Q237 693 237 713 Q237 752 265 780 Q293 808 335 808 Q378 808 406 780 Q434 752 434 713 Z M227 271 L443 271 L383 440 Q375 462 369 478.5 Q363 495 358 510.5 Q353 526 347.5 543 Q342 560 335 585 Q327 560 322 542.5 Q317 525 312 510 Q307 495 301.5 478.5 Q296 462 288 440 L227 271 Z M335 663 Q358 663 371.5 676.5 Q385 690 385 713 Q385 736 371.5 750 Q358 764 335 764 Q313 764 299.5 750 Q286 736 286 713 Q286 690 299.5 676.5 Q313 663 335 663 Z " />
<glyph glyph-name="&amp;#xa2;" unicode="&#xa2;" horiz-adv-x="509" d="M263 695 L318 695 L318 601 Q369 596 404.5 580.5 Q440 565 469 543 L423 473 Q394 493 369 503 Q344 513 318 517 L318 153 Q356 158 384 170.5 Q412 183 436 201 L483 130 Q458 109 418 91 Q378 73 318 68 L318 -26 L263 -26 L263 67 Q159 72 101.5 133.5 Q44 195 44 307 L44 367 Q44 478 104 537.5 Q164 597 263 602 L263 695 Z M140 308 Q140 267 150 238.5 Q160 210 177 191.5 Q194 173 216.5 163.5 Q239 154 263 152 L263 518 Q238 516 216 506.5 Q194 497 177 479 Q160 461 150 434 Q140 407 140 368 L140 308 Z " />
<glyph glyph-name="&amp;#xffe0;" unicode="&#xffe0;" horiz-adv-x="509" d="M263 695 L318 695 L318 601 Q369 596 404.5 580.5 Q440 565 469 543 L423 473 Q394 493 369 503 Q344 513 318 517 L318 153 Q356 158 384 170.5 Q412 183 436 201 L483 130 Q458 109 418 91 Q378 73 318 68 L318 -26 L263 -26 L263 67 Q159 72 101.5 133.5 Q44 195 44 307 L44 367 Q44 478 104 537.5 Q164 597 263 602 L263 695 Z M140 308 Q140 267 150 238.5 Q160 210 177 191.5 Q194 173 216.5 163.5 Q239 154 263 152 L263 518 Q238 516 216 506.5 Q194 497 177 479 Q160 461 150 434 Q140 407 140 368 L140 308 Z " />
<glyph glyph-name="&amp;#xa3;" unicode="&#xa3;" horiz-adv-x="531" d="M53 372 L123 372 L123 464 Q123 526 141.5 572 Q160 618 191.5 648 Q223 678 265.5 692.5 Q308 707 357 707 Q405 707 443.5 696.5 Q482 686 504 672 L471 591 Q443 605 418 610.5 Q393 616 364 616 Q336 616 310 609 Q284 602 264.5 584 Q245 566 233.5 536 Q222 506 222 460 L222 372 L427 372 L427 302 L222 302 L222 234 Q222 199 219.5 173.5 Q217 148 211 128 Q205 108 194.5 92 Q184 76 167 61 L167 59 L511 59 L511 -26 L38 -26 L38 44 Q61 57 77 74 Q93 91 103.5 113 Q114 135 118.5 163.5 Q123 192 123 229 L123 302 L53 302 L53 372 Z " />
<glyph glyph-name="&amp;#xffe1;" unicode="&#xffe1;" horiz-adv-x="531" d="M53 372 L123 372 L123 464 Q123 526 141.5 572 Q160 618 191.5 648 Q223 678 265.5 692.5 Q308 707 357 707 Q405 707 443.5 696.5 Q482 686 504 672 L471 591 Q443 605 418 610.5 Q393 616 364 616 Q336 616 310 609 Q284 602 264.5 584 Q245 566 233.5 536 Q222 506 222 460 L222 372 L427 372 L427 302 L222 302 L222 234 Q222 199 219.5 173.5 Q217 148 211 128 Q205 108 194.5 92 Q184 76 167 61 L167 59 L511 59 L511 -26 L38 -26 L38 44 Q61 57 77 74 Q93 91 103.5 113 Q114 135 118.5 163.5 Q123 192 123 229 L123 302 L53 302 L53 372 Z " />
<glyph glyph-name="&amp;#xa5;" unicode="&#xa5;" horiz-adv-x="580" d="M244 117 L77 117 L77 192 L244 192 L244 245 L77 245 L77 320 L226 320 L20 688 L123 688 L292 369 L297 369 L466 688 L560 688 L354 320 L505 320 L505 245 L337 245 L337 192 L505 192 L505 117 L337 117 L337 -26 L244 -26 L244 117 Z " />
<glyph glyph-name="&amp;#xffe5;" unicode="&#xffe5;" horiz-adv-x="580" d="M244 117 L77 117 L77 192 L244 192 L244 245 L77 245 L77 320 L226 320 L20 688 L123 688 L292 369 L297 369 L466 688 L560 688 L354 320 L505 320 L505 245 L337 245 L337 192 L505 192 L505 117 L337 117 L337 -26 L244 -26 L244 117 Z " />
<glyph glyph-name="male" unicode="&#x2642;" horiz-adv-x="776" d="M123 262 Q123 220 138.5 182 Q154 144 181 115.5 Q208 87 245 70.5 Q282 54 326 54 Q368 54 405 70.5 Q442 87 469.5 115.5 Q497 144 513 182 Q529 220 529 262 Q529 304 513 342 Q497 380 469.5 408.5 Q442 437 405 453.5 Q368 470 326 470 Q282 470 245 453.5 Q208 437 181 408.5 Q154 380 138.5 342 Q123 304 123 262 Z M49 262 Q49 319 70.5 369.5 Q92 420 129.5 457.5 Q167 495 217.5 517 Q268 539 326 539 Q375 539 417.5 524 Q460 509 496 481 L611 595 L506 595 L506 663 L728 663 L728 442 L659 442 L659 548 L544 432 Q572 397 587.5 354 Q603 311 603 262 Q603 205 581 154.5 Q559 104 521.5 66.5 Q484 29 433.5 7 Q383 -15 326 -15 Q268 -15 217.5 7 Q167 29 129.5 66.5 Q92 104 70.5 154.5 Q49 205 49 262 Z " />
<glyph glyph-name="female" unicode="&#x2640;" horiz-adv-x="652" d="M123 462 Q123 420 138.5 382 Q154 344 181 315.5 Q208 287 245 270.5 Q282 254 326 254 Q368 254 405 270.5 Q442 287 469.5 315.5 Q497 344 513 382 Q529 420 529 462 Q529 504 513 542 Q497 580 469.5 608.5 Q442 637 405 653.5 Q368 670 326 670 Q282 670 245 653.5 Q208 637 181 608.5 Q154 580 138.5 542 Q123 504 123 462 Z M290 187 Q239 194 195 217.5 Q151 241 118.5 277.5 Q86 314 67.5 361 Q49 408 49 462 Q49 519 70.5 569.5 Q92 620 129.5 657.5 Q167 695 217.5 717 Q268 739 326 739 Q383 739 433.5 717 Q484 695 521.5 657.5 Q559 620 581 569.5 Q603 519 603 462 Q603 408 584.5 360.5 Q566 313 533 276.5 Q500 240 456 216.5 Q412 193 361 187 L361 59 L502 59 L502 -10 L361 -10 L361 -149 L290 -149 L290 -10 L149 -10 L149 59 L290 59 L290 187 Z " />
<glyph glyph-name="angle" unicode="&#x2220;" horiz-adv-x="910" d="M760 0 L149 0 L149 49 L620 598 L676 551 L259 70 L760 70 L760 0 Z " />
<glyph glyph-name="perpendicular" unicode="&#x22a5;" horiz-adv-x="910" d="M774 0 L136 0 L136 71 L418 71 L418 575 L491 575 L491 71 L774 71 L774 0 Z " />
<glyph glyph-name="uni2312" unicode="&#x2312;" horiz-adv-x="910" d="M646 574 Q621 620 574 652 Q527 684 456 684 Q384 684 336.5 652 Q289 620 263 574 L191 574 Q229 646 293 691 Q357 736 454 736 Q552 736 615.5 691 Q679 646 718 574 L646 574 Z " />
<glyph glyph-name="partialdiff" unicode="&#x2202;" horiz-adv-x="532" d="M234 63 Q267 63 295 80.5 Q323 98 344 127.5 Q365 157 379 195.5 Q393 234 398 276 Q391 294 378.5 311.5 Q366 329 348 342 Q330 355 307.5 363 Q285 371 259 371 Q230 371 204 358 Q178 345 158.5 322.5 Q139 300 128 268.5 Q117 237 117 201 Q117 136 150 99.5 Q183 63 234 63 Z M57 673 Q83 690 125.5 708.5 Q168 727 231 727 Q283 727 331.5 703.5 Q380 680 416.5 635 Q453 590 475 524 Q497 458 497 372 Q497 277 474.5 205 Q452 133 414.5 85 Q377 37 328 13 Q279 -11 225 -11 Q174 -11 136.5 7 Q99 25 74 54.5 Q49 84 37 121.5 Q25 159 25 199 Q25 250 42 294.5 Q59 339 88 372.5 Q117 406 157 425 Q197 444 244 444 Q275 444 301.5 436 Q328 428 348.5 415 Q369 402 384 387 Q399 372 407 357 L408 357 Q409 365 409 373 Q409 381 409 389 Q409 454 393.5 503 Q378 552 352 585 Q326 618 292.5 634.5 Q259 651 224 651 Q176 651 142.5 638 Q109 625 86 611 L57 673 Z " />
<glyph glyph-name="gradient" unicode="&#x2207;" horiz-adv-x="910" d="M849 599 L455 -25 L61 599 L849 599 Z M737 540 L172 540 L455 87 L737 540 Z " />
<glyph glyph-name="equivalence" unicode="&#x2261;" horiz-adv-x="610" d="M45 284 L45 346 L564 346 L564 284 L45 284 Z M45 435 L45 496 L564 496 L564 435 L45 435 Z M45 133 L45 194 L564 194 L564 133 L45 133 Z " />
<glyph glyph-name="uni2252" unicode="&#x2252;" horiz-adv-x="610" d="M372 86 Q372 112 390.5 130.5 Q409 149 435 149 Q461 149 479 130.5 Q497 112 497 86 Q497 60 479 41.5 Q461 23 435 23 Q409 23 390.5 41.5 Q372 60 372 86 Z M110 538 Q110 564 128.5 582.5 Q147 601 172 601 Q198 601 216.5 582.5 Q235 564 235 538 Q235 512 216.5 494 Q198 476 172 476 Q147 476 128.5 494 Q110 512 110 538 Z M45 425 L564 425 L564 363 L45 363 L45 425 Z M45 264 L564 264 L564 201 L45 201 L45 264 Z " />
<glyph glyph-name="section" unicode="&#xa7;" horiz-adv-x="518" d="M202 379 Q160 371 139 349 Q118 327 118 292 Q118 254 137 233.5 Q156 213 203 199 L313 165 Q355 174 376 197 Q397 220 397 253 Q397 272 392.5 286 Q388 300 377 311 Q366 322 348 331 Q330 340 303 348 L202 379 Z M239 -161 Q184 -161 143 -151 Q102 -141 68 -121 L68 -47 Q86 -54 102.5 -60.5 Q119 -67 138 -72 Q157 -77 178.5 -80 Q200 -83 229 -83 Q293 -83 323.5 -61 Q354 -39 354 2 Q354 21 350 34 Q346 47 336 57 Q326 67 309 75 Q292 83 265 91 L175 119 Q144 129 117.5 142.5 Q91 156 71.5 175.5 Q52 195 41 221.5 Q30 248 30 284 Q30 336 55.5 367 Q81 398 128 415 Q105 435 91.5 464 Q78 493 78 536 Q78 609 129 655 Q180 701 280 701 Q336 701 368.5 690 Q401 679 426 666 L426 592 Q403 603 366.5 613 Q330 623 282 623 Q228 623 197 603.5 Q166 584 166 546 Q166 527 169 513.5 Q172 500 180 490 Q188 480 201.5 472.5 Q215 465 237 458 L336 427 Q373 415 401.5 402 Q430 389 449.5 370 Q469 351 478.5 324.5 Q488 298 488 260 Q488 206 462 175 Q436 144 391 127 Q419 107 432.5 79 Q446 51 446 10 Q446 -73 391.5 -117 Q337 -161 239 -161 Z " />
<glyph glyph-name="uni203B" unicode="&#x203b;" horiz-adv-x="910" d="M499 306 L827 -11 L771 -65 L448 256 Q367 175 287 95.5 Q207 16 126 -65 L72 -12 Q153 68 235 146.5 Q317 225 398 305 L74 624 L125 679 L448 356 L773 679 L824 625 L499 306 Z M224 304 Q224 289 218 275.5 Q212 262 201 251.5 Q190 241 175.5 234.5 Q161 228 145 228 Q130 228 116 234 Q102 240 90.5 250.5 Q79 261 72.5 275 Q66 289 66 304 Q66 320 72.5 334.5 Q79 349 90 359.5 Q101 370 115 376 Q129 382 144 382 Q160 382 174.5 376 Q189 370 200 359.5 Q211 349 217.5 334.5 Q224 320 224 304 Z M523 606 Q523 591 516.5 577 Q510 563 499.5 552.5 Q489 542 475 535.5 Q461 529 445 529 Q429 529 415 535.5 Q401 542 390 552.5 Q379 563 372.5 577 Q366 591 366 606 Q366 638 389 660.5 Q412 683 444 683 Q460 683 474.5 677 Q489 671 499.5 660.5 Q510 650 516.5 636 Q523 622 523 606 Z M843 304 Q843 289 836.5 275.5 Q830 262 819.5 251.5 Q809 241 794.5 235 Q780 229 764 229 Q749 229 734.5 235 Q720 241 709.5 251.5 Q699 262 692.5 275.5 Q686 289 686 304 Q686 337 709 359.5 Q732 382 763 382 Q795 382 819 359.5 Q843 337 843 304 Z M523 -6 Q523 -36 500.5 -58.5 Q478 -81 445 -81 Q429 -81 415 -75 Q401 -69 390.5 -58.5 Q380 -48 373.5 -34.5 Q367 -21 367 -6 Q367 26 389.5 48.5 Q412 71 444 71 Q476 71 499.5 48.5 Q523 26 523 -6 Z " />
<glyph glyph-name="uni2606" unicode="&#x2606;" horiz-adv-x="910" d="M456 604 L384 387 L151 387 L338 248 L265 30 L456 163 L642 30 L574 248 L759 387 L529 387 L456 604 Z M566 436 L906 436 L630 231 L734 -94 L457 102 L175 -94 L281 231 L3 436 L349 436 L457 758 L566 436 Z " />
<glyph glyph-name="uni2605" unicode="&#x2605;" horiz-adv-x="910" d="M566 436 L906 436 L630 231 L734 -94 L457 102 L175 -94 L281 231 L3 436 L349 436 L457 758 L566 436 Z " />
<glyph glyph-name="circle" unicode="&#x25cb;" horiz-adv-x="910" d="M156 334 Q156 272 179.5 217.5 Q203 163 243.5 122.5 Q284 82 338.5 58.5 Q393 35 455 35 Q518 35 572.5 58.5 Q627 82 667.5 122.5 Q708 163 731 217.5 Q754 272 754 334 Q754 396 731 450.5 Q708 505 667.5 545.5 Q627 586 572.5 609.5 Q518 633 455 633 Q393 633 338.5 609.5 Q284 586 243.5 545.5 Q203 505 179.5 450.5 Q156 396 156 334 Z M93 334 Q93 409 121.5 474.5 Q150 540 199 589.5 Q248 639 314 667.5 Q380 696 455 696 Q530 696 596 667.5 Q662 639 711 589.5 Q760 540 788.5 474.5 Q817 409 817 334 Q817 259 788.5 192.5 Q760 126 711 77 Q662 28 596 -0.5 Q530 -29 455 -29 Q380 -29 314 -0.5 Q248 28 199 77 Q150 126 121.5 192.5 Q93 259 93 334 Z " />
<glyph glyph-name="H18533" unicode="&#x25cf;" horiz-adv-x="910" d="M93 334 Q93 409 121.5 474.5 Q150 540 199 589.5 Q248 639 314 667.5 Q380 696 455 696 Q530 696 596 667.5 Q662 639 711 589.5 Q760 540 788.5 474.5 Q817 409 817 334 Q817 259 788.5 192.5 Q760 126 711 77 Q662 28 596 -0.5 Q530 -29 455 -29 Q380 -29 314 -0.5 Q248 28 199 77 Q150 126 121.5 192.5 Q93 259 93 334 Z " />
<glyph glyph-name="uni25CE" unicode="&#x25ce;" horiz-adv-x="910" d="M299 334 Q299 302 311.5 273.5 Q324 245 345 224 Q366 203 394.5 190.5 Q423 178 455 178 Q487 178 515.5 190.5 Q544 203 565 224 Q586 245 598.5 273.5 Q611 302 611 334 Q611 365 598.5 393.5 Q586 422 565 443.5 Q544 465 515.5 477.5 Q487 490 455 490 Q423 490 394.5 477.5 Q366 465 345 443.5 Q324 422 311.5 393.5 Q299 365 299 334 Z M240 334 Q240 378 257 417 Q274 456 303 485.5 Q332 515 371 532 Q410 549 455 549 Q500 549 539 532 Q578 515 607 485.5 Q636 456 653 417 Q670 378 670 334 Q670 289 653 250 Q636 211 607 182 Q578 153 539 136 Q500 119 455 119 Q410 119 371 136 Q332 153 303 182 Q274 211 257 250 Q240 289 240 334 Z M158 334 Q158 272 181.5 218 Q205 164 245 124 Q285 84 339 60.5 Q393 37 455 37 Q517 37 571.5 60.5 Q626 84 666.5 124 Q707 164 730 218 Q753 272 753 334 Q753 395 730 449.5 Q707 504 666.5 544.5 Q626 585 571.5 608.5 Q517 632 455 632 Q393 632 339 608.5 Q285 585 245 544.5 Q205 504 181.5 449.5 Q158 395 158 334 Z M93 334 Q93 409 121.5 474.5 Q150 540 199 589.5 Q248 639 314 667.5 Q380 696 455 696 Q530 696 596 667.5 Q662 639 711 589.5 Q760 540 788.5 474.5 Q817 409 817 334 Q817 259 788.5 192.5 Q760 126 711 77 Q662 28 596 -0.5 Q530 -29 455 -29 Q380 -29 314 -0.5 Q248 28 199 77 Q150 126 121.5 192.5 Q93 259 93 334 Z " />
<glyph glyph-name="uni25C7" unicode="&#x25c7;" horiz-adv-x="910" d="M455 635 L152 334 L455 30 L756 333 L455 635 Z M455 726 L847 333 L455 -60 L62 333 L455 726 Z " />
<glyph glyph-name="uni25C6" unicode="&#x25c6;" horiz-adv-x="910" d="M62 334 L455 726 L848 333 L456 -60 L62 334 Z " />
<glyph glyph-name="H22073" unicode="&#x25a1;" horiz-adv-x="910" d="M172 617 L172 51 L739 51 L739 617 L172 617 Z M108 680 L802 680 L802 -14 L108 -14 L108 680 Z " />
<glyph glyph-name="filledbox" unicode="&#x25a0;" horiz-adv-x="910" d="M107 -14 L107 680 L802 680 L802 -14 L107 -14 Z " />
<glyph glyph-name="uni25B3" unicode="&#x25b3;" horiz-adv-x="910" d="M727 9 L453 557 L178 9 L727 9 Z M83 -48 L455 690 L826 -48 L83 -48 Z " />
<glyph glyph-name="triagup" unicode="&#x25b2;" horiz-adv-x="910" d="M84 -53 L455 685 L825 -53 L84 -53 Z " />
<glyph glyph-name="uni25BD" unicode="&#x25bd;" horiz-adv-x="910" d="M180 605 L455 57 L729 605 L180 605 Z M826 663 L455 -75 L83 663 L826 663 Z " />
<glyph glyph-name="triagdn" unicode="&#x25bc;" horiz-adv-x="910" d="M825 663 L455 -75 L84 663 L825 663 Z " />
<glyph glyph-name="arrowright" unicode="&#x2192;" horiz-adv-x="910" d="M104 373 L657 373 L582 500 L597 517 L805 344 L597 171 L582 188 L657 314 L104 314 L104 373 Z " />
<glyph glyph-name="arrowleft" unicode="&#x2190;" horiz-adv-x="910" d="M805 314 L252 314 L327 188 L312 171 L104 344 L312 517 L327 500 L252 373 L805 373 L805 314 Z " />
<glyph glyph-name="arrowup" unicode="&#x2191;" horiz-adv-x="910" d="M426 0 L426 553 L299 478 L282 493 L455 701 L628 493 L611 478 L484 553 L484 0 L426 0 Z " />
<glyph glyph-name="arrowdown" unicode="&#x2193;" horiz-adv-x="910" d="M484 687 L484 135 L611 209 L628 194 L455 -14 L282 194 L299 209 L426 135 L426 687 L484 687 Z " />
<glyph glyph-name="arrowboth" unicode="&#x2194;" horiz-adv-x="910" d="M282 188 L267 171 L59 344 L267 517 L282 500 L207 373 L703 373 L628 500 L643 517 L851 344 L643 171 L628 188 L703 314 L207 314 L282 188 Z " />
<glyph glyph-name="uni3013" unicode="&#x3013;" horiz-adv-x="910" d="M779 391 L131 391 L131 429 L779 429 L779 391 Z M779 195 L131 195 L131 233 L779 233 L779 195 Z " />
<glyph glyph-name="&amp;#xab;" unicode="&#xab;" horiz-adv-x="910" d="M816 17 L785 -34 L303 280 L303 325 L777 649 L814 600 L378 303 L816 17 Z M608 14 L574 -38 L94 280 L94 325 L567 653 L603 602 L169 302 L608 14 Z " />
<glyph glyph-name="&amp;#x226a;" unicode="&#x226a;" horiz-adv-x="910" d="M816 17 L785 -34 L303 280 L303 325 L777 649 L814 600 L378 303 L816 17 Z M608 14 L574 -38 L94 280 L94 325 L567 653 L603 602 L169 302 L608 14 Z " />
<glyph glyph-name="&amp;#xbb;" unicode="&#xbb;" horiz-adv-x="910" d="M816 280 L336 -38 L303 14 L741 302 L307 602 L344 653 L816 325 L816 280 Z M608 280 L126 -34 L94 17 L532 302 L97 600 L134 649 L608 325 L608 280 Z " />
<glyph glyph-name="&amp;#x226b;" unicode="&#x226b;" horiz-adv-x="910" d="M816 280 L336 -38 L303 14 L741 302 L307 602 L344 653 L816 325 L816 280 Z M608 280 L126 -34 L94 17 L532 302 L97 600 L134 649 L608 325 L608 280 Z " />
<glyph glyph-name="radical" unicode="&#x221a;" horiz-adv-x="562" d="M350 -122 L284 -122 L125 305 L50 274 L31 322 L171 380 L312 -27 L314 -27 L512 800 L580 800 L350 -122 Z " />
<glyph glyph-name="uni223D" unicode="&#x223d;" horiz-adv-x="910" d="M829 316 Q829 278 815.5 243.5 Q802 209 777.5 183 Q753 157 719.5 141.5 Q686 126 646 126 Q614 126 583.5 137.5 Q553 149 524 171 L556 223 Q600 191 646 191 Q671 191 692.5 200.5 Q714 210 729.5 227 Q745 244 753.5 266.5 Q762 289 762 316 Q762 339 753.5 361 Q745 383 730 400.5 Q715 418 694 428.5 Q673 439 647 439 Q593 439 557 404.5 Q521 370 487 306 Q475 283 457.5 252 Q440 221 413.5 193.5 Q387 166 350 146.5 Q313 127 262 127 Q228 127 195.5 139 Q163 151 137.5 174.5 Q112 198 96.5 233.5 Q81 269 81 316 Q81 361 96 396 Q111 431 136.5 454.5 Q162 478 194 490.5 Q226 503 261 503 Q296 503 327 491 Q358 479 386 461 L353 408 Q332 421 310.5 429 Q289 437 268 437 Q214 437 181.5 403.5 Q149 370 149 316 Q149 261 179.5 227.5 Q210 194 267 194 Q303 194 330.5 210.5 Q358 227 379 250.5 Q400 274 415 301 Q430 328 441 349 Q456 379 475.5 407 Q495 435 520 456 Q545 477 576 490 Q607 503 645 503 Q685 503 719 487.5 Q753 472 777.5 446 Q802 420 815.5 386.5 Q829 353 829 316 Z " />
<glyph glyph-name="proportional" unicode="&#x221d;" horiz-adv-x="910" d="M301 194 Q331 194 355 205 Q379 216 398 233.5 Q417 251 431.5 272.5 Q446 294 457 315 Q446 335 431 356.5 Q416 378 397 396 Q378 414 354.5 425.5 Q331 437 301 437 Q247 437 215 403 Q183 369 183 316 Q183 260 213.5 227 Q244 194 301 194 Z M761 407 Q741 421 720 430 Q699 439 679 439 Q627 439 592 406 Q557 373 525 315 Q556 256 591.5 223.5 Q627 191 679 191 Q696 191 716 197 Q736 203 755 213 L782 157 Q729 126 679 126 Q647 126 619 136.5 Q591 147 567.5 164 Q544 181 524.5 204 Q505 227 490 251 Q476 229 459 207 Q442 185 419 167 Q396 149 366 138 Q336 127 298 127 Q264 127 231 139 Q198 151 172 174.5 Q146 198 130 233.5 Q114 269 114 316 Q114 361 129.5 396 Q145 431 171 454.5 Q197 478 229.5 490.5 Q262 503 297 503 Q335 503 365 492 Q395 481 418 463 Q441 445 458.5 422.5 Q476 400 490 378 Q505 403 524 425.5 Q543 448 566.5 465 Q590 482 618 492.5 Q646 503 679 503 Q708 503 737.5 491.5 Q767 480 795 460 L761 407 Z " />
<glyph glyph-name="uni2235" unicode="&#x2235;" horiz-adv-x="586" d="M408 506 Q408 532 428 551.5 Q448 571 474 571 Q503 571 521 551.5 Q539 532 539 506 Q539 479 521 460 Q503 441 474 441 Q448 441 428 460 Q408 479 408 506 Z M44 506 Q44 532 63.5 551.5 Q83 571 109 571 Q138 571 156.5 551.5 Q175 532 175 506 Q175 479 156.5 460 Q138 441 109 441 Q83 441 63.5 460 Q44 479 44 506 Z M227 126 Q227 155 246 173.5 Q265 192 292 192 Q320 192 339 173.5 Q358 155 358 126 Q358 100 339 80.5 Q320 61 292 61 Q265 61 246 80.5 Q227 100 227 126 Z " />
<glyph glyph-name="integral" unicode="&#x222b;" horiz-adv-x="318" d="M297 715 Q290 717 282 718 Q274 719 266 719 Q253 719 240.5 713.5 Q228 708 220 697 Q206 678 199.5 642.5 Q193 607 193 541 Q193 486 195 427.5 Q197 369 199 309 Q201 249 203 189 Q205 129 205 72 Q205 -1 192.5 -46.5 Q180 -92 162 -116 Q145 -141 119.5 -153.5 Q94 -166 65 -166 Q48 -166 32.5 -163 Q17 -160 10 -155 L21 -96 Q29 -98 37.5 -99.5 Q46 -101 57 -101 Q83 -101 102 -81 Q114 -65 122.5 -32 Q131 1 131 72 Q131 129 129 190 Q127 251 125 312 Q123 373 121 432.5 Q119 492 119 547 Q119 623 132 669 Q145 715 173 744 Q190 764 213.5 772.5 Q237 781 263 781 Q292 781 308 774 L297 715 Z " />
<glyph glyph-name="uni222C" unicode="&#x222c;" horiz-adv-x="555" d="M525 715 Q518 717 510.5 718 Q503 719 495 719 Q481 719 469 713.5 Q457 708 449 697 Q434 678 427.5 642.5 Q421 607 421 541 Q421 486 423 427.5 Q425 369 427 309 Q429 249 431 189 Q433 129 433 72 Q433 -1 421 -46.5 Q409 -92 390 -116 Q373 -141 347.5 -153.5 Q322 -166 293 -166 Q276 -166 261 -163 Q246 -160 238 -155 L250 -96 Q257 -98 266 -99.5 Q275 -101 286 -101 Q298 -101 309.5 -96.5 Q321 -92 330 -81 Q343 -65 351.5 -32 Q360 1 360 72 Q360 129 358 190 Q356 251 353.5 312 Q351 373 349 432.5 Q347 492 347 547 Q347 623 360.5 669 Q374 715 401 744 Q419 764 442 772.5 Q465 781 491 781 Q505 781 517 779 Q529 777 537 774 L525 715 Z M297 715 Q290 717 282 718 Q274 719 266 719 Q253 719 240.5 713.5 Q228 708 220 697 Q206 678 199.5 642.5 Q193 607 193 541 Q193 486 195 427.5 Q197 369 199 309 Q201 249 203 189 Q205 129 205 72 Q205 -1 192.5 -46.5 Q180 -92 162 -116 Q145 -141 119.5 -153.5 Q94 -166 65 -166 Q48 -166 32.5 -163 Q17 -160 10 -155 L21 -96 Q29 -98 37.5 -99.5 Q46 -101 57 -101 Q83 -101 102 -81 Q114 -65 122.5 -32 Q131 1 131 72 Q131 129 129 190 Q127 251 125 312 Q123 373 121 432.5 Q119 492 119 547 Q119 623 132 669 Q145 715 173 744 Q190 764 213.5 772.5 Q237 781 263 781 Q292 781 308 774 L297 715 Z " />
<glyph glyph-name="element" unicode="&#x2208;" horiz-adv-x="910" d="M795 282 L193 282 Q198 251 212 225 Q226 199 250.5 180 Q275 161 310.5 150.5 Q346 140 395 140 L797 140 L797 67 L399 67 Q325 67 270.5 87 Q216 107 181 141 Q146 175 129 221 Q112 267 112 319 Q112 368 128 411.5 Q144 455 178.5 487.5 Q213 520 266.5 539 Q320 558 395 558 L797 558 L797 485 L395 485 Q347 485 311.5 475 Q276 465 251.5 447 Q227 429 213 405.5 Q199 382 194 355 L795 355 L795 282 Z " />
<glyph glyph-name="suchthat" unicode="&#x220b;" horiz-adv-x="910" d="M114 355 L714 355 Q708 382 694 405.5 Q680 429 656 446.5 Q632 464 597.5 474 Q563 484 515 484 L112 484 L112 558 L515 558 Q590 558 643 539 Q696 520 730.5 487.5 Q765 455 781 411.5 Q797 368 797 319 Q797 267 780 221.5 Q763 176 727.5 141.5 Q692 107 638 87 Q584 67 510 67 L112 67 L112 141 L515 141 Q611 141 658.5 180.5 Q706 220 715 282 L114 282 L114 355 Z " />
<glyph glyph-name="reflexsubset" unicode="&#x2286;" horiz-adv-x="910" d="M795 -11 L148 -11 L148 63 L795 63 L795 -11 Z M797 537 L395 537 Q339 537 300 525 Q261 513 237 492.5 Q213 472 202 444 Q191 416 191 384 Q191 349 202 319.5 Q213 290 237.5 269 Q262 248 301 236 Q340 224 395 224 L797 224 L797 150 L399 150 Q325 150 270.5 168 Q216 186 181 218 Q146 250 129 293.5 Q112 337 112 387 Q112 434 128 475 Q144 516 178.5 546 Q213 576 266.5 593.5 Q320 611 395 611 L797 611 L797 537 Z " />
<glyph glyph-name="reflexsuperset" unicode="&#x2287;" horiz-adv-x="910" d="M112 611 L515 611 Q590 611 643 593.5 Q696 576 730.5 546 Q765 516 781 475 Q797 434 797 387 Q797 337 780 293.5 Q763 250 727.5 218 Q692 186 638 168 Q584 150 510 150 L112 150 L112 224 L515 224 Q570 224 608.5 236 Q647 248 671.5 269 Q696 290 707 319.5 Q718 349 718 384 Q718 416 707.5 444 Q697 472 673 492.5 Q649 513 610 525 Q571 537 515 537 L112 537 L112 611 Z M114 63 L761 63 L761 -11 L114 -11 L114 63 Z " />
<glyph glyph-name="propersubset" unicode="&#x2282;" horiz-adv-x="910" d="M797 481 L395 481 Q339 481 300 467.5 Q261 454 237 431.5 Q213 409 202 379 Q191 349 191 316 Q191 279 202 247.5 Q213 216 237.5 193 Q262 170 301 157 Q340 144 395 144 L797 144 L797 70 L399 70 Q325 70 270.5 89.5 Q216 109 181 142.5 Q146 176 129 221.5 Q112 267 112 319 Q112 368 128 411 Q144 454 178.5 486 Q213 518 266.5 536.5 Q320 555 395 555 L797 555 L797 481 Z " />
<glyph glyph-name="propersuperset" unicode="&#x2283;" horiz-adv-x="910" d="M112 555 L515 555 Q590 555 643 536.5 Q696 518 730.5 486 Q765 454 781 411 Q797 368 797 319 Q797 267 780 221.5 Q763 176 727.5 142.5 Q692 109 638 89.5 Q584 70 510 70 L112 70 L112 144 L515 144 Q570 144 608.5 157 Q647 170 671.5 193 Q696 216 707 247.5 Q718 279 718 316 Q718 349 707.5 379 Q697 409 673 431.5 Q649 454 610 467.5 Q571 481 515 481 L112 481 L112 555 Z " />
<glyph glyph-name="union" unicode="&#x222a;" horiz-adv-x="910" d="M286 636 L286 233 Q286 177 299.5 137.5 Q313 98 335.5 73.5 Q358 49 388 37.5 Q418 26 451 26 Q488 26 519.5 38 Q551 50 574 75 Q597 100 610 139 Q623 178 623 233 L623 636 L701 636 L701 238 Q701 164 681 109.5 Q661 55 626.5 20 Q592 -15 546 -32 Q500 -49 448 -49 Q399 -49 355.5 -33 Q312 -17 279 17.5 Q246 52 227 105 Q208 158 208 233 L208 636 L286 636 Z " />
<glyph glyph-name="intersection" unicode="&#x2229;" horiz-adv-x="910" d="M455 636 Q507 636 552 619 Q597 602 630 566.5 Q663 531 681.5 477 Q700 423 700 349 L700 -49 L622 -49 L622 354 Q622 409 609.5 448.5 Q597 488 575 513.5 Q553 539 522.5 551.5 Q492 564 455 564 Q418 564 387 551.5 Q356 539 334 513.5 Q312 488 299.5 448.5 Q287 409 287 354 L287 -49 L209 -49 L209 349 Q209 423 227.5 477 Q246 531 279 566.5 Q312 602 357 619 Q402 636 455 636 Z " />
<glyph glyph-name="logicaland" unicode="&#x2227;" horiz-adv-x="910" d="M776 23 L719 -5 L455 505 L190 -5 L133 23 L427 591 L482 591 L776 23 Z " />
<glyph glyph-name="logicalor" unicode="&#x2228;" horiz-adv-x="910" d="M776 571 L482 3 L427 3 L133 571 L190 599 L455 88 L719 599 L776 571 Z " />
<glyph glyph-name="&amp;#xac;" unicode="&#xac;" horiz-adv-x="910" d="M882 -154 L820 -154 L820 100 L27 100 L27 161 L882 161 L882 -154 Z " />
<glyph glyph-name="&amp;#xffe2;" unicode="&#xffe2;" horiz-adv-x="910" d="M882 -154 L820 -154 L820 100 L27 100 L27 161 L882 161 L882 -154 Z " />
<glyph glyph-name="arrowdblright" unicode="&#x21d2;" horiz-adv-x="910" d="M910 299 L646 33 L608 71 L720 182 L0 182 L0 234 L771 234 L837 299 L771 365 L0 365 L0 417 L719 417 L608 527 L646 564 L910 299 Z " />
<glyph glyph-name="arrowdblboth" unicode="&#x21d4;" horiz-adv-x="910" d="M838 299 L772 365 L138 365 L72 299 L138 234 L772 234 L838 299 Z M911 299 L647 33 L609 71 L721 182 L189 182 L301 71 L263 33 L-1 299 L263 564 L301 527 L190 417 L720 417 L609 527 L647 564 L911 299 Z " />
<glyph glyph-name="universal" unicode="&#x2200;" horiz-adv-x="910" d="M138 695 L242 695 L318 483 L594 483 L670 695 L771 695 L503 -26 L407 -26 L138 695 Z M564 398 L348 398 L408 229 Q416 206 422 190 Q428 174 433 158.5 Q438 143 443 126 Q448 109 456 84 Q463 109 468.5 126.5 Q474 144 479 159 Q484 174 489.5 190 Q495 206 503 229 L564 398 Z " />
<glyph glyph-name="existential" unicode="&#x2203;" horiz-adv-x="910" d="M683 695 L683 -26 L227 -26 L227 59 L584 59 L584 301 L255 301 L255 386 L584 386 L584 610 L234 610 L234 695 L683 695 Z " />
<glyph glyph-name="acute" unicode="&#xb4;" horiz-adv-x="610" d="M192 565 L301 713 L417 713 L281 565 L192 565 Z " />
<glyph glyph-name="tilde" unicode="&#x2dc;" horiz-adv-x="610" d="M151 577 Q157 635 186.5 661.5 Q216 688 250 688 Q266 688 281.5 682.5 Q297 677 310.5 670 Q324 663 336 657.5 Q348 652 359 652 Q388 652 396 690 L458 690 Q455 661 445.5 640 Q436 619 422 605.5 Q408 592 391.5 585.5 Q375 579 359 579 Q342 579 327 584.5 Q312 590 298.5 597 Q285 604 273 609.5 Q261 615 250 615 Q220 615 213 577 L151 577 Z " />
<glyph glyph-name="caron" unicode="&#x2c7;" horiz-adv-x="610" d="M160 708 L232 708 L305 628 L377 708 L449 708 L344 560 L265 560 L160 708 Z " />
<glyph glyph-name="breve" unicode="&#x2d8;" horiz-adv-x="610" d="M305 571 Q246 571 209.5 604.5 Q173 638 169 696 L238 696 Q243 667 258 649.5 Q273 632 305 632 Q338 632 352.5 649.5 Q367 667 372 696 L441 696 Q439 638 402 604.5 Q365 571 305 571 Z " />
<glyph glyph-name="hungarumlaut" unicode="&#x2dd;" horiz-adv-x="610" d="M362 709 L459 709 L388 560 L313 560 L362 709 Z M200 709 L298 709 L227 560 L150 560 L200 709 Z " />
<glyph glyph-name="ring" unicode="&#x2da;" horiz-adv-x="610" d="M304 593 Q327 593 340.5 606.5 Q354 620 354 643 Q354 666 340.5 680 Q327 694 304 694 Q282 694 268.5 680 Q255 666 255 643 Q255 620 268.5 606.5 Q282 593 304 593 Z M304 548 Q283 548 265 555.5 Q247 563 234 576 Q221 589 213.5 606.5 Q206 624 206 643 Q206 682 234 710 Q262 738 304 738 Q347 738 375 710 Q403 682 403 643 Q403 624 395.5 606.5 Q388 589 375 576 Q362 563 343.5 555.5 Q325 548 304 548 Z " />
<glyph glyph-name="dotaccent" unicode="&#x2d9;" horiz-adv-x="610" d="M258 682 L351 682 L351 588 L258 588 L258 682 Z " />
<glyph glyph-name="cedilla" unicode="&#xb8;" horiz-adv-x="610" d="M215 -146 Q272 -141 296 -131 Q320 -121 320 -104 Q320 -85 299.5 -78.5 Q279 -72 237 -72 L237 24 L295 24 L295 -25 Q342 -28 368 -45.5 Q394 -63 394 -98 Q394 -121 385 -138 Q376 -155 355 -167.5 Q334 -180 299.5 -188 Q265 -196 215 -200 L215 -146 Z " />
<glyph glyph-name="ogonek" unicode="&#x2db;" horiz-adv-x="610" d="M332 -200 Q279 -200 250 -176.5 Q221 -153 221 -112 Q221 -91 229.5 -72.5 Q238 -54 251.5 -39 Q265 -24 280.5 -13 Q296 -2 310 6 L380 6 Q348 -20 325 -47 Q302 -74 302 -101 Q302 -124 317 -131 Q332 -138 355 -138 Q366 -138 375 -137 Q384 -136 389 -134 L389 -190 Q378 -194 364.5 -197 Q351 -200 332 -200 Z " />
<glyph glyph-name="exclamdown" unicode="&#xa1;" horiz-adv-x="300" d="M207 619 L93 619 L93 734 L207 734 L207 619 Z M192 516 L206 -67 L94 -67 L108 516 L192 516 Z " />
<glyph glyph-name="questiondown" unicode="&#xbf;" horiz-adv-x="542" d="M335 498 L335 452 Q335 427 331 407.5 Q327 388 316.5 369 Q306 350 288 329 Q270 308 243 281 Q216 254 197.5 235.5 Q179 217 167.5 201.5 Q156 186 151 169.5 Q146 153 146 129 L146 116 Q146 78 174.5 49.5 Q203 21 265 21 Q314 21 354.5 40.5 Q395 60 427 93 L487 24 Q448 -18 394.5 -42.5 Q341 -67 267 -67 Q162 -67 104 -17 Q46 33 46 115 L46 129 Q46 166 56.5 194 Q67 222 84.5 246 Q102 270 124.5 291 Q147 312 170 334 Q203 365 218 390.5 Q233 416 233 455 L233 498 L335 498 Z M340 591 L226 591 L226 706 L340 706 L340 591 Z " />
<glyph glyph-name="&amp;#x2d0;" unicode="&#x2d0;" horiz-adv-x="910" d="M545 549 L454 454 L364 549 L545 549 Z M545 73 L364 73 L454 167 L545 73 Z " />
<glyph glyph-name="&amp;#x2236;" unicode="&#x2236;" horiz-adv-x="910" d="M545 549 L454 454 L364 549 L545 549 Z M545 73 L364 73 L454 167 L545 73 Z " />
<glyph glyph-name="uni222E" unicode="&#x222e;" horiz-adv-x="910" d="M430 410 Q398 398 377 369.5 Q356 341 352 299 Q348 255 366 225.5 Q384 196 418 186 Q422 238 424 300 Q425 357 430 410 Z M566 299 Q570 341 549.5 373.5 Q529 406 490 414 Q485 361 484 300 Q483 269 481.5 240.5 Q480 212 477 185 Q514 194 538 224 Q562 254 566 299 Z M617 628 Q609 647 596.5 657.5 Q584 668 567 668 Q545 668 525 609.5 Q505 551 493 444 Q520 441 543 430 Q566 419 583 401 Q600 383 609 357.5 Q618 332 615 299 Q612 267 599.5 242 Q587 217 568 199 Q549 181 524.5 170 Q500 159 474 155 Q460 45 431 -26 Q415 -64 391.5 -88 Q368 -112 338 -112 Q277 -112 246 -53 L290 -27 Q299 -46 311.5 -57 Q324 -68 341 -68 Q363 -68 383.5 -10 Q404 48 415 156 Q390 160 368.5 171 Q347 182 331.5 200 Q316 218 308 243 Q300 268 303 299 Q306 329 317.5 353 Q329 377 346.5 395 Q364 413 386.5 424.5 Q409 436 433 441 Q447 553 477 626 Q493 664 516.5 688 Q540 712 570 712 Q632 712 664 649 L617 628 Z " />
<glyph glyph-name="summation" unicode="&#x2211;" horiz-adv-x="571" d="M524 695 L524 610 L194 610 L395 332 L191 59 L531 59 L531 -26 L70 -26 L70 44 L283 331 L70 628 L70 695 L524 695 Z " />
<glyph glyph-name="product" unicode="&#x220f;" horiz-adv-x="653" d="M509 610 L509 -42 L410 -42 L410 610 L243 610 L243 -42 L144 -42 L144 610 L24 610 L24 695 L629 695 L629 610 L509 610 Z " />
<glyph glyph-name="currency" unicode="&#xa4;" horiz-adv-x="910" d="M755 628 L810 571 L692 471 Q715 439 728 398.5 Q741 358 741 309 Q741 256 726 213.5 Q711 171 685 139 L805 32 L752 -23 L637 88 Q601 56 551 37.5 Q501 19 449 19 Q398 19 350 35.5 Q302 52 267 83 L156 -23 L103 32 L218 132 Q192 166 174.5 210 Q157 254 157 307 Q157 358 172.5 399.5 Q188 441 212 474 L100 571 L156 628 L261 528 Q297 560 346 578 Q395 596 450 596 Q505 596 556 576.5 Q607 557 644 524 L755 628 Z M656 308 Q656 351 640.5 389.5 Q625 428 597.5 457 Q570 486 532.5 502.5 Q495 519 450 519 L449 519 Q405 519 367.5 502.5 Q330 486 302 457.5 Q274 429 258.5 390.5 Q243 352 243 307 Q243 259 260 220 Q277 181 305.5 153.5 Q334 126 371.5 110.5 Q409 95 449 95 Q490 95 527.5 110 Q565 125 593.5 153 Q622 181 639 220.5 Q656 260 656 308 Z " />
<glyph glyph-name="uni2109" unicode="&#x2109;" horiz-adv-x="785" d="M249 625 Q249 606 242 589 Q235 572 222 559.5 Q209 547 191 539.5 Q173 532 151 532 Q129 532 111 539.5 Q93 547 80 559.5 Q67 572 60 589 Q53 606 53 625 Q53 644 60 661 Q67 678 80 690.5 Q93 703 111 710.5 Q129 718 151 718 Q173 718 191 710.5 Q209 703 222 690.5 Q235 678 242 661 Q249 644 249 625 Z M107 624 Q107 604 119 591 Q131 578 151 578 Q171 578 182.5 591 Q194 604 194 624 Q194 644 182.5 657.5 Q171 671 151 671 Q131 671 119 657.5 Q107 644 107 624 Z M745 695 L745 610 L398 610 L398 369 L724 369 L724 284 L398 284 L398 -26 L299 -26 L299 695 L745 695 Z " />
<glyph glyph-name="perthousand" unicode="&#x2030;" horiz-adv-x="1267" d="M186 -25 L617 695 L706 695 L276 -25 L186 -25 Z M227 706 Q303 706 346.5 661 Q390 616 390 537 L390 495 Q390 416 346.5 371 Q303 326 227 326 Q151 326 107.5 371 Q64 416 64 495 L64 537 Q64 616 107.5 661 Q151 706 227 706 Z M227 394 Q312 394 312 497 L312 535 Q312 638 227 638 Q142 638 142 535 L142 497 Q142 394 227 394 Z M666 346 Q742 346 785.5 301 Q829 256 829 177 L829 135 Q829 56 785.5 11 Q742 -34 666 -34 Q590 -34 546.5 11 Q503 56 503 135 L503 177 Q503 256 546.5 301 Q590 346 666 346 Z M666 34 Q751 34 751 137 L751 175 Q751 278 666 278 Q581 278 581 175 L581 137 Q581 34 666 34 Z M1040 346 Q1116 346 1159.5 301 Q1203 256 1203 177 L1203 135 Q1203 56 1159.5 11 Q1116 -34 1040 -34 Q964 -34 920.5 11 Q877 56 877 135 L877 177 Q877 256 920.5 301 Q964 346 1040 346 Z M1040 34 Q1125 34 1125 137 L1125 175 Q1125 278 1040 278 Q955 278 955 175 L955 137 Q955 34 1040 34 Z " />
<glyph glyph-name="uni25C1" unicode="&#x25c1;" horiz-adv-x="910" d="M767 -92 L143 300 L767 694 L767 -92 Z M718 -3 L718 605 L233 300 L718 -3 Z " />
<glyph glyph-name="uni25C0" unicode="&#x25c0;" horiz-adv-x="910" d="M767 -92 L143 300 L767 694 L767 -92 Z " />
<glyph glyph-name="uni25B7" unicode="&#x25b7;" horiz-adv-x="910" d="M767 300 L143 -92 L143 694 L767 300 Z M676 300 L191 605 L191 -3 L676 300 Z " />
<glyph glyph-name="uni25B6" unicode="&#x25b6;" horiz-adv-x="910" d="M767 300 L143 -92 L143 694 L767 300 Z " />
<glyph glyph-name="uni2664" unicode="&#x2664;" horiz-adv-x="910" d="M785 200 Q785 167 775 139 Q765 111 746.5 90.5 Q728 70 702 58.5 Q676 47 645 47 Q615 47 587 59.5 Q559 72 520 95 Q521 76 525.5 51 Q530 26 537.5 0 Q545 -26 554 -51 Q563 -76 573 -95 Q582 -114 559 -117 Q539 -119 510 -120.5 Q481 -122 455 -122 Q425 -122 398.5 -120.5 Q372 -119 351 -117 Q328 -114 337 -95 Q347 -74 355.5 -49.5 Q364 -25 371 0.5 Q378 26 382.5 50.5 Q387 75 389 95 Q351 72 322.5 59.5 Q294 47 265 47 Q233 47 207 58.5 Q181 70 162.5 90.5 Q144 111 134 139 Q124 167 124 200 Q124 244 154 304.5 Q184 365 231.5 434.5 Q279 504 338 578.5 Q397 653 455 725 Q512 653 571 578.5 Q630 504 677.5 434.5 Q725 365 755 304.5 Q785 244 785 200 Z M724 209 Q724 245 697.5 297.5 Q671 350 631 409 Q591 468 544 528 Q497 588 455 638 Q413 588 366 528 Q319 468 279 409 Q239 350 212.5 297.5 Q186 245 186 209 Q186 192 191 172.5 Q196 153 206.5 137 Q217 121 234.5 110.5 Q252 100 276 100 Q297 100 316 109 Q335 118 351.5 129.5 Q368 141 380.5 150 Q393 159 402 159 Q421 159 430.5 145 Q440 131 438 107 Q436 76 429.5 40.5 Q423 5 409 -38 Q407 -46 408.5 -50.5 Q410 -55 421 -56 Q429 -57 436.5 -57.5 Q444 -58 455 -58 Q466 -58 473 -57.5 Q480 -57 489 -56 Q500 -55 502 -50.5 Q504 -46 502 -38 Q488 5 481 40.5 Q474 76 472 107 Q470 131 479 145 Q488 159 508 159 Q517 159 529.5 150 Q542 141 558 129.5 Q574 118 593 109 Q612 100 633 100 Q658 100 675 110.5 Q692 121 703 137 Q714 153 719 172.5 Q724 192 724 209 Z " />
<glyph glyph-name="spade" unicode="&#x2660;" horiz-adv-x="910" d="M785 200 Q785 167 775 139 Q765 111 746.5 90.5 Q728 70 702 58.5 Q676 47 645 47 Q615 47 587 59.5 Q559 72 520 95 Q521 76 525.5 51 Q530 26 537.5 0 Q545 -26 554 -51 Q563 -76 573 -95 Q582 -114 559 -117 Q539 -119 510 -120.5 Q481 -122 455 -122 Q425 -122 398.5 -120.5 Q372 -119 351 -117 Q328 -114 337 -95 Q347 -74 355.5 -49.5 Q364 -25 371 0.5 Q378 26 382.5 50.5 Q387 75 389 95 Q351 72 322.5 59.5 Q294 47 265 47 Q233 47 207 58.5 Q181 70 162.5 90.5 Q144 111 134 139 Q124 167 124 200 Q124 244 154 304.5 Q184 365 231.5 434.5 Q279 504 338 578.5 Q397 653 455 725 Q512 653 571 578.5 Q630 504 677.5 434.5 Q725 365 755 304.5 Q785 244 785 200 Z " />
<glyph glyph-name="uni2661" unicode="&#x2661;" horiz-adv-x="910" d="M808 479 Q808 431 792 379 Q776 327 749 274.5 Q722 222 686 170.5 Q650 119 611 71 Q572 23 531.5 -20 Q491 -63 455 -98 Q400 -46 338 24 Q276 94 223.5 171 Q171 248 136 327.5 Q101 407 101 479 Q101 521 115 557.5 Q129 594 153.5 620.5 Q178 647 210.5 662 Q243 677 280 677 Q345 677 388.5 634.5 Q432 592 455 495 Q477 592 521 634.5 Q565 677 629 677 Q666 677 698.5 662 Q731 647 755.5 620.5 Q780 594 794 557.5 Q808 521 808 479 Z M744 461 Q744 530 713 572 Q682 614 608 614 Q588 614 571.5 602.5 Q555 591 542 573.5 Q529 556 519.5 535 Q510 514 504 495 Q499 475 485.5 458 Q472 441 455 441 Q438 441 426 459.5 Q414 478 409 495 Q402 516 390 537.5 Q378 559 363 576 Q348 593 332.5 603.5 Q317 614 302 614 Q228 614 196.5 571.5 Q165 529 165 461 Q165 405 193 341 Q221 277 264 213 Q307 149 358 89 Q409 29 455 -19 Q501 29 551.5 89 Q602 149 645 213 Q688 277 716 341 Q744 405 744 461 Z " />
<glyph glyph-name="heart" unicode="&#x2665;" horiz-adv-x="910" d="M808 479 Q808 431 792 379 Q776 327 749 274.5 Q722 222 686 170.5 Q650 119 611 71 Q572 23 531.5 -20 Q491 -63 455 -98 Q400 -46 338 24 Q276 94 223.5 171 Q171 248 136 327.5 Q101 407 101 479 Q101 521 115 557.5 Q129 594 153.5 620.5 Q178 647 210.5 662 Q243 677 280 677 Q345 677 388.5 634.5 Q432 592 455 495 Q477 592 521 634.5 Q565 677 629 677 Q666 677 698.5 662 Q731 647 755.5 620.5 Q780 594 794 557.5 Q808 521 808 479 Z " />
<glyph glyph-name="uni2667" unicode="&#x2667;" horiz-adv-x="910" d="M858 210 Q858 173 845.5 139 Q833 105 810.5 79 Q788 53 756.5 37.5 Q725 22 686 22 Q659 22 635 30 Q611 38 590 50.5 Q569 63 552.5 77.5 Q536 92 524 105 Q531 88 538.5 64 Q546 40 551.5 13 Q557 -14 560.5 -43 Q564 -72 564 -100 Q564 -107 558.5 -111 Q553 -115 546 -116 Q533 -117 525.5 -117.5 Q518 -118 509.5 -118.5 Q501 -119 488.5 -119 Q476 -119 455 -119 Q431 -119 410 -118.5 Q389 -118 364 -116 Q357 -115 351.5 -111 Q346 -107 346 -100 Q346 -72 349 -43 Q352 -14 357.5 13 Q363 40 370 64 Q377 88 385 105 Q374 92 357 77.5 Q340 63 319 50.5 Q298 38 274 30 Q250 22 223 22 Q184 22 152.5 37.5 Q121 53 98.5 79 Q76 105 64 139 Q52 173 52 210 Q52 245 64.5 278 Q77 311 99 336 Q121 361 151.5 376 Q182 391 218 391 Q252 391 282 379 Q312 367 342 353 Q350 349 359 350 Q368 351 371 356 Q376 364 372 372.5 Q368 381 363 386 Q339 407 321.5 425.5 Q304 444 293 463.5 Q282 483 277 505 Q272 527 272 554 Q272 591 287 621.5 Q302 652 327.5 673.5 Q353 695 386 706.5 Q419 718 455 718 Q491 718 524 706.5 Q557 695 582.5 673.5 Q608 652 623 621.5 Q638 591 638 554 Q638 527 633 505 Q628 483 616.5 463.5 Q605 444 588 425.5 Q571 407 547 386 Q542 381 538 372.5 Q534 364 539 356 Q542 351 551 350 Q560 349 568 353 Q597 367 627.5 379 Q658 391 691 391 Q727 391 758 376 Q789 361 811 336 Q833 311 845.5 278 Q858 245 858 210 Z M803 214 Q803 239 794 262.5 Q785 286 769 304 Q753 322 730 333 Q707 344 679 344 Q655 344 634 337.5 Q613 331 595 322.5 Q577 314 561.5 307.5 Q546 301 533 301 Q510 301 496 315 Q482 329 482 352 Q482 374 498 390.5 Q514 407 533 426.5 Q552 446 568 473.5 Q584 501 584 545 Q584 575 574 597.5 Q564 620 546.5 635.5 Q529 651 505.5 659 Q482 667 455 667 Q429 667 405.5 659 Q382 651 364.5 635.5 Q347 620 336.5 597.5 Q326 575 326 545 Q326 501 342 473.5 Q358 446 376.5 426.5 Q395 407 411 390.5 Q427 374 427 352 Q427 329 413.5 315 Q400 301 377 301 Q364 301 348.5 307.5 Q333 314 315 322.5 Q297 331 275.5 337.5 Q254 344 230 344 Q202 344 179 333 Q156 322 140 304 Q124 286 115.5 262.5 Q107 239 107 214 Q107 187 115.5 162 Q124 137 140.5 118.5 Q157 100 181 89 Q205 78 235 78 Q271 78 297 92 Q323 106 343 123 Q363 140 379 154 Q395 168 411 168 Q422 168 424.5 163 Q427 158 427 147 Q427 127 422.5 106 Q418 85 412 60 Q406 35 401.5 6 Q397 -23 397 -59 Q397 -70 410 -71 Q431 -74 455 -74 Q479 -74 500 -71 Q512 -70 512 -59 Q512 -23 507.5 6 Q503 35 497.5 60 Q492 85 487.5 106 Q483 127 483 147 Q483 158 485.5 163 Q488 168 499 168 Q514 168 530 154 Q546 140 566 123 Q586 106 612 92 Q638 78 674 78 Q704 78 728 89 Q752 100 768.5 118.5 Q785 137 794 162 Q803 187 803 214 Z " />
<glyph glyph-name="club" unicode="&#x2663;" horiz-adv-x="910" d="M858 210 Q858 173 845.5 139 Q833 105 810.5 79 Q788 53 756.5 37.5 Q725 22 686 22 Q659 22 635 30 Q611 38 590 50.5 Q569 63 552.5 77.5 Q536 92 524 105 Q531 88 538.5 64 Q546 40 551.5 13 Q557 -14 560.5 -43 Q564 -72 564 -100 Q564 -107 558.5 -111 Q553 -115 546 -116 Q533 -117 525.5 -117.5 Q518 -118 509.5 -118.5 Q501 -119 488.5 -119 Q476 -119 455 -119 Q431 -119 410 -118.5 Q389 -118 364 -116 Q357 -115 351.5 -111 Q346 -107 346 -100 Q346 -72 349 -43 Q352 -14 357.5 13 Q363 40 370 64 Q377 88 385 105 Q374 92 357 77.5 Q340 63 319 50.5 Q298 38 274 30 Q250 22 223 22 Q184 22 152.5 37.5 Q121 53 98.5 79 Q76 105 64 139 Q52 173 52 210 Q52 245 64.5 278 Q77 311 99 336 Q121 361 151.5 376 Q182 391 218 391 Q252 391 282 379 Q312 367 342 353 Q350 349 359 350 Q368 351 371 356 Q376 364 372 372.5 Q368 381 363 386 Q339 407 321.5 425.5 Q304 444 293 463.5 Q282 483 277 505 Q272 527 272 554 Q272 591 287 621.5 Q302 652 327.5 673.5 Q353 695 386 706.5 Q419 718 455 718 Q491 718 524 706.5 Q557 695 582.5 673.5 Q608 652 623 621.5 Q638 591 638 554 Q638 527 633 505 Q628 483 616.5 463.5 Q605 444 588 425.5 Q571 407 547 386 Q542 381 538 372.5 Q534 364 539 356 Q542 351 551 350 Q560 349 568 353 Q597 367 627.5 379 Q658 391 691 391 Q727 391 758 376 Q789 361 811 336 Q833 311 845.5 278 Q858 245 858 210 Z " />
<glyph glyph-name="&amp;#x2299;" unicode="&#x2299;" horiz-adv-x="910" d="M849 299 Q849 217 818 145.5 Q787 74 733.5 20.5 Q680 -33 608.5 -64 Q537 -95 455 -95 Q374 -95 302.5 -64 Q231 -33 177.5 20.5 Q124 74 92.5 145.5 Q61 217 61 299 Q61 381 92.5 452.5 Q124 524 177.5 577.5 Q231 631 302.5 662 Q374 693 455 693 Q537 693 608.5 662 Q680 631 733.5 577.5 Q787 524 818 452.5 Q849 381 849 299 Z M793 299 Q793 368 766 429.5 Q739 491 693 537 Q647 583 585.5 610 Q524 637 455 637 Q385 637 323.5 610 Q262 583 216 537 Q170 491 143.5 429.5 Q117 368 117 299 Q117 229 143.5 167.5 Q170 106 216 60 Q262 14 323.5 -12.5 Q385 -39 455 -39 Q524 -39 585.5 -12.5 Q647 14 693 60 Q739 106 766 167.5 Q793 229 793 299 Z M610 299 Q610 267 598 238.5 Q586 210 565 189 Q544 168 515.5 156 Q487 144 455 144 Q423 144 395 156 Q367 168 346 189 Q325 210 312.5 238.5 Q300 267 300 299 Q300 331 312.5 359.5 Q325 388 346 409 Q367 430 395 442 Q423 454 455 454 Q487 454 515.5 442 Q544 430 565 409 Q586 388 598 359.5 Q610 331 610 299 Z " />
<glyph glyph-name="&amp;#x25c9;" unicode="&#x25c9;" horiz-adv-x="910" d="M849 299 Q849 217 818 145.5 Q787 74 733.5 20.5 Q680 -33 608.5 -64 Q537 -95 455 -95 Q374 -95 302.5 -64 Q231 -33 177.5 20.5 Q124 74 92.5 145.5 Q61 217 61 299 Q61 381 92.5 452.5 Q124 524 177.5 577.5 Q231 631 302.5 662 Q374 693 455 693 Q537 693 608.5 662 Q680 631 733.5 577.5 Q787 524 818 452.5 Q849 381 849 299 Z M793 299 Q793 368 766 429.5 Q739 491 693 537 Q647 583 585.5 610 Q524 637 455 637 Q385 637 323.5 610 Q262 583 216 537 Q170 491 143.5 429.5 Q117 368 117 299 Q117 229 143.5 167.5 Q170 106 216 60 Q262 14 323.5 -12.5 Q385 -39 455 -39 Q524 -39 585.5 -12.5 Q647 14 693 60 Q739 106 766 167.5 Q793 229 793 299 Z M610 299 Q610 267 598 238.5 Q586 210 565 189 Q544 168 515.5 156 Q487 144 455 144 Q423 144 395 156 Q367 168 346 189 Q325 210 312.5 238.5 Q300 267 300 299 Q300 331 312.5 359.5 Q325 388 346 409 Q367 430 395 442 Q423 454 455 454 Q487 454 515.5 442 Q544 430 565 409 Q586 388 598 359.5 Q610 331 610 299 Z " />
<glyph glyph-name="uni25C8" unicode="&#x25c8;" horiz-adv-x="910" d="M893 298 L454 -141 L16 297 L455 736 L893 298 Z M835 298 L455 677 L74 297 L454 -83 L835 298 Z M720 297 L455 31 L188 297 L455 562 L720 297 Z " />
<glyph glyph-name="uni25A3" unicode="&#x25a3;" horiz-adv-x="910" d="M830 -78 L79 -78 L79 672 L830 672 L830 -78 Z M785 -33 L785 627 L124 627 L124 -33 L785 -33 Z M682 69 L227 69 L227 524 L682 524 L682 69 Z " />
<glyph glyph-name="uni25D0" unicode="&#x25d0;" horiz-adv-x="910" d="M845 299 Q845 218 814.5 147 Q784 76 731 23 Q678 -30 607 -60.5 Q536 -91 455 -91 Q375 -91 304 -60.5 Q233 -30 180 23 Q127 76 96 147 Q65 218 65 299 Q65 380 96 451 Q127 522 180 575 Q233 628 304 658.5 Q375 689 455 689 Q536 689 607 658.5 Q678 628 731 575 Q784 522 814.5 451 Q845 380 845 299 Z M806 299 Q806 371 778 435 Q750 499 702.5 546.5 Q655 594 591 622 Q527 650 455 650 L455 -51 Q527 -51 591 -23.5 Q655 4 702.5 52 Q750 100 778 163.5 Q806 227 806 299 Z " />
<glyph glyph-name="uni25D1" unicode="&#x25d1;" horiz-adv-x="910" d="M845 299 Q845 218 814 147 Q783 76 730 23 Q677 -30 606 -60.5 Q535 -91 455 -91 Q374 -91 303 -60.5 Q232 -30 179 23 Q126 76 95.5 147 Q65 218 65 299 Q65 380 95.5 451 Q126 522 179 575 Q232 628 303 658.5 Q374 689 455 689 Q535 689 606 658.5 Q677 628 730 575 Q783 522 814 451 Q845 380 845 299 Z M455 650 Q383 650 319 622 Q255 594 207.5 546.5 Q160 499 132 435 Q104 371 104 299 Q104 227 132 163.5 Q160 100 207.5 52 Q255 4 319 -23.5 Q383 -51 455 -51 L455 650 Z " />
<glyph glyph-name="shade" unicode="&#x2592;" horiz-adv-x="910" d="M827 -74 L83 -74 L83 669 L827 669 L827 -74 Z M794 -41 L794 636 L116 636 L116 -41 L794 -41 Z M762 581 Q762 570 754.5 563 Q747 556 736 556 Q711 556 711 581 Q711 592 718 599.5 Q725 607 736 607 Q747 607 754.5 599.5 Q762 592 762 581 Z M668 581 Q668 556 643 556 Q618 556 618 581 Q618 592 625 599.5 Q632 607 643 607 Q654 607 661 599.5 Q668 592 668 581 Z M762 487 Q762 477 754.5 470 Q747 463 736 463 Q725 463 718 470 Q711 477 711 487 Q711 498 718 505.5 Q725 513 736 513 Q747 513 754.5 505.5 Q762 498 762 487 Z M668 487 Q668 477 661 470 Q654 463 643 463 Q632 463 625 470 Q618 477 618 487 Q618 498 625 505.5 Q632 513 643 513 Q654 513 661 505.5 Q668 498 668 487 Z M575 581 Q575 570 567.5 563 Q560 556 549 556 Q538 556 530.5 563 Q523 570 523 581 Q523 592 530.5 599.5 Q538 607 549 607 Q560 607 567.5 599.5 Q575 592 575 581 Z M762 394 Q762 383 754.5 375.5 Q747 368 736 368 Q725 368 718 375.5 Q711 383 711 394 Q711 405 718 412.5 Q725 420 736 420 Q747 420 754.5 412.5 Q762 405 762 394 Z M575 487 Q575 477 567.5 470 Q560 463 549 463 Q538 463 530.5 470 Q523 477 523 487 Q523 498 530.5 505.5 Q538 513 549 513 Q560 513 567.5 505.5 Q575 498 575 487 Z M668 394 Q668 383 661 375.5 Q654 368 643 368 Q632 368 625 375.5 Q618 383 618 394 Q618 405 625 412.5 Q632 420 643 420 Q654 420 661 412.5 Q668 405 668 394 Z M480 581 Q480 556 455 556 Q445 556 437.5 563 Q430 570 430 581 Q430 592 437.5 599.5 Q445 607 455 607 Q466 607 473 599.5 Q480 592 480 581 Z M762 300 Q762 290 754.5 282.5 Q747 275 736 275 Q725 275 718 282.5 Q711 290 711 300 Q711 325 736 325 Q747 325 754.5 318 Q762 311 762 300 Z M480 487 Q480 477 473 470 Q466 463 455 463 Q445 463 437.5 470 Q430 477 430 487 Q430 498 437.5 505.5 Q445 513 455 513 Q466 513 473 505.5 Q480 498 480 487 Z M575 394 Q575 383 567.5 375.5 Q560 368 549 368 Q538 368 530.5 375.5 Q523 383 523 394 Q523 405 530.5 412.5 Q538 420 549 420 Q560 420 567.5 412.5 Q575 405 575 394 Z M668 300 Q668 290 661 282.5 Q654 275 643 275 Q632 275 625 282.5 Q618 290 618 300 Q618 325 643 325 Q668 325 668 300 Z M387 581 Q387 570 379.5 563 Q372 556 361 556 Q336 556 336 581 Q336 592 343 599.5 Q350 607 361 607 Q372 607 379.5 599.5 Q387 592 387 581 Z M762 206 Q762 195 754.5 187.5 Q747 180 736 180 Q725 180 718 187.5 Q711 195 711 206 Q711 217 718 224.5 Q725 232 736 232 Q747 232 754.5 224.5 Q762 217 762 206 Z M387 487 Q387 477 379.5 470 Q372 463 361 463 Q350 463 343 470 Q336 477 336 487 Q336 498 343 505.5 Q350 513 361 513 Q372 513 379.5 505.5 Q387 498 387 487 Z M480 394 Q480 383 473 375.5 Q466 368 455 368 Q445 368 437.5 375.5 Q430 383 430 394 Q430 405 437.5 412.5 Q445 420 455 420 Q466 420 473 412.5 Q480 405 480 394 Z M575 300 Q575 290 567.5 282.5 Q560 275 549 275 Q538 275 530.5 282.5 Q523 290 523 300 Q523 311 530.5 318 Q538 325 549 325 Q560 325 567.5 318 Q575 311 575 300 Z M668 206 Q668 195 661 187.5 Q654 180 643 180 Q632 180 625 187.5 Q618 195 618 206 Q618 217 625 224.5 Q632 232 643 232 Q654 232 661 224.5 Q668 217 668 206 Z M293 581 Q293 570 285.5 563 Q278 556 268 556 Q257 556 249.5 563 Q242 570 242 581 Q242 592 249.5 599.5 Q257 607 268 607 Q278 607 285.5 599.5 Q293 592 293 581 Z M762 113 Q762 102 754.5 94.5 Q747 87 736 87 Q725 87 718 94.5 Q711 102 711 113 Q711 123 718 130 Q725 137 736 137 Q747 137 754.5 130 Q762 123 762 113 Z M199 581 Q199 556 175 556 Q164 556 156.5 563 Q149 570 149 581 Q149 592 156.5 599.5 Q164 607 175 607 Q186 607 192.5 599.5 Q199 592 199 581 Z M293 487 Q293 477 285.5 470 Q278 463 268 463 Q257 463 249.5 470 Q242 477 242 487 Q242 498 249.5 505.5 Q257 513 268 513 Q278 513 285.5 505.5 Q293 498 293 487 Z M387 394 Q387 383 379.5 375.5 Q372 368 361 368 Q350 368 343 375.5 Q336 383 336 394 Q336 405 343 412.5 Q350 420 361 420 Q372 420 379.5 412.5 Q387 405 387 394 Z M480 300 Q480 290 473 282.5 Q466 275 455 275 Q445 275 437.5 282.5 Q430 290 430 300 Q430 311 437.5 318 Q445 325 455 325 Q480 325 480 300 Z M575 206 Q575 195 567.5 187.5 Q560 180 549 180 Q538 180 530.5 187.5 Q523 195 523 206 Q523 217 530.5 224.5 Q538 232 549 232 Q560 232 567.5 224.5 Q575 217 575 206 Z M668 113 Q668 102 661 94.5 Q654 87 643 87 Q632 87 625 94.5 Q618 102 618 113 Q618 123 625 130 Q632 137 643 137 Q654 137 661 130 Q668 123 668 113 Z M762 19 Q762 8 754.5 0.5 Q747 -7 736 -7 Q725 -7 718 0.5 Q711 8 711 19 Q711 44 736 44 Q747 44 754.5 37 Q762 30 762 19 Z M199 487 Q199 477 192.5 470 Q186 463 175 463 Q164 463 156.5 470 Q149 477 149 487 Q149 498 156.5 505.5 Q164 513 175 513 Q186 513 192.5 505.5 Q199 498 199 487 Z M668 19 Q668 8 661 0.5 Q654 -7 643 -7 Q632 -7 625 0.5 Q618 8 618 19 Q618 44 643 44 Q668 44 668 19 Z M293 394 Q293 383 285.5 375.5 Q278 368 268 368 Q257 368 249.5 375.5 Q242 383 242 394 Q242 405 249.5 412.5 Q257 420 268 420 Q278 420 285.5 412.5 Q293 405 293 394 Z M387 300 Q387 290 379.5 282.5 Q372 275 361 275 Q350 275 343 282.5 Q336 290 336 300 Q336 325 361 325 Q372 325 379.5 318 Q387 311 387 300 Z M480 206 Q480 195 473 187.5 Q466 180 455 180 Q445 180 437.5 187.5 Q430 195 430 206 Q430 217 437.5 224.5 Q445 232 455 232 Q466 232 473 224.5 Q480 217 480 206 Z M575 113 Q575 102 567.5 94.5 Q560 87 549 87 Q538 87 530.5 94.5 Q523 102 523 113 Q523 123 530.5 130 Q538 137 549 137 Q560 137 567.5 130 Q575 123 575 113 Z M199 394 Q199 383 192.5 375.5 Q186 368 175 368 Q164 368 156.5 375.5 Q149 383 149 394 Q149 405 156.5 412.5 Q164 420 175 420 Q186 420 192.5 412.5 Q199 405 199 394 Z M575 19 Q575 8 567.5 0.5 Q560 -7 549 -7 Q538 -7 530.5 0.5 Q523 8 523 19 Q523 30 530.5 37 Q538 44 549 44 Q560 44 567.5 37 Q575 30 575 19 Z M293 300 Q293 290 285.5 282.5 Q278 275 268 275 Q257 275 249.5 282.5 Q242 290 242 300 Q242 311 249.5 318 Q257 325 268 325 Q278 325 285.5 318 Q293 311 293 300 Z M387 206 Q387 195 379.5 187.5 Q372 180 361 180 Q350 180 343 187.5 Q336 195 336 206 Q336 217 343 224.5 Q350 232 361 232 Q372 232 379.5 224.5 Q387 217 387 206 Z M480 113 Q480 102 473 94.5 Q466 87 455 87 Q445 87 437.5 94.5 Q430 102 430 113 Q430 123 437.5 130 Q445 137 455 137 Q466 137 473 130 Q480 123 480 113 Z M199 300 Q199 290 192.5 282.5 Q186 275 175 275 Q164 275 156.5 282.5 Q149 290 149 300 Q149 311 156.5 318 Q164 325 175 325 Q199 325 199 300 Z M480 19 Q480 8 473 0.5 Q466 -7 455 -7 Q445 -7 437.5 0.5 Q430 8 430 19 Q430 30 437.5 37 Q445 44 455 44 Q480 44 480 19 Z M293 206 Q293 195 285.5 187.5 Q278 180 268 180 Q257 180 249.5 187.5 Q242 195 242 206 Q242 217 249.5 224.5 Q257 232 268 232 Q278 232 285.5 224.5 Q293 217 293 206 Z M387 113 Q387 102 379.5 94.5 Q372 87 361 87 Q350 87 343 94.5 Q336 102 336 113 Q336 123 343 130 Q350 137 361 137 Q372 137 379.5 130 Q387 123 387 113 Z M199 206 Q199 195 192.5 187.5 Q186 180 175 180 Q164 180 156.5 187.5 Q149 195 149 206 Q149 217 156.5 224.5 Q164 232 175 232 Q186 232 192.5 224.5 Q199 217 199 206 Z M387 19 Q387 8 379.5 0.5 Q372 -7 361 -7 Q350 -7 343 0.5 Q336 8 336 19 Q336 44 361 44 Q372 44 379.5 37 Q387 30 387 19 Z M293 113 Q293 102 285.5 94.5 Q278 87 268 87 Q257 87 249.5 94.5 Q242 102 242 113 Q242 123 249.5 130 Q257 137 268 137 Q278 137 285.5 130 Q293 123 293 113 Z M199 113 Q199 102 192.5 94.5 Q186 87 175 87 Q164 87 156.5 94.5 Q149 102 149 113 Q149 123 156.5 130 Q164 137 175 137 Q186 137 192.5 130 Q199 123 199 113 Z M293 19 Q293 8 285.5 0.5 Q278 -7 268 -7 Q257 -7 249.5 0.5 Q242 8 242 19 Q242 30 249.5 37 Q257 44 268 44 Q278 44 285.5 37 Q293 30 293 19 Z M199 19 Q199 8 192.5 0.5 Q186 -7 175 -7 Q164 -7 156.5 0.5 Q149 8 149 19 Q149 30 156.5 37 Q164 44 175 44 Q199 44 199 19 Z " />
<glyph glyph-name="uni25A4" unicode="&#x25a4;" horiz-adv-x="910" d="M827 -74 L83 -74 L83 669 L827 669 L827 -74 Z M794 568 L794 636 L116 636 L116 568 L794 568 Z M794 463 L794 536 L116 536 L116 463 L794 463 Z M794 365 L794 431 L116 431 L116 365 L794 365 Z M794 262 L794 333 L116 333 L116 262 L794 262 Z M794 158 L794 230 L116 230 L116 158 L794 158 Z M794 58 L794 126 L116 126 L116 58 L794 58 Z M794 -41 L794 26 L116 26 L116 -41 L794 -41 Z " />
<glyph glyph-name="uni25A5" unicode="&#x25a5;" horiz-adv-x="910" d="M827 -74 L83 -74 L83 669 L827 669 L827 -74 Z M794 -41 L794 636 L726 636 L726 -41 L794 -41 Z M694 -41 L694 636 L626 636 L626 -41 L694 -41 Z M594 -41 L594 636 L522 636 L522 -41 L594 -41 Z M490 -41 L490 636 L419 636 L419 -41 L490 -41 Z M387 -41 L387 636 L321 636 L321 -41 L387 -41 Z M289 -41 L289 636 L216 636 L216 -41 L289 -41 Z M184 -41 L184 636 L116 636 L116 -41 L184 -41 Z " />
<glyph glyph-name="uni25A8" unicode="&#x25a8;" horiz-adv-x="910" d="M827 -74 L83 -74 L83 669 L827 669 L827 -74 Z M794 495 L794 613 L140 -41 L258 -41 L794 495 Z M794 329 L794 447 L306 -41 L424 -41 L794 329 Z M794 163 L794 281 L472 -41 L590 -41 L794 163 Z M794 -41 L794 115 L638 -41 L794 -41 Z M271 636 L116 636 L116 482 L271 636 Z M438 636 L319 636 L116 434 L116 315 L438 636 Z M604 636 L486 636 L116 267 L116 149 L604 636 Z M769 636 L652 636 L116 101 L116 -17 L769 636 Z " />
<glyph glyph-name="uni25A7" unicode="&#x25a7;" horiz-adv-x="910" d="M827 -74 L83 -74 L83 669 L827 669 L827 -74 Z M794 482 L794 636 L639 636 L794 482 Z M794 315 L794 434 L591 636 L472 636 L794 315 Z M794 149 L794 267 L424 636 L306 636 L794 149 Z M794 -17 L794 101 L258 636 L141 636 L794 -17 Z M770 -41 L116 613 L116 495 L652 -41 L770 -41 Z M604 -41 L116 447 L116 329 L486 -41 L604 -41 Z M438 -41 L116 281 L116 163 L320 -41 L438 -41 Z M272 -41 L116 115 L116 -41 L272 -41 Z " />
<glyph glyph-name="uni25A6" unicode="&#x25a6;" horiz-adv-x="910" d="M827 -74 L83 -74 L83 669 L827 669 L827 -74 Z M794 565 L794 636 L723 636 L723 565 L794 565 Z M794 464 L794 535 L723 535 L723 464 L794 464 Z M692 565 L692 636 L621 636 L621 565 L692 565 Z M794 363 L794 434 L723 434 L723 363 L794 363 Z M591 565 L591 636 L520 636 L520 565 L591 565 Z M692 464 L692 535 L621 535 L621 464 L692 464 Z M794 262 L794 333 L723 333 L723 262 L794 262 Z M490 565 L490 636 L419 636 L419 565 L490 565 Z M591 464 L591 535 L520 535 L520 464 L591 464 Z M692 363 L692 434 L621 434 L621 363 L692 363 Z M794 161 L794 232 L723 232 L723 161 L794 161 Z M389 565 L389 636 L318 636 L318 565 L389 565 Z M490 464 L490 535 L419 535 L419 464 L490 464 Z M591 363 L591 434 L520 434 L520 363 L591 363 Z M692 262 L692 333 L621 333 L621 262 L692 262 Z M794 60 L794 131 L723 131 L723 60 L794 60 Z M288 565 L288 636 L217 636 L217 565 L288 565 Z M389 464 L389 535 L318 535 L318 464 L389 464 Z M490 363 L490 434 L419 434 L419 363 L490 363 Z M591 262 L591 333 L520 333 L520 262 L591 262 Z M692 161 L692 232 L621 232 L621 161 L692 161 Z M794 -41 L794 30 L723 30 L723 -41 L794 -41 Z M187 565 L187 636 L116 636 L116 565 L187 565 Z M288 464 L288 535 L217 535 L217 464 L288 464 Z M389 363 L389 434 L318 434 L318 363 L389 363 Z M490 262 L490 333 L419 333 L419 262 L490 262 Z M591 161 L591 232 L520 232 L520 161 L591 161 Z M692 60 L692 131 L621 131 L621 60 L692 60 Z M692 -41 L692 30 L621 30 L621 -41 L692 -41 Z M187 464 L187 535 L116 535 L116 464 L187 464 Z M288 363 L288 434 L217 434 L217 363 L288 363 Z M389 262 L389 333 L318 333 L318 262 L389 262 Z M490 161 L490 232 L419 232 L419 161 L490 161 Z M591 60 L591 131 L520 131 L520 60 L591 60 Z M591 -41 L591 30 L520 30 L520 -41 L591 -41 Z M187 363 L187 434 L116 434 L116 363 L187 363 Z M288 262 L288 333 L217 333 L217 262 L288 262 Z M389 161 L389 232 L318 232 L318 161 L389 161 Z M490 60 L490 131 L419 131 L419 60 L490 60 Z M490 -41 L490 30 L419 30 L419 -41 L490 -41 Z M187 262 L187 333 L116 333 L116 262 L187 262 Z M288 161 L288 232 L217 232 L217 161 L288 161 Z M389 60 L389 131 L318 131 L318 60 L389 60 Z M389 -41 L389 30 L318 30 L318 -41 L389 -41 Z M187 161 L187 232 L116 232 L116 161 L187 161 Z M288 60 L288 131 L217 131 L217 60 L288 60 Z M288 -41 L288 30 L217 30 L217 -41 L288 -41 Z M187 60 L187 131 L116 131 L116 60 L187 60 Z M187 -41 L187 30 L116 30 L116 -41 L187 -41 Z " />
<glyph glyph-name="uni25A9" unicode="&#x25a9;" horiz-adv-x="910" d="M827 -74 L83 -74 L83 669 L827 669 L827 -74 Z M794 482 L794 615 L727 548 L794 482 Z M768 636 L639 636 L703 572 L768 636 Z M770 458 L704 525 L643 465 L710 398 L770 458 Z M679 548 L615 612 L555 553 L620 488 L679 548 Z M592 636 L472 636 L532 576 L592 636 Z M794 314 L794 434 L734 374 L794 314 Z M508 553 L448 612 L389 553 L448 494 L508 553 Z M596 465 L531 528 L472 470 L537 406 L596 465 Z M686 375 L620 441 L561 382 L627 315 L686 375 Z M770 291 L710 350 L651 291 L711 232 L770 291 Z M424 636 L306 636 L365 577 L424 636 Z M794 149 L794 267 L735 208 L794 149 Z M604 291 L536 358 L478 299 L544 233 L604 291 Z M341 553 L281 613 L223 554 L282 495 L341 553 Z M512 382 L448 446 L390 387 L454 323 L512 382 Z M687 208 L627 267 L569 209 L628 149 L687 208 Z M770 125 L711 184 L652 125 L711 66 L770 125 Z M424 470 L364 529 L306 471 L366 411 L424 470 Z M258 636 L141 636 L199 578 L258 636 Z M794 -17 L794 101 L735 42 L794 -17 Z M770 -41 L711 18 L652 -41 L770 -41 Z M175 554 L116 613 L116 495 L175 554 Z M521 208 L454 276 L395 216 L461 150 L521 208 Z M258 471 L199 530 L140 471 L199 412 L258 471 Z M341 388 L282 447 L223 388 L282 329 L341 388 Z M429 299 L365 364 L306 305 L371 241 L429 299 Z M604 125 L545 184 L486 125 L545 66 L604 125 Z M687 42 L628 101 L569 42 L628 -17 L687 42 Z M604 -41 L545 18 L486 -41 L604 -41 Z M175 388 L116 447 L116 329 L175 388 Z M258 305 L199 364 L140 305 L199 246 L258 305 Z M346 217 L282 281 L223 222 L287 158 L346 217 Z M438 125 L371 193 L311 134 L378 66 L438 125 Z M521 42 L462 101 L403 42 L462 -17 L521 42 Z M175 222 L116 281 L116 164 L175 222 Z M438 -41 L379 18 L319 -41 L438 -41 Z M263 134 L199 198 L140 139 L204 75 L263 134 Z M354 43 L287 110 L228 51 L296 -17 L354 43 Z M180 51 L116 115 L116 -13 L180 51 Z M272 -41 L204 27 L137 -41 L272 -41 Z " />
<glyph glyph-name="uni2668" unicode="&#x2668;" horiz-adv-x="910" d="M657 298 Q660 260 652 231 Q644 202 632 178.5 Q620 155 606.5 136 Q593 117 585 101 Q572 76 565.5 56.5 Q559 37 557 28 Q555 23 550.5 21 Q546 19 543 28 Q540 35 538.5 47 Q537 59 537 73 Q537 87 539.5 101 Q542 115 547 127 Q556 149 565.5 177 Q575 205 580 234 Q585 263 584.5 292.5 Q584 322 573 348 Q556 386 550 417.5 Q544 449 545.5 476.5 Q547 504 554.5 529.5 Q562 555 573 581 Q580 598 583 617.5 Q586 637 586 650 Q586 659 590.5 661 Q595 663 600 652 Q608 636 614 601 Q620 566 612 509 Q607 474 612 451 Q617 428 625.5 406.5 Q634 385 643.5 360 Q653 335 657 298 Z M525 286 Q529 264 522.5 237 Q516 210 505 183.5 Q494 157 482 134 Q470 111 463 97 Q448 69 441 51.5 Q434 34 433 24 Q432 15 425.5 15.5 Q419 16 416 23 Q409 39 408 71.5 Q407 104 424 146 Q439 181 442 216 Q445 251 442 281 Q439 311 433 333 Q427 355 423 363 Q403 409 400 445 Q397 481 403.5 510 Q410 539 422 562.5 Q434 586 444 607 Q458 636 462.5 660 Q467 684 467 700 Q467 711 472.5 710.5 Q478 710 482 702 Q487 691 491.5 673.5 Q496 656 497.5 634 Q499 612 496.5 587.5 Q494 563 485 538 Q472 502 474 472.5 Q476 443 484.5 414.5 Q493 386 505 355.5 Q517 325 525 286 Z M853 101 Q853 55 821 16.5 Q789 -22 735 -49.5 Q681 -77 610 -92.5 Q539 -108 460 -108 Q381 -108 308 -94.5 Q235 -81 179 -57 Q123 -33 89.5 0.5 Q56 34 56 74 Q56 114 81 144.5 Q106 175 139.5 196.5 Q173 218 208 231 Q243 244 264 250 Q275 254 277 245.5 Q279 237 266 232 Q262 230 240 219.5 Q218 209 193.5 191 Q169 173 149 148.5 Q129 124 129 94 Q129 68 158.5 49 Q188 30 235 17.5 Q282 5 341.5 -1.5 Q401 -8 461 -8 Q521 -8 580 0.5 Q639 9 686 25 Q733 41 762.5 63.5 Q792 86 792 115 Q792 136 779 154 Q766 172 748 186.5 Q730 201 710 211 Q690 221 677 225 Q665 229 668 236 Q671 243 681 241 Q696 239 724.5 229.5 Q753 220 781.5 202.5 Q810 185 831.5 159.5 Q853 134 853 101 Z M383 261 Q386 231 369.5 187.5 Q353 144 328 96 Q315 72 310 57.5 Q305 43 304 34 Q303 26 297.5 25.5 Q292 25 287 34 Q281 47 278 73 Q275 99 286 131 Q291 145 297 170 Q303 195 306 225 Q309 255 306.5 286.5 Q304 318 293 345 Q279 379 275 412 Q271 445 275 476.5 Q279 508 289.5 537.5 Q300 567 315 595 Q323 609 329 625 Q335 641 338 655 Q340 663 345 662.5 Q350 662 352 656 Q357 641 358 603.5 Q359 566 342 506 Q336 484 340 457 Q344 430 352.5 399 Q361 368 370 333 Q379 298 383 261 Z " />
<glyph glyph-name="uni260F" unicode="&#x260f;" horiz-adv-x="910" d="M878 328 Q872 318 858 315.5 Q844 313 825.5 314.5 Q807 316 786.5 321 Q766 326 747 331 Q716 340 691 353.5 Q666 367 662 385 Q660 392 662 403 Q664 414 667.5 425 Q671 436 674 446.5 Q677 457 676 464 Q672 484 657 489 Q642 494 623 496 Q620 473 620 447 Q620 421 634 374 Q641 348 650.5 329.5 Q660 311 671.5 296 Q683 281 696.5 269 Q710 257 726 244 Q751 223 765 199.5 Q779 176 786 153 Q793 130 794.5 110 Q796 90 796 75 Q804 72 808.5 63 Q813 54 815.5 42 Q818 30 818 17.5 Q818 5 817 -5 Q816 -14 807 -17.5 Q798 -21 783 -21 L127 -21 Q112 -21 103 -17.5 Q94 -14 93 -5 Q92 5 92 17.5 Q92 30 94.5 42 Q97 54 101.5 63 Q106 72 114 75 Q114 90 115.5 110 Q117 130 124 153 Q131 176 145 199.5 Q159 223 184 244 Q200 257 213.5 269 Q227 281 238.5 296 Q250 311 259.5 329.5 Q269 348 276 374 Q289 421 289.5 447 Q290 473 287 496 Q268 494 253 489 Q238 484 234 464 Q232 457 235 446.5 Q238 436 241.5 425 Q245 414 247.5 403 Q250 392 248 385 Q244 367 219 353.5 Q194 340 163 331 Q144 326 123.5 321 Q103 316 84.5 314.5 Q66 313 52 315.5 Q38 318 32 328 Q26 338 24.5 357 Q23 376 26 398 Q29 420 37.5 442.5 Q46 465 60 483 Q84 514 126.5 537 Q169 560 222 575 Q275 590 335 597.5 Q395 605 455 605 Q515 605 575 597.5 Q635 590 688 575 Q741 560 783.5 537 Q826 514 850 483 Q864 465 872.5 442.5 Q881 420 884 398 Q887 376 885.5 357 Q884 338 878 328 Z M525 436 L525 495 Q512 491 493.5 488 Q475 485 455 485 Q435 485 416.5 488 Q398 491 385 495 L385 436 L525 436 Z M845 346 Q851 347 854 362.5 Q857 378 852.5 401.5 Q848 425 834 451.5 Q820 478 792 501 Q770 518 729.5 532.5 Q689 547 641 557.5 Q593 568 543.5 573.5 Q494 579 455 579 Q404 579 352.5 573.5 Q301 568 256 557.5 Q211 547 175 532.5 Q139 518 117 501 Q88 479 74.5 452 Q61 425 56.5 402 Q52 379 55 363 Q58 347 64 346 Q83 344 104.5 347 Q126 350 146 355.5 Q166 361 183 369 Q200 377 212 385 Q218 389 216 400 Q214 411 210 424.5 Q206 438 204.5 453.5 Q203 469 209 483 Q217 503 249 514.5 Q281 526 347 526 Q358 526 369 524 Q380 522 393 520 Q410 516 424 514 Q438 512 455 512 Q472 512 486 514 Q500 516 517 520 Q530 522 540.5 524 Q551 526 562 526 Q628 526 659 514.5 Q690 503 701 483 Q707 469 705 453.5 Q703 438 699.5 424.5 Q696 411 693.5 400 Q691 389 697 385 Q708 377 725.5 369 Q743 361 763.5 355.5 Q784 350 805 347 Q826 344 845 346 Z M776 9 Q779 9 780.5 17 Q782 25 781.5 35.5 Q781 46 777 56.5 Q773 67 765 72 Q765 84 763 101.5 Q761 119 755.5 138 Q750 157 741.5 175.5 Q733 194 720 206 Q698 227 682 242.5 Q666 258 654 271.5 Q642 285 634 298.5 Q626 312 619 329 Q601 379 596 421.5 Q591 464 594 496 L553 496 L553 410 L357 410 L357 496 L315 496 Q318 464 313.5 421.5 Q309 379 291 329 Q284 312 275.5 298.5 Q267 285 255 271.5 Q243 258 227 242.5 Q211 227 189 206 Q176 194 167.5 175.5 Q159 157 153.5 138 Q148 119 146 101.5 Q144 84 144 72 Q136 67 132 56.5 Q128 46 127.5 35.5 Q127 25 129 17 Q131 9 134 9 L776 9 Z M617 206 Q617 173 604 143.5 Q591 114 569 92 Q547 70 517.5 57 Q488 44 455 44 Q422 44 392.5 57 Q363 70 341 92 Q319 114 306 143.5 Q293 173 293 206 Q293 239 306 268.5 Q319 298 341 320 Q363 342 392.5 355 Q422 368 455 368 Q488 368 517.5 355 Q547 342 569 320 Q591 298 604 268.5 Q617 239 617 206 Z M585 206 Q585 233 575 256.5 Q565 280 547 298 Q529 316 505.5 326 Q482 336 455 336 Q428 336 404.5 326 Q381 316 363 298 Q345 280 335 256.5 Q325 233 325 206 Q325 179 335 155.5 Q345 132 363 114.5 Q381 97 404.5 87 Q428 77 455 77 Q482 77 505.5 87 Q529 97 547 114.5 Q565 132 575 155.5 Q585 179 585 206 Z " />
<glyph glyph-name="uni260E" unicode="&#x260e;" horiz-adv-x="910" d="M878 328 Q872 318 858 315.5 Q844 313 825.5 314.5 Q807 316 786.5 321 Q766 326 747 331 Q716 340 691 353.5 Q666 367 662 385 Q660 392 662.5 403 Q665 414 669 425 Q673 436 676 446.5 Q679 457 678 464 Q674 484 658 491 Q642 498 623 501 Q620 478 620 449.5 Q620 421 634 374 Q641 348 650.5 329.5 Q660 311 671.5 296 Q683 281 696.5 269 Q710 257 726 244 Q751 223 765 199.5 Q779 176 786 153 Q793 130 794.5 110 Q796 90 796 75 Q804 72 808.5 63 Q813 54 815.5 42 Q818 30 818 17.5 Q818 5 817 -5 Q816 -14 807 -17.5 Q798 -21 783 -21 L127 -21 Q112 -21 103 -17.5 Q94 -14 93 -5 Q92 5 92 17.5 Q92 30 94.5 42 Q97 54 101.5 63 Q106 72 114 75 Q114 90 115.5 110 Q117 130 124 153 Q131 176 145 199.5 Q159 223 184 244 Q200 257 213.5 269 Q227 281 238.5 296 Q250 311 259.5 329.5 Q269 348 276 374 Q289 421 289.5 449.5 Q290 478 287 501 Q268 498 252 491 Q236 484 232 464 Q230 457 233 446.5 Q236 436 240 425 Q244 414 247 403 Q250 392 248 385 Q244 367 219 353.5 Q194 340 163 331 Q144 326 123.5 321 Q103 316 84.5 314.5 Q66 313 52 315.5 Q38 318 32 328 Q26 338 24.5 357 Q23 376 26 398.5 Q29 421 37.5 443.5 Q46 466 60 484 Q84 515 126.5 538 Q169 561 222 576 Q275 591 335 598 Q395 605 455 605 Q515 605 575 598 Q635 591 688 576 Q741 561 783.5 538 Q826 515 850 484 Q864 466 872.5 443.5 Q881 421 884 398.5 Q887 376 885.5 357 Q884 338 878 328 Z M533 439 L533 504 Q519 500 498 497 Q477 494 455 494 Q433 494 412 497 Q391 500 377 504 L377 439 L533 439 Z M602 208 Q602 238 590.5 265 Q579 292 559 312 Q539 332 512 343.5 Q485 355 455 355 Q425 355 398 343.5 Q371 332 351 312 Q331 292 319.5 265 Q308 238 308 208 Q308 178 319.5 151 Q331 124 351 104.5 Q371 85 398 73.5 Q425 62 455 62 Q485 62 512 73.5 Q539 85 559 104.5 Q579 124 590.5 151 Q602 178 602 208 Z " />
<glyph glyph-name="uni261C" unicode="&#x261c;" horiz-adv-x="910" d="M847 184 L771 184 L771 205 L742 205 Q716 189 677.5 175 Q639 161 574 150 Q556 147 529.5 146 Q503 145 475.5 145 Q448 145 422.5 146.5 Q397 148 381 150 Q363 153 346.5 159.5 Q330 166 326 183 Q324 195 328.5 202.5 Q333 210 341 215 Q327 215 315.5 224 Q304 233 303 248 Q302 259 305.5 266 Q309 273 314 278 Q300 280 289 287 Q278 294 278 311 Q278 333 297 342 Q316 351 360 351 L357 359 Q333 360 314 360.5 Q295 361 275.5 361.5 Q256 362 235 363 Q214 364 186 366 Q165 367 143 368 Q121 369 103 373 Q85 377 73.5 385.5 Q62 394 62 409 Q62 422 71 429 Q80 436 96 439.5 Q112 443 133.5 444.5 Q155 446 180 448 Q194 449 225 450 Q256 451 296 451.5 Q336 452 380.5 452.5 Q425 453 467 453 Q499 453 531.5 452.5 Q564 452 595.5 447 Q627 442 656.5 430 Q686 418 712 394 Q728 390 744 388.5 Q760 387 772 388 L772 420 L847 420 L847 184 Z M772 217 L772 371 Q764 370 750.5 371 Q737 372 728 374 L730 366 Q732 356 730 355.5 Q728 355 723 361 Q715 371 700.5 383.5 Q686 396 665 410 Q650 420 624 426 Q598 432 570.5 435 Q543 438 518 438.5 Q493 439 480 437 Q466 435 447 428.5 Q428 422 414 413 Q406 408 401.5 401 Q397 394 392 386 Q384 369 373 362 Q369 357 376 353 Q383 349 404 357 Q414 361 422 367.5 Q430 374 436 379.5 Q442 385 446 388.5 Q450 392 452 389 Q457 383 448 374 Q456 371 468.5 369.5 Q481 368 489 370 Q509 375 519 382.5 Q529 390 531 386 Q533 381 529 374.5 Q525 368 517 363 Q523 354 543.5 338 Q564 322 596 311 Q616 304 633 301.5 Q650 299 662 297.5 Q674 296 681 294.5 Q688 293 688 289 Q688 286 679 285 Q670 284 656.5 285 Q643 286 628 288.5 Q613 291 601 294 Q580 301 563.5 310 Q547 319 534.5 328.5 Q522 338 513.5 346.5 Q505 355 501 361 Q496 358 489.5 357.5 Q483 357 478 357 Q464 358 452.5 360 Q441 362 436 364 L421 351 Q447 351 465 344.5 Q483 338 486 326 Q490 312 486.5 301.5 Q483 291 475 285 Q503 278 506 257 Q508 243 503.5 236.5 Q499 230 491 225 Q520 219 523 197 Q526 182 519 173.5 Q512 165 510 164 Q524 161 545 164 Q584 167 614.5 173.5 Q645 180 669 188 Q693 196 712 206 Q731 216 747 226 Q750 229 752.5 229 Q755 229 754 225 L752 217 L772 217 Z M429 437 Q380 437 314.5 436 Q249 435 181 433 Q133 431 106 427.5 Q79 424 79 409 Q79 393 102 389.5 Q125 386 181 382 Q243 379 285 377 Q327 375 368 374 L389 406 Q397 417 406 424.5 Q415 432 429 437 Z M831 200 L831 403 L787 403 L787 200 L831 200 Z M490 247 Q491 262 484 267.5 Q477 273 462 275 Q455 276 439 276 Q423 276 404.5 276 Q386 276 369 275.5 Q352 275 343 275 Q333 274 326.5 267 Q320 260 320 250 Q320 234 345 230 Q350 229 368.5 228 Q387 227 406.5 227 Q426 227 442 227 Q458 227 459 227 Q469 227 479 231.5 Q489 236 490 247 Z M507 194 Q506 205 495.5 208.5 Q485 212 476 212 Q449 213 417 213 Q385 213 363 211 Q352 210 347.5 202.5 Q343 195 345 187 Q346 181 350.5 176 Q355 171 363 169 Q389 164 420.5 163.5 Q452 163 477 165 Q510 167 507 194 Z M467 316 Q467 322 462.5 327 Q458 332 447 333 Q410 335 377.5 336 Q345 337 313 333 Q303 331 298 325 Q293 319 294 311 Q294 304 299 298 Q304 292 314 292 Q329 291 348 291 Q367 291 385.5 291 Q404 291 420.5 292 Q437 293 448 294 Q456 296 461.5 300.5 Q467 305 467 316 Z " />
<glyph glyph-name="uni261E" unicode="&#x261e;" horiz-adv-x="910" d="M847 409 Q847 394 835.5 385.5 Q824 377 806 373 Q788 369 766 368 Q744 367 723 366 Q695 364 674 363 Q653 362 633.5 361.5 Q614 361 595 360.5 Q576 360 552 359 L549 351 Q593 351 612 342 Q631 333 631 311 Q631 294 620 287 Q609 280 595 278 Q600 273 603.5 266 Q607 259 606 248 Q605 233 593.5 224 Q582 215 568 215 Q576 210 580.5 202.5 Q585 195 583 183 Q579 166 562.5 159.5 Q546 153 528 150 Q512 148 486.5 146.5 Q461 145 433.5 145 Q406 145 379.5 146 Q353 147 335 150 Q270 161 231.5 175 Q193 189 167 205 L138 205 L138 184 L62 184 L62 420 L137 420 L137 388 Q149 387 165 388.5 Q181 390 197 394 Q223 418 252.5 430 Q282 442 313.5 447 Q345 452 377.5 452.5 Q410 453 442 453 Q484 453 528.5 452.5 Q573 452 613 451.5 Q653 451 684 450 Q715 449 729 448 Q754 446 775.5 444.5 Q797 443 813 439.5 Q829 436 838 429 Q847 422 847 409 Z M536 362 Q525 369 517 386 Q512 394 507.5 401 Q503 408 495 413 Q481 422 462 428.5 Q443 435 429 437 Q415 439 390.5 438.5 Q366 438 338.5 435 Q311 432 285 426 Q259 420 244 410 Q223 396 208.5 383.5 Q194 371 186 361 Q181 355 179 355.5 Q177 356 179 366 L181 374 Q172 372 158.5 371 Q145 370 137 371 L137 217 L157 217 L155 225 Q153 229 156 228.5 Q159 228 162 226 Q193 206 239.5 188.5 Q286 171 364 164 Q383 161 397 164 Q395 166 389 174.5 Q383 183 386 197 Q389 219 418 225 Q410 230 405.5 236.5 Q401 243 403 257 Q408 278 434 285 Q426 291 422.5 301.5 Q419 312 423 326 Q427 338 444.5 344.5 Q462 351 488 351 L473 364 Q468 362 456.5 360 Q445 358 431 357 Q426 357 419.5 357.5 Q413 358 408 361 Q404 355 395.5 346.5 Q387 338 374.5 328.5 Q362 319 345.5 310 Q329 301 308 294 Q296 291 281 288.5 Q266 286 252.5 285 Q239 284 230 285 Q221 286 221 289 Q221 293 228 294.5 Q235 296 247 297.5 Q259 299 276 301.5 Q293 304 313 311 Q345 322 365.5 338 Q386 354 392 363 Q384 368 380 374.5 Q376 381 378 386 Q380 390 390 382.5 Q400 375 420 370 Q428 368 440.5 369.5 Q453 371 461 374 Q457 378 455.5 382 Q454 386 457 389 Q459 392 463 388.5 Q467 385 473 379.5 Q479 374 487 367.5 Q495 361 505 357 Q526 349 533 353 Q540 357 536 362 Z M830 409 Q830 424 803 427.5 Q776 431 728 433 Q660 435 594.5 436 Q529 437 480 437 Q494 432 503 424.5 Q512 417 520 406 L541 374 Q582 375 624 377 Q666 379 728 382 Q784 386 807 389.5 Q830 393 830 409 Z M122 200 L122 403 L78 403 L78 200 L122 200 Z M589 250 Q589 260 582.5 267 Q576 274 566 275 Q557 275 540 275.5 Q523 276 504.5 276 Q486 276 470 276 Q454 276 447 275 Q433 273 425.5 267.5 Q418 262 419 247 Q420 236 430 231.5 Q440 227 450 227 Q451 227 467 227 Q483 227 502.5 227 Q522 227 540.5 228 Q559 229 564 230 Q589 234 589 250 Z M564 187 Q566 195 561.5 202.5 Q557 210 546 211 Q524 213 492 213 Q460 213 433 212 Q424 212 413.5 208.5 Q403 205 402 194 Q399 167 432 165 Q457 163 488.5 163.5 Q520 164 546 169 Q554 171 558.5 176 Q563 181 564 187 Z M615 311 Q616 319 611 325 Q606 331 596 333 Q564 337 531.5 336 Q499 335 462 333 Q451 332 446.5 327 Q442 322 442 316 Q442 305 447.5 300.5 Q453 296 461 294 Q472 293 488.5 292 Q505 291 523.5 291 Q542 291 561 291 Q580 291 595 292 Q605 292 610 298 Q615 304 615 311 Z " />
<glyph glyph-name="paragraph" unicode="&#xb6;" horiz-adv-x="584" d="M284 349 L234 349 Q194 349 157.5 360.5 Q121 372 93 395 Q65 418 48.5 452 Q32 486 32 531 Q32 568 44.5 601.5 Q57 635 84.5 660.5 Q112 686 157 701 Q202 716 268 716 L504 716 L504 -122 L437 -122 L437 657 L351 657 L351 -122 L284 -122 L284 349 Z " />
<glyph glyph-name="dagger" unicode="&#x2020;" horiz-adv-x="493" d="M205 413 L40 413 L40 492 L205 492 L205 694 L288 694 L288 492 L453 492 L453 413 L288 413 L288 -91 L205 -91 L205 413 Z " />
<glyph glyph-name="daggerdbl" unicode="&#x2021;" horiz-adv-x="493" d="M40 190 L205 190 L205 413 L40 413 L40 492 L205 492 L205 694 L288 694 L288 492 L453 492 L453 413 L288 413 L288 190 L453 190 L453 111 L288 111 L288 -91 L205 -91 L205 111 L40 111 L40 190 Z " />
<glyph glyph-name="arrowupdn" unicode="&#x2195;" horiz-adv-x="910" d="M484 553 L484 135 L611 209 L628 194 L455 -14 L282 194 L299 209 L426 135 L426 553 L299 478 L282 493 L455 701 L628 493 L611 478 L484 553 Z " />
<glyph glyph-name="uni2197" unicode="&#x2197;" horiz-adv-x="910" d="M101 31 L682 612 L540 648 L539 671 L808 696 L783 427 L760 428 L724 570 L142 -11 L101 31 Z " />
<glyph glyph-name="uni2199" unicode="&#x2199;" horiz-adv-x="910" d="M809 657 L227 76 L369 39 L371 16 L101 -9 L126 261 L149 259 L186 117 L768 698 L809 657 Z " />
<glyph glyph-name="uni2196" unicode="&#x2196;" horiz-adv-x="910" d="M767 -11 L185 570 L149 428 L126 427 L101 696 L370 671 L369 648 L227 612 L808 31 L767 -11 Z " />
<glyph glyph-name="uni2198" unicode="&#x2198;" horiz-adv-x="910" d="M142 698 L724 117 L761 259 L784 261 L809 -9 L539 16 L541 39 L683 76 L101 657 L142 698 Z " />
<glyph glyph-name="uni266D" unicode="&#x266d;" horiz-adv-x="517" d="M342 229 Q342 256 337 279 Q332 302 323 319 Q314 336 300.5 346 Q287 356 271 356 Q243 356 222.5 344 Q202 332 188.5 314.5 Q175 297 168.5 276.5 Q162 256 162 238 L162 24 Q191 26 223 38 Q255 50 281.5 74 Q308 98 325 136 Q342 174 342 229 Z M418 266 Q418 210 403.5 166.5 Q389 123 365 91.5 Q341 60 309 38.5 Q277 17 241.5 3.5 Q206 -10 169 -16.5 Q132 -23 99 -25 L99 640 L162 640 L162 312 Q168 328 177.5 344.5 Q187 361 203.5 375 Q220 389 244 398 Q268 407 302 407 Q326 407 347 397 Q368 387 384 368.5 Q400 350 409 324 Q418 298 418 266 Z " />
<glyph glyph-name="uni2669" unicode="&#x2669;" horiz-adv-x="388" d="M288 115 Q288 72 281.5 44 Q275 16 253 -10 Q239 -26 221 -39.5 Q203 -53 183.5 -60 Q164 -67 145.5 -64.5 Q127 -62 114 -47 Q100 -32 99.5 -13 Q99 6 107.5 25 Q116 44 131.5 60.5 Q147 77 165 88 Q202 110 250 117 L250 662 L288 662 L288 115 Z " />
<glyph glyph-name="musicalnote" unicode="&#x266a;" horiz-adv-x="539" d="M479 339 Q479 309 470 277.5 Q461 246 440 214 Q420 184 390 155.5 Q360 127 333 111 Q322 104 318.5 109.5 Q315 115 323 123 Q336 136 353 155 Q370 174 385.5 198.5 Q401 223 411.5 252.5 Q422 282 422 316 Q422 349 403 372 Q384 395 357 411.5 Q330 428 300 438 Q270 448 248 455 L248 115 Q248 72 241.5 44 Q235 16 213 -10 Q199 -26 181 -39.5 Q163 -53 143.5 -60 Q124 -67 105.5 -64.5 Q87 -62 74 -47 Q60 -32 59.5 -13 Q59 6 67.5 25 Q76 44 91.5 60.5 Q107 77 125 88 Q162 110 210 117 L210 617 Q210 630 211 643.5 Q212 657 219 657 Q226 657 232 652 Q238 647 250 633 Q263 618 278 601.5 Q293 585 320 562 Q363 525 393.5 494 Q424 463 443 436 Q462 409 470.5 385.5 Q479 362 479 339 Z " />
<glyph glyph-name="uni266C" unicode="&#x266c;" horiz-adv-x="693" d="M598 486 L598 544 L251 470 L251 412 L598 486 Z M638 191 Q638 156 619 126 Q600 96 571 72 Q558 61 541.5 52 Q525 43 508.5 40 Q492 37 476.5 40.5 Q461 44 450 59 Q441 70 442 85.5 Q443 101 450 117 Q457 133 468.5 147.5 Q480 162 493 172 Q522 193 546.5 199.5 Q571 206 598 210 L598 392 L251 317 L251 94 Q251 59 232 29 Q213 -1 184 -25 Q171 -36 154.5 -45 Q138 -54 121.5 -57 Q105 -60 89.5 -56.5 Q74 -53 63 -38 Q54 -27 55 -11.5 Q56 4 63 20 Q70 36 81.5 50.5 Q93 65 106 75 Q135 96 159.5 102.5 Q184 109 211 113 L211 559 L638 645 L638 191 Z " />
<glyph glyph-name="uni327F" unicode="&#x327f;" horiz-adv-x="910" d="M880 301 Q880 214 849.5 136.5 Q819 59 763 1.5 Q707 -56 628.5 -90 Q550 -124 454 -124 Q373 -124 304.5 -99 Q236 -74 183 -30 Q130 14 93 74.5 Q56 135 40 207 L118 208 Q133 151 162 103 Q191 55 233.5 20.5 Q276 -14 331.5 -33.5 Q387 -53 454 -53 Q531 -53 594.5 -27 Q658 -1 704 44 Q750 89 776.5 149.5 Q803 210 807 280 L632 280 L632 352 L877 352 Q880 326 880 301 Z M774 442 Q754 489 724 528.5 Q694 568 654 596 Q614 624 564 639.5 Q514 655 454 655 Q382 655 322 632 Q262 609 217.5 568.5 Q173 528 144 472.5 Q115 417 105 352 L227 352 L227 280 L30 280 L30 301 Q30 388 61 465 Q92 542 147.5 599.5 Q203 657 281 691 Q359 725 454 725 Q529 725 591.5 704.5 Q654 684 704.5 647 Q755 610 792 557.5 Q829 505 853 442 L774 442 Z M492 350 L678 83 L578 83 L437 293 L373 228 L373 83 L293 83 L293 532 L373 532 L373 325 L567 532 L670 532 L492 350 Z " />
<glyph glyph-name="uni321C" unicode="&#x321c;" horiz-adv-x="910" d="M114 274 Q114 160 144 48 Q174 -64 251 -170 L170 -170 Q95 -81 59 32 Q23 145 23 279 L23 319 Q23 453 59 565 Q95 677 170 766 L251 766 Q177 666 145.5 555.5 Q114 445 114 324 L114 274 Z M796 324 Q796 445 764.5 555.5 Q733 666 659 766 L740 766 Q815 677 851 565 Q887 453 887 319 L887 279 Q887 145 851 32 Q815 -81 740 -170 L659 -170 Q736 -64 766 48 Q796 160 796 274 L796 324 Z M675 602 L675 536 L492 536 L492 519 Q492 511 494.5 501 Q497 491 516.5 476 Q536 461 578.5 438.5 Q621 416 702 382 L669 318 Q603 346 562.5 365.5 Q522 385 499.5 398 Q477 411 467.5 419 Q458 427 454 432 Q449 427 440 419 Q431 411 408.5 398 Q386 385 346 365.5 Q306 346 239 318 Q230 334 222 350 Q214 366 206 382 Q287 416 330 438.5 Q373 461 392 476 Q411 491 413.5 500.5 Q416 510 416 519 L416 536 L234 536 L234 602 L675 602 Z M752 271 L752 205 L493 205 L493 -9 L416 -9 L416 205 L157 205 L157 271 L752 271 Z " />
<glyph glyph-name="uni2116" unicode="&#x2116;" horiz-adv-x="900" d="M180 695 L350 232 Q357 212 366.5 183.5 Q376 155 384 104 L384 695 L472 695 L472 -26 L358 -26 L186 437 Q178 459 168.5 491 Q159 523 154 565 L154 -26 L66 -26 L66 695 L180 695 Z M682 512 Q761 512 807 464.5 Q853 417 853 327 L853 283 Q853 193 807 145 Q761 97 682 97 Q604 97 558 145 Q512 193 512 283 L512 327 Q512 417 558 464.5 Q604 512 682 512 Z M682 172 Q724 172 746.5 200.5 Q769 229 769 290 L769 319 Q769 380 746.5 408.5 Q724 437 682 437 Q640 437 618 408.5 Q596 380 596 319 L596 290 Q596 229 618 200.5 Q640 172 682 172 Z M540 51 L825 51 L825 -26 L540 -26 L540 51 Z " />
<glyph glyph-name="uni33C7" unicode="&#x33c7;" horiz-adv-x="900" d="M828 52 L897 52 L897 -26 L828 -26 L828 52 Z M645 -37 Q537 -37 487.5 40 Q438 117 438 277 L438 392 Q438 550 488 628 Q538 706 645 706 Q752 706 802 628 Q852 550 852 392 L852 277 Q852 117 802.5 40 Q753 -37 645 -37 Z M645 621 Q583 621 558 564.5 Q533 508 533 381 L533 288 Q533 161 558 104.5 Q583 48 645 48 Q707 48 732 104.5 Q757 161 757 288 L757 381 Q757 508 732 564.5 Q707 621 645 621 Z M450 43 Q407 -4 360 -20.5 Q313 -37 261 -37 Q143 -37 87.5 40 Q32 117 32 280 L32 389 Q32 471 48 531 Q64 591 93.5 630 Q123 669 164.5 687.5 Q206 706 258 706 Q310 706 354 690.5 Q398 675 437 638 L382 571 Q346 604 316.5 611.5 Q287 619 258 619 Q228 619 204 606.5 Q180 594 162.5 565.5 Q145 537 136 491.5 Q127 446 127 379 L127 290 Q127 162 162.5 106 Q198 50 261 50 Q299 50 332 63 Q365 76 393 110 L450 43 Z " />
<glyph glyph-name="trademark" unicode="&#x2122;" horiz-adv-x="725" d="M116 636 L20 636 L20 695 L288 695 L288 636 L192 636 L192 369 L116 369 L116 636 Z M322 695 L414 695 L498 507 L501 507 L588 695 L678 695 L678 369 L607 369 L607 599 L606 599 L528 433 L469 433 L389 605 L387 605 L387 369 L322 369 L322 695 Z " />
<glyph glyph-name="uni33C2" unicode="&#x33c2;" horiz-adv-x="910" d="M264 -26 L194 -26 L194 24 Q186 -2 168 -17.5 Q150 -33 118 -33 Q78 -33 48.5 1.5 Q19 36 19 111 L19 140 Q19 215 53.5 258 Q88 301 158 301 L182 301 L182 369 Q182 404 172.5 425 Q163 446 135 446 Q118 446 102.5 438.5 Q87 431 69 411 L22 469 Q42 489 70.5 506 Q99 523 139 523 Q167 523 190 516 Q213 509 229.5 492 Q246 475 255 446 Q264 417 264 374 L264 -26 Z M183 228 L159 228 Q103 228 103 136 L103 118 Q103 86 109.5 63 Q116 40 139 40 Q151 40 159 47.5 Q167 55 172.5 67 Q178 79 180.5 94 Q183 109 183 124 L183 228 Z M366 513 L439 513 L439 457 Q446 481 466.5 502 Q487 523 521 523 Q547 523 570 509 Q593 495 604 453 Q615 482 637.5 502.5 Q660 523 698 523 Q745 523 776.5 491.5 Q808 460 808 388 L808 -26 L724 -26 L724 352 Q724 397 716 420 Q708 443 678 443 Q652 443 640.5 417 Q629 391 629 350 L629 -26 L545 -26 L545 361 Q545 408 534 425.5 Q523 443 500 443 Q474 443 462 417.5 Q450 392 450 344 L450 -26 L366 -26 L366 513 Z M826 52 L895 52 L895 -26 L826 -26 L826 52 Z M280 52 L349 52 L349 -26 L280 -26 L280 52 Z " />
<glyph glyph-name="uni33D8" unicode="&#x33d8;" horiz-adv-x="910" d="M111 -240 L27 -240 L27 513 L105 513 L105 457 Q113 487 131.5 505 Q150 523 179 523 Q239 523 263 469.5 Q287 416 287 302 L287 187 Q287 124 280.5 82 Q274 40 261 14 Q248 -12 228 -23 Q208 -34 180 -34 Q154 -34 136.5 -21 Q119 -8 111 11 L111 -240 Z M376 513 L449 513 L449 457 Q456 481 476 502 Q496 523 530 523 Q556 523 580.5 507 Q605 491 612 453 Q620 482 644 502.5 Q668 523 700 523 Q747 523 778.5 491.5 Q810 460 810 388 L810 -26 L726 -26 L726 353 Q726 398 717 420.5 Q708 443 683 443 Q659 443 648 420 Q637 397 637 353 L637 -26 L547 -26 L547 362 Q547 409 536.5 426 Q526 443 505 443 Q484 443 472 420.5 Q460 398 460 347 L460 -26 L376 -26 L376 513 Z M203 292 Q203 378 193.5 410.5 Q184 443 159 443 Q144 443 134.5 433.5 Q125 424 120 408 Q115 392 113 370 Q111 348 111 324 L111 153 Q111 105 121 74.5 Q131 44 161 44 Q171 44 179 49 Q187 54 192 70 Q197 86 200 114 Q203 142 203 189 L203 292 Z M289 52 L358 52 L358 -26 L289 -26 L289 52 Z M828 52 L897 52 L897 -26 L828 -26 L828 52 Z " />
<glyph glyph-name="uni2121" unicode="&#x2121;" horiz-adv-x="1060" d="M702 513 L702 430 L496 430 L496 296 L681 296 L681 213 L496 213 L496 57 L709 57 L709 -26 L399 -26 L399 513 L702 513 Z M192 -26 L192 612 L8 612 L8 695 L473 695 L473 612 L289 612 L289 -26 L192 -26 Z M858 513 L858 57 L1052 57 L1052 -26 L761 -26 L761 513 L858 513 Z " />
<glyph glyph-name="uniFF01" unicode="&#xff01;" horiz-adv-x="910" d="M398 48 L512 48 L512 -67 L398 -67 L398 48 Z M413 151 L399 734 L511 734 L497 151 L413 151 Z " />
<glyph glyph-name="uniFF02" unicode="&#xff02;" horiz-adv-x="910" d="M331 488 L321 734 L425 734 L415 488 L331 488 Z M494 488 L484 734 L588 734 L578 488 L494 488 Z " />
<glyph glyph-name="uniFF03" unicode="&#xff03;" horiz-adv-x="910" d="M691 262 L691 175 L578 175 L550 -26 L470 -26 L498 175 L367 175 L340 -26 L259 -26 L287 175 L188 175 L188 262 L299 262 L320 412 L219 412 L219 499 L333 499 L360 695 L440 695 L413 499 L543 499 L570 695 L651 695 L623 499 L722 499 L722 412 L611 412 L590 262 L691 262 Z M531 412 L400 412 L379 262 L510 262 L531 412 Z " />
<glyph glyph-name="uniFF04" unicode="&#xff04;" horiz-adv-x="910" d="M427 -21 Q363 -17 302.5 4.5 Q242 26 201 59 L251 134 Q286 107 332.5 87.5 Q379 68 427 63 L427 303 Q380 314 341 328.5 Q302 343 274 365 Q246 387 230.5 418.5 Q215 450 215 495 L215 513 Q215 547 228 577 Q241 607 267.5 631 Q294 655 333.5 670.5 Q373 686 427 690 L427 751 L488 751 L488 691 Q547 688 596.5 671 Q646 654 681 627 L633 557 Q565 602 488 608 L488 377 Q551 360 593.5 341.5 Q636 323 661.5 299.5 Q687 276 698 247.5 Q709 219 709 183 L709 168 Q709 123 692.5 89 Q676 55 647 32 Q618 9 577 -4 Q536 -17 488 -20 L488 -93 L427 -93 L427 -21 Z M612 176 Q612 195 607 211 Q602 227 588 240.5 Q574 254 550 266 Q526 278 488 288 L488 63 Q550 70 581 97 Q612 124 612 161 L612 176 Z M311 497 Q311 454 341 432 Q371 410 427 393 L427 607 Q366 601 338.5 573.5 Q311 546 311 514 L311 497 Z " />
<glyph glyph-name="uniFF05" unicode="&#xff05;" horiz-adv-x="910" d="M194 -25 L625 695 L714 695 L284 -25 L194 -25 Z M235 706 Q311 706 354.5 661 Q398 616 398 537 L398 495 Q398 416 354.5 371 Q311 326 235 326 Q159 326 115.5 371 Q72 416 72 495 L72 537 Q72 616 115.5 661 Q159 706 235 706 Z M235 394 Q320 394 320 497 L320 535 Q320 638 235 638 Q150 638 150 535 L150 497 Q150 394 235 394 Z M674 346 Q750 346 793.5 301 Q837 256 837 177 L837 135 Q837 56 793.5 11 Q750 -34 674 -34 Q598 -34 554.5 11 Q511 56 511 135 L511 177 Q511 256 554.5 301 Q598 346 674 346 Z M674 34 Q759 34 759 137 L759 175 Q759 278 674 278 Q589 278 589 175 L589 137 Q589 34 674 34 Z " />
<glyph glyph-name="uniFF06" unicode="&#xff06;" horiz-adv-x="910" d="M381 49 Q429 49 469 65.5 Q509 82 539 111 L370 313 Q335 294 309 277.5 Q283 261 266.5 244 Q250 227 242 208.5 Q234 190 234 168 L234 152 Q234 131 245 112.5 Q256 94 276 79.5 Q296 65 322.5 57 Q349 49 381 49 Z M317 544 Q317 530 324 515 Q331 500 341.5 484 Q352 468 365.5 451.5 Q379 435 392 420 Q425 439 445 455.5 Q465 472 476 487.5 Q487 503 491 517 Q495 531 495 544 L495 555 Q495 583 469 602.5 Q443 622 406 622 Q364 622 340.5 601.5 Q317 581 317 555 L317 544 Z M716 361 Q716 209 653 112 L769 -25 L655 -25 L596 45 Q551 3 495 -17 Q439 -37 383 -37 L377 -37 Q332 -37 289.5 -26 Q247 -15 214 8 Q181 31 161 66 Q141 101 141 149 L141 172 Q141 206 151.5 235 Q162 264 183.5 289 Q205 314 237 336 Q269 358 313 380 Q298 398 282.5 416.5 Q267 435 255 454.5 Q243 474 235 495.5 Q227 517 227 541 L227 559 Q227 588 238.5 614.5 Q250 641 272.5 661.5 Q295 682 328.5 694 Q362 706 406 706 Q448 706 481 693 Q514 680 537.5 659 Q561 638 573.5 612 Q586 586 586 559 L586 540 Q586 516 579.5 493 Q573 470 557 447.5 Q541 425 514 402 Q487 379 446 355 L592 184 Q609 216 617 257 Q625 298 625 361 L716 361 Z " />
<glyph glyph-name="uniFF07" unicode="&#xff07;" horiz-adv-x="910" d="M411 488 L401 734 L509 734 L499 488 L411 488 Z " />
<glyph glyph-name="uniFF08" unicode="&#xff08;" horiz-adv-x="910" d="M750 274 Q750 160 780 48 Q810 -64 887 -170 L795 -170 Q720 -81 684 32 Q648 145 648 279 L648 319 Q648 453 684 565 Q720 677 795 766 L887 766 Q813 666 781.5 555.5 Q750 445 750 324 L750 274 Z " />
<glyph glyph-name="uniFF09" unicode="&#xff09;" horiz-adv-x="910" d="M160 324 Q160 445 128.5 555.5 Q97 666 23 766 L115 766 Q190 677 226 565 Q262 453 262 319 L262 279 Q262 145 226 32 Q190 -81 115 -170 L23 -170 Q100 -64 130 48 Q160 160 160 274 L160 324 Z " />
<glyph glyph-name="uniFF0A" unicode="&#xff0a;" horiz-adv-x="910" d="M304 400 L263 477 L402 536 L263 594 L304 671 L423 588 L412 731 L498 731 L486 588 L606 671 L646 594 L507 536 L646 477 L606 400 L486 483 L498 341 L412 341 L424 483 L304 400 Z " />
<glyph glyph-name="uniFF0B" unicode="&#xff0b;" horiz-adv-x="910" d="M500 571 L500 360 L707 360 L707 276 L500 276 L500 51 L410 51 L410 276 L203 276 L203 360 L410 360 L410 571 L500 571 Z " />
<glyph glyph-name="uniFF0C" unicode="&#xff0c;" horiz-adv-x="910" d="M418 53 L533 53 L456 -175 L376 -175 L418 53 Z " />
<glyph glyph-name="uniFF0D" unicode="&#xff0d;" horiz-adv-x="910" d="M343 376 L669 376 L669 292 L343 292 L343 376 Z " />
<glyph glyph-name="uniFF0E" unicode="&#xff0e;" horiz-adv-x="910" d="M398 48 L512 48 L512 -67 L398 -67 L398 48 Z " />
<glyph glyph-name="uniFF0F" unicode="&#xff0f;" horiz-adv-x="910" d="M655 768 L349 -128 L254 -128 L559 768 L655 768 Z " />
<glyph glyph-name="uniFF10" unicode="&#xff10;" horiz-adv-x="910" d="M710 279 Q710 126 647.5 44.5 Q585 -37 455 -37 Q326 -37 263 45 Q200 127 200 279 L200 391 Q200 543 264 624.5 Q328 706 455 706 Q583 706 646.5 624.5 Q710 543 710 391 L710 279 Z M609 392 Q609 458 597.5 501 Q586 544 565 569 Q544 594 516 604 Q488 614 455 614 Q423 614 395 604 Q367 594 346 568.5 Q325 543 313 500.5 Q301 458 301 392 L301 278 Q301 212 313 168.5 Q325 125 346 100 Q367 75 395 65 Q423 55 455 55 Q488 55 516 65 Q544 75 565 100 Q586 125 597.5 168 Q609 211 609 278 L609 392 Z " />
<glyph glyph-name="uniFF11" unicode="&#xff11;" horiz-adv-x="910" d="M513 -26 L513 579 L344 479 L297 559 L529 695 L612 695 L612 -26 L513 -26 Z " />
<glyph glyph-name="uniFF12" unicode="&#xff12;" horiz-adv-x="910" d="M482 349 Q513 383 531 408 Q549 433 558 452.5 Q567 472 569.5 487.5 Q572 503 572 517 L572 525 Q572 568 538.5 592.5 Q505 617 448 617 Q428 617 407.5 612.5 Q387 608 367 596 Q347 584 328 563.5 Q309 543 291 512 L215 561 Q228 584 247 609.5 Q266 635 293.5 656.5 Q321 678 358.5 692 Q396 706 446 706 Q501 706 543 692.5 Q585 679 613.5 655 Q642 631 656.5 597.5 Q671 564 671 525 L671 515 Q671 456 640 404 Q609 352 560 300 L335 60 L697 60 L697 -26 L213 -26 L213 57 L482 349 Z " />
<glyph glyph-name="uniFF13" unicode="&#xff13;" horiz-adv-x="910" d="M235 598 Q251 620 270.5 640 Q290 660 315.5 674.5 Q341 689 372.5 697.5 Q404 706 445 706 Q495 706 535 693 Q575 680 603.5 656.5 Q632 633 647.5 599.5 Q663 566 663 526 L663 516 Q663 495 658 471 Q653 447 640 425 Q627 403 605 384 Q583 365 550 353 Q623 340 659.5 295 Q696 250 696 187 L696 172 Q696 132 681.5 94.5 Q667 57 636.5 27.5 Q606 -2 558 -19.5 Q510 -37 444 -37 Q381 -37 322.5 -17.5 Q264 2 213 43 L262 122 Q315 84 356 68.5 Q397 53 444 53 Q483 53 512 62.5 Q541 72 560 88 Q579 104 588 125.5 Q597 147 597 171 L597 184 Q597 220 585.5 243.5 Q574 267 554 281 Q534 295 506.5 301 Q479 307 448 307 L359 307 L359 393 L444 393 Q478 393 501 403.5 Q524 414 538 431 Q552 448 558.5 470 Q565 492 565 515 L565 523 Q565 547 555.5 564.5 Q546 582 530 594 Q514 606 492 612 Q470 618 446 618 Q401 618 368 601 Q335 584 306 546 L235 598 Z " />
<glyph glyph-name="uniFF14" unicode="&#xff14;" horiz-adv-x="910" d="M633 434 L633 213 L735 213 L735 129 L633 129 L633 -26 L535 -26 L535 129 L175 129 L175 203 L514 695 L623 695 L291 213 L535 213 L535 434 L633 434 Z " />
<glyph glyph-name="uniFF15" unicode="&#xff15;" horiz-adv-x="910" d="M703 191 Q703 151 689 110.5 Q675 70 645 37 Q615 4 567 -16.5 Q519 -37 452 -37 Q378 -37 318 -17.5 Q258 2 207 43 L256 122 Q308 81 355.5 67 Q403 53 454 53 Q493 53 521.5 65 Q550 77 568.5 96.5 Q587 116 595.5 141 Q604 166 604 191 L604 203 Q604 275 566 310.5 Q528 346 459 346 Q413 346 377.5 329 Q342 312 318 289 L242 289 L265 695 L656 695 L656 610 L355 610 L344 385 Q368 403 405.5 416 Q443 429 488 429 Q539 429 579 411.5 Q619 394 646.5 363.5 Q674 333 688.5 292.5 Q703 252 703 206 L703 191 Z " />
<glyph glyph-name="uniFF16" unicode="&#xff16;" horiz-adv-x="910" d="M632 573 Q598 593 559 604 Q520 615 477 615 Q440 615 409.5 602.5 Q379 590 356.5 561 Q334 532 320.5 484 Q307 436 304 365 Q313 381 329.5 395.5 Q346 410 368.5 421.5 Q391 433 418.5 440 Q446 447 476 447 Q524 447 565.5 431 Q607 415 637.5 385 Q668 355 685.5 312.5 Q703 270 703 217 L703 195 Q703 143 685 100.5 Q667 58 635 27.5 Q603 -3 557.5 -20 Q512 -37 457 -37 Q335 -37 270.5 38.5 Q206 114 206 260 L206 297 Q206 415 226.5 494 Q247 573 283.5 620 Q320 667 371 686.5 Q422 706 483 706 Q532 706 580.5 694 Q629 682 670 657 L632 573 Z M307 205 Q307 135 346 94 Q385 53 453 53 Q523 53 563.5 91 Q604 129 604 200 L604 213 Q604 285 563 322 Q522 359 456 359 Q423 359 395.5 348 Q368 337 348.5 318.5 Q329 300 318 274.5 Q307 249 307 219 L307 205 Z " />
<glyph glyph-name="uniFF17" unicode="&#xff17;" horiz-adv-x="910" d="M419 -26 L311 -26 L597 609 L205 609 L205 695 L704 695 L704 619 L419 -26 Z " />
<glyph glyph-name="uniFF18" unicode="&#xff18;" horiz-adv-x="910" d="M335 499 Q335 445 369.5 415 Q404 385 455 385 Q506 385 540.5 415 Q575 445 575 499 L575 510 Q575 561 542 590 Q509 619 455 619 Q401 619 368 590 Q335 561 335 510 L335 499 Z M316 166 Q316 115 353.5 83.5 Q391 52 456 52 Q521 52 557.5 83.5 Q594 115 594 166 L594 177 Q594 236 555 267 Q516 298 456 298 Q427 298 401.5 290.5 Q376 283 357 267.5 Q338 252 327 229.5 Q316 207 316 177 L316 166 Z M214 178 Q214 208 223.5 234.5 Q233 261 250 282.5 Q267 304 289.5 320 Q312 336 338 344 Q286 369 260.5 413 Q235 457 235 503 L235 517 Q235 556 249.5 590 Q264 624 292 650 Q320 676 361 691 Q402 706 455 706 Q507 706 548 691 Q589 676 617 650 Q645 624 660 590 Q675 556 675 517 L675 503 Q675 457 650 414 Q625 371 572 344 Q625 328 660.5 283 Q696 238 696 178 L696 161 Q696 118 679.5 81.5 Q663 45 632 19 Q601 -7 556.5 -22 Q512 -37 455 -37 Q398 -37 353.5 -22 Q309 -7 278 19 Q247 45 230.5 81.5 Q214 118 214 161 L214 178 Z " />
<glyph glyph-name="uniFF19" unicode="&#xff19;" horiz-adv-x="910" d="M277 98 Q311 78 350 66 Q389 54 432 54 Q469 54 500.5 66 Q532 78 554.5 106.5 Q577 135 590 182 Q603 229 605 300 Q596 284 579 269.5 Q562 255 539.5 243.5 Q517 232 490 225 Q463 218 433 218 Q385 218 343.5 234 Q302 250 271.5 280 Q241 310 223.5 352.5 Q206 395 206 448 L206 470 Q206 522 224 565 Q242 608 274 639.5 Q306 671 351.5 688.5 Q397 706 452 706 Q573 706 638 632.5 Q703 559 703 413 L703 376 Q703 257 685 178 Q667 99 631.5 51 Q596 3 544.5 -17 Q493 -37 426 -37 Q377 -37 328.5 -24 Q280 -11 239 14 L277 98 Z M602 462 Q602 532 563 574 Q524 616 456 616 Q386 616 345.5 577 Q305 538 305 467 L305 454 Q305 382 347 344 Q389 306 453 306 Q486 306 513.5 317 Q541 328 560.5 347.5 Q580 367 591 392.5 Q602 418 602 448 L602 462 Z " />
<glyph glyph-name="uniFF1A" unicode="&#xff1a;" horiz-adv-x="910" d="M398 48 L512 48 L512 -67 L398 -67 L398 48 Z M398 548 L512 548 L512 433 L398 433 L398 548 Z " />
<glyph glyph-name="uniFF1B" unicode="&#xff1b;" horiz-adv-x="910" d="M408 548 L522 548 L522 433 L408 433 L408 548 Z M418 53 L533 53 L456 -175 L376 -175 L418 53 Z " />
<glyph glyph-name="uniFF1C" unicode="&#xff1c;" horiz-adv-x="910" d="M329 318 L691 131 L691 31 L219 281 L219 360 L691 610 L691 511 L329 324 L329 318 Z " />
<glyph glyph-name="uniFF1D" unicode="&#xff1d;" horiz-adv-x="910" d="M224 468 L686 468 L686 383 L224 383 L224 468 Z M224 257 L686 257 L686 172 L224 172 L224 257 Z " />
<glyph glyph-name="uniFF1E" unicode="&#xff1e;" horiz-adv-x="910" d="M581 324 L219 511 L219 610 L691 360 L691 281 L219 31 L219 131 L581 318 L581 324 Z " />
<glyph glyph-name="uniFF1F" unicode="&#xff1f;" horiz-adv-x="910" d="M386 141 L386 187 Q386 212 390 231.5 Q394 251 404.5 270 Q415 289 433 310 Q451 331 478 358 Q505 385 523.5 403.5 Q542 422 553.5 437.5 Q565 453 570 469.5 Q575 486 575 510 L575 523 Q575 561 546.5 589.5 Q518 618 456 618 Q407 618 366.5 598.5 Q326 579 294 546 L234 615 Q273 657 326.5 681.5 Q380 706 454 706 Q559 706 617 656 Q675 606 675 524 L675 510 Q675 473 664.5 445 Q654 417 636.5 393 Q619 369 596.5 348 Q574 327 551 305 Q534 289 522.5 275.5 Q511 262 503 248 Q495 234 491.5 218.5 Q488 203 488 184 L488 141 L386 141 Z M381 48 L495 48 L495 -67 L381 -67 L381 48 Z " />
<glyph glyph-name="uniFF20" unicode="&#xff20;" horiz-adv-x="910" d="M716 40 Q676 40 639 60.5 Q602 81 587 126 L586 126 Q577 102 559 86 Q541 70 519.5 60 Q498 50 476 46 Q454 42 436 42 Q340 42 290 96 Q240 150 240 241 L240 319 Q240 411 288.5 464.5 Q337 518 421 518 Q477 518 510 501 Q543 484 557 460 L557 512 L651 512 L651 197 Q651 155 668 135.5 Q685 116 717 116 Q742 116 761 125.5 Q780 135 793 156.5 Q806 178 813 212.5 Q820 247 820 297 L820 308 Q820 392 795.5 458 Q771 524 723 570.5 Q675 617 605 641.5 Q535 666 444 666 Q366 666 301 641 Q236 616 189.5 568.5 Q143 521 117 452 Q91 383 91 296 L91 279 Q91 186 116.5 114.5 Q142 43 190 -5.5 Q238 -54 307.5 -79.5 Q377 -105 464 -105 Q539 -105 613 -88.5 Q687 -72 749 -40 L777 -110 Q714 -144 635.5 -162.5 Q557 -181 467 -181 Q359 -181 274 -149 Q189 -117 130 -57 Q71 3 39.5 88 Q8 173 8 278 L8 297 Q8 393 38.5 474.5 Q69 556 125.5 615 Q182 674 262.5 707.5 Q343 741 444 741 Q555 741 640 709.5 Q725 678 783 621 Q841 564 871 485 Q901 406 901 311 L901 298 Q901 254 892.5 208.5 Q884 163 863 125.5 Q842 88 806.5 64 Q771 40 716 40 Z M339 257 Q339 200 364 166.5 Q389 133 443 133 Q464 133 483.5 138 Q503 143 518.5 155 Q534 167 543 187 Q552 207 552 237 L552 325 Q552 345 546.5 363.5 Q541 382 528 396.5 Q515 411 494 419.5 Q473 428 443 428 Q394 428 366.5 401 Q339 374 339 303 L339 257 Z " />
<glyph glyph-name="uniFF21" unicode="&#xff21;" horiz-adv-x="910" d="M771 -26 L667 -26 L591 186 L315 186 L239 -26 L138 -26 L406 695 L502 695 L771 -26 Z M345 271 L561 271 L501 440 Q493 462 487 478.5 Q481 495 476 510.5 Q471 526 465.5 543 Q460 560 453 585 Q445 560 440 542.5 Q435 525 430 510 Q425 495 419.5 478.5 Q414 462 406 440 L345 271 Z " />
<glyph glyph-name="uniFF22" unicode="&#xff22;" horiz-adv-x="910" d="M196 695 L452 695 Q681 695 681 519 L681 498 Q681 474 675 451.5 Q669 429 655.5 410 Q642 391 619.5 376.5 Q597 362 565 354 Q631 344 672.5 304 Q714 264 714 189 L714 164 Q714 75 657.5 24.5 Q601 -26 483 -26 L196 -26 L196 695 Z M295 60 L446 60 Q488 60 519.5 64.5 Q551 69 571.5 81 Q592 93 602 113.5 Q612 134 612 166 L612 188 Q612 221 603 244 Q594 267 572 282 Q550 297 514 303.5 Q478 310 424 310 L295 310 L295 60 Z M295 610 L295 391 L423 391 Q460 391 489.5 395 Q519 399 539 411 Q559 423 569.5 444 Q580 465 580 499 L580 517 Q580 549 570.5 567.5 Q561 586 540.5 595.5 Q520 605 489 607.5 Q458 610 416 610 L295 610 Z " />
<glyph glyph-name="uniFF23" unicode="&#xff23;" horiz-adv-x="910" d="M727 55 Q673 3 609 -17 Q545 -37 472 -37 Q407 -37 354 -17.5 Q301 2 263 42 Q225 82 204 141 Q183 200 183 280 L183 389 Q183 468 204 527 Q225 586 263.5 626 Q302 666 355 686 Q408 706 472 706 Q547 706 603 687.5 Q659 669 710 629 L659 548 Q610 588 565.5 601 Q521 614 472 614 Q431 614 396.5 600 Q362 586 336.5 557 Q311 528 297 483 Q283 438 283 376 L283 293 Q283 231 297 186 Q311 141 336.5 112 Q362 83 396.5 69 Q431 55 472 55 Q524 55 576 71 Q628 87 673 131 L727 55 Z " />
<glyph glyph-name="uniFF24" unicode="&#xff24;" horiz-adv-x="910" d="M423 695 Q572 695 649 615.5 Q726 536 726 386 L726 283 Q726 133 651 53.5 Q576 -26 423 -26 L184 -26 L184 695 L423 695 Z M283 62 L414 62 Q462 62 501 74.5 Q540 87 567.5 114 Q595 141 610 184 Q625 227 625 288 L625 381 Q625 442 610 485 Q595 528 567.5 555.5 Q540 583 501 595.5 Q462 608 414 608 L283 608 L283 62 Z " />
<glyph glyph-name="uniFF25" unicode="&#xff25;" horiz-adv-x="910" d="M676 695 L676 610 L326 610 L326 386 L655 386 L655 301 L326 301 L326 59 L683 59 L683 -26 L227 -26 L227 695 L676 695 Z " />
<glyph glyph-name="uniFF26" unicode="&#xff26;" horiz-adv-x="910" d="M678 695 L678 610 L331 610 L331 369 L657 369 L657 284 L331 284 L331 -26 L232 -26 L232 695 L678 695 Z " />
<glyph glyph-name="uniFF27" unicode="&#xff27;" horiz-adv-x="910" d="M731 28 Q683 -5 618.5 -21 Q554 -37 486 -37 Q414 -37 357 -17.5 Q300 2 260.5 42 Q221 82 199.5 141 Q178 200 178 280 L178 389 Q178 468 199 527 Q220 586 259 626 Q298 666 353.5 686 Q409 706 478 706 Q548 706 607 688 Q666 670 717 630 L666 550 Q619 587 574 601.5 Q529 616 478 616 Q384 616 330.5 558.5 Q277 501 277 376 L277 293 Q277 168 334.5 110.5 Q392 53 489 53 Q530 53 566.5 60.5 Q603 68 632 82 L632 285 L472 285 L472 370 L731 370 L731 28 Z " />
<glyph glyph-name="uniFF28" unicode="&#xff28;" horiz-adv-x="910" d="M721 695 L721 -26 L622 -26 L622 306 L287 306 L287 -26 L188 -26 L188 695 L287 695 L287 394 L622 394 L622 695 L721 695 Z " />
<glyph glyph-name="uniFF29" unicode="&#xff29;" horiz-adv-x="910" d="M504 695 L504 -26 L405 -26 L405 695 L504 695 Z " />
<glyph glyph-name="uniFF2A" unicode="&#xff2a;" horiz-adv-x="910" d="M643 172 Q643 112 627 72 Q611 32 583 7.5 Q555 -17 517 -27 Q479 -37 434 -37 Q395 -37 348.5 -23 Q302 -9 267 22 L314 100 Q346 75 374 65 Q402 55 437 55 Q493 55 518.5 86.5 Q544 118 544 193 L544 695 L643 695 L643 172 Z " />
<glyph glyph-name="uniFF2B" unicode="&#xff2b;" horiz-adv-x="910" d="M424 383 L731 -26 L605 -26 L356 311 L277 226 L277 -26 L178 -26 L178 695 L277 695 L277 350 L593 695 L714 695 L424 383 Z " />
<glyph glyph-name="uniFF2C" unicode="&#xff2c;" horiz-adv-x="910" d="M332 695 L332 59 L677 59 L677 -26 L233 -26 L233 695 L332 695 Z " />
<glyph glyph-name="uniFF2D" unicode="&#xff2d;" horiz-adv-x="910" d="M243 494 Q238 505 234 515.5 Q230 526 226 537 Q222 548 217 562 Q212 576 206 594 L206 -26 L112 -26 L112 695 L258 695 L458 223 L653 695 L798 695 L798 -26 L703 -26 L703 594 Q698 574 693.5 560.5 Q689 547 685.5 536 Q682 525 678 515 Q674 505 669 494 L497 94 L413 94 L243 494 Z " />
<glyph glyph-name="uniFF2E" unicode="&#xff2e;" horiz-adv-x="910" d="M300 695 L580 209 Q591 191 604.5 163.5 Q618 136 631 104 L631 695 L723 695 L723 -26 L609 -26 L329 458 Q318 478 304.5 505 Q291 532 278 564 L278 -26 L186 -26 L186 695 L300 695 Z " />
<glyph glyph-name="uniFF2F" unicode="&#xff2f;" horiz-adv-x="910" d="M455 -37 Q390 -37 336.5 -17.5 Q283 2 244 42 Q205 82 183.5 141 Q162 200 162 280 L162 389 Q162 468 183.5 527 Q205 586 244 626 Q283 666 337 686 Q391 706 455 706 Q519 706 573 686 Q627 666 666 626 Q705 586 726.5 527 Q748 468 748 389 L748 280 Q748 200 726.5 141 Q705 82 666 42 Q627 2 573 -17.5 Q519 -37 455 -37 Z M455 616 Q413 616 377.5 602.5 Q342 589 316.5 560.5 Q291 532 276.5 486.5 Q262 441 262 378 L262 291 Q262 228 276.5 182.5 Q291 137 316.5 108.5 Q342 80 377.5 66.5 Q413 53 455 53 Q497 53 532.5 66.5 Q568 80 593.5 108.5 Q619 137 633.5 182.5 Q648 228 648 291 L648 378 Q648 441 633.5 486.5 Q619 532 593.5 560.5 Q568 589 532.5 602.5 Q497 616 455 616 Z " />
<glyph glyph-name="uniFF30" unicode="&#xff30;" horiz-adv-x="910" d="M206 695 L464 695 Q525 695 570 679.5 Q615 664 644.5 636.5 Q674 609 688.5 571 Q703 533 703 489 L703 468 Q703 424 687.5 385.5 Q672 347 642 318 Q612 289 567.5 272 Q523 255 464 255 L305 255 L305 -26 L206 -26 L206 695 Z M305 609 L305 341 L447 341 Q603 341 603 470 L603 488 Q603 550 565.5 579.5 Q528 609 458 609 L305 609 Z " />
<glyph glyph-name="uniFF31" unicode="&#xff31;" horiz-adv-x="910" d="M445 -37 Q380 -37 327 -17.5 Q274 2 236 42 Q198 82 177 141 Q156 200 156 280 L156 389 Q156 468 177 527 Q198 586 236.5 626 Q275 666 328 686 Q381 706 445 706 Q509 706 562 686 Q615 666 653.5 626 Q692 586 713 527 Q734 468 734 389 L734 280 Q734 208 717 153 Q700 98 669 59 L754 -25 L695 -86 L605 3 Q537 -37 445 -37 Z M445 616 Q404 616 369 602.5 Q334 589 309 560.5 Q284 532 270 486.5 Q256 441 256 378 L256 291 Q256 228 270 182.5 Q284 137 309 108.5 Q334 80 369 66.5 Q404 53 445 53 Q470 53 492.5 57.5 Q515 62 535 73 L445 163 L504 224 L597 131 Q615 160 624.5 199 Q634 238 634 291 L634 378 Q634 441 620 486.5 Q606 532 581 560.5 Q556 589 521.5 602.5 Q487 616 445 616 Z " />
<glyph glyph-name="uniFF32" unicode="&#xff32;" horiz-adv-x="910" d="M297 -26 L198 -26 L198 695 L459 695 Q514 695 557 680 Q600 665 629 639 Q658 613 673.5 577 Q689 541 689 498 L689 472 Q689 411 657.5 364 Q626 317 568 294 L711 -26 L604 -26 L474 275 L297 275 L297 -26 Z M297 359 L435 359 Q519 359 554.5 390.5 Q590 422 590 475 L590 495 Q590 548 555 579 Q520 610 445 610 L297 610 L297 359 Z " />
<glyph glyph-name="uniFF33" unicode="&#xff33;" horiz-adv-x="910" d="M455 53 Q532 53 570.5 84 Q609 115 609 158 L609 174 Q609 198 601 216 Q593 234 574 248 Q555 262 525 273.5 Q495 285 451 294 Q400 305 356 319.5 Q312 334 280 356.5 Q248 379 229.5 412.5 Q211 446 211 495 L211 513 Q211 550 226 584.5 Q241 619 272 646 Q303 673 349.5 689.5 Q396 706 458 706 Q524 706 578 690 Q632 674 678 643 L631 566 Q591 593 550 605 Q509 617 459 617 Q391 617 350.5 587 Q310 557 310 514 L310 498 Q310 473 321 455.5 Q332 438 353 425 Q374 412 405 402.5 Q436 393 476 384 Q543 369 587.5 349.5 Q632 330 659 305 Q686 280 697.5 249 Q709 218 709 181 L709 163 Q709 113 689.5 76 Q670 39 636 13.5 Q602 -12 554.5 -24.5 Q507 -37 452 -37 Q375 -37 310.5 -12.5 Q246 12 201 48 L251 129 Q271 114 297 100 Q323 86 350 75.5 Q377 65 404.5 59 Q432 53 455 53 Z " />
<glyph glyph-name="uniFF34" unicode="&#xff34;" horiz-adv-x="910" d="M405 -26 L405 610 L185 610 L185 695 L724 695 L724 610 L504 610 L504 -26 L405 -26 Z " />
<glyph glyph-name="uniFF35" unicode="&#xff35;" horiz-adv-x="910" d="M723 695 L723 263 Q723 181 705 124 Q687 67 653 31 Q619 -5 569 -21 Q519 -37 455 -37 Q391 -37 341 -21 Q291 -5 257 31 Q223 67 205 124 Q187 181 187 263 L187 695 L286 695 L286 275 Q286 214 296 171.5 Q306 129 327 102.5 Q348 76 380 64 Q412 52 455 52 Q498 52 530 64 Q562 76 583 102.5 Q604 129 614 171.5 Q624 214 624 275 L624 695 L723 695 Z " />
<glyph glyph-name="uniFF36" unicode="&#xff36;" horiz-adv-x="910" d="M246 695 L455 99 L669 695 L771 695 L499 -26 L406 -26 L138 695 L246 695 Z " />
<glyph glyph-name="uniFF37" unicode="&#xff37;" horiz-adv-x="910" d="M915 695 L716 -26 L617 -26 L457 563 L294 -26 L193 -26 L-4 695 L100 695 L248 106 L409 695 L505 695 L666 106 L816 695 L915 695 Z " />
<glyph glyph-name="uniFF38" unicode="&#xff38;" horiz-adv-x="910" d="M519 346 L752 -26 L635 -26 L452 283 L269 -26 L157 -26 L390 350 L172 695 L290 695 L460 411 L629 695 L740 695 L519 346 Z " />
<glyph glyph-name="uniFF39" unicode="&#xff39;" horiz-adv-x="910" d="M505 264 L505 -26 L406 -26 L406 264 L158 695 L268 695 L457 358 L641 695 L751 695 L505 264 Z " />
<glyph glyph-name="uniFF3A" unicode="&#xff3a;" horiz-adv-x="910" d="M712 622 L298 60 L731 60 L731 -26 L178 -26 L178 55 L587 609 L202 609 L202 695 L712 695 L712 622 Z " />
<glyph glyph-name="uniFF3B" unicode="&#xff3b;" horiz-adv-x="910" d="M870 -170 L606 -170 L606 766 L870 766 L870 680 L704 680 L704 -84 L870 -84 L870 -170 Z " />
<glyph glyph-name="uniFFE6" unicode="&#xffe6;" horiz-adv-x="910" d="M12 401 L114 401 L42 695 L141 695 L205 401 L342 401 L416 695 L505 695 L575 401 L708 401 L771 695 L866 695 L794 401 L899 401 L899 340 L779 340 L691 -26 L601 -26 L515 340 L403 340 L313 -26 L219 -26 L129 340 L12 340 L12 401 Z M269 106 L327 340 L218 340 L269 106 Z M645 106 L695 340 L589 340 L645 106 Z M418 401 L501 401 L461 575 L418 401 Z " />
<glyph glyph-name="uniFF3D" unicode="&#xff3d;" horiz-adv-x="910" d="M40 -84 L206 -84 L206 680 L40 680 L40 766 L304 766 L304 -170 L40 -170 L40 -84 Z " />
<glyph glyph-name="uniFF3E" unicode="&#xff3e;" horiz-adv-x="910" d="M577 401 L455 644 L333 401 L239 401 L410 724 L501 724 L671 401 L577 401 Z " />
<glyph glyph-name="uniFF3F" unicode="&#xff3f;" horiz-adv-x="910" d="M705 -140 L205 -140 L205 -75 L705 -75 L705 -140 Z " />
<glyph glyph-name="uniFF40" unicode="&#xff40;" horiz-adv-x="910" d="M478 565 L342 713 L458 713 L567 565 L478 565 Z " />
<glyph glyph-name="uniFF41" unicode="&#xff41;" horiz-adv-x="910" d="M418 -34 Q335 -34 286.5 7 Q238 48 238 120 L238 147 Q238 217 285 261 Q332 305 437 305 L576 305 L576 337 Q576 392 549.5 418.5 Q523 445 463 445 Q415 445 379.5 430 Q344 415 306 390 L258 462 Q298 490 348 510.5 Q398 531 464 531 Q510 531 548 519.5 Q586 508 613.5 485.5 Q641 463 656.5 430.5 Q672 398 672 357 L672 -26 L579 -26 L579 40 L578 40 Q570 25 556.5 12.5 Q543 0 527 -9 Q505 -21 479.5 -27.5 Q454 -34 418 -34 Z M576 223 L439 223 Q382 223 357.5 201 Q333 179 333 140 L333 126 Q333 86 361 68 Q389 50 428 50 Q464 50 490.5 58.5 Q517 67 539 84 Q559 99 567.5 118.5 Q576 138 576 169 L576 223 Z " />
<glyph glyph-name="uniFF42" unicode="&#xff42;" horiz-adv-x="910" d="M318 458 Q344 499 386.5 515 Q429 531 474 531 Q578 531 633 470.5 Q688 410 688 298 L688 201 Q688 145 672 101.5 Q656 58 627.5 28 Q599 -2 559 -18 Q519 -34 471 -34 Q409 -34 372 -12.5 Q335 9 317 38 L315 38 L315 -26 L221 -26 L221 730 L318 730 L318 458 Z M317 169 Q317 148 327.5 126.5 Q338 105 357.5 88.5 Q377 72 403 61.5 Q429 51 461 51 Q523 51 557.5 94 Q592 137 592 215 L592 282 Q592 360 557 403 Q522 446 461 446 Q431 446 405 436 Q379 426 359.5 408 Q340 390 328.5 364.5 Q317 339 317 307 L317 169 Z " />
<glyph glyph-name="uniFF43" unicode="&#xff43;" horiz-adv-x="910" d="M471 531 Q539 531 582.5 514 Q626 497 660 471 L614 398 Q576 426 543.5 435.5 Q511 445 471 445 Q444 445 419 436 Q394 427 375 407.5 Q356 388 344.5 358 Q333 328 333 286 L333 217 Q333 173 344.5 141.5 Q356 110 375.5 90.5 Q395 71 420.5 62 Q446 53 473 53 Q527 53 562.5 67 Q598 81 627 103 L674 29 Q645 5 596 -14.5 Q547 -34 472 -34 Q358 -34 296.5 32 Q235 98 235 216 L235 285 Q235 344 252 389.5 Q269 435 299.5 466.5 Q330 498 373.5 514.5 Q417 531 471 531 Z " />
<glyph glyph-name="uniFF44" unicode="&#xff44;" horiz-adv-x="910" d="M593 42 Q570 0 527.5 -17 Q485 -34 434 -34 Q330 -34 275.5 26.5 Q221 87 221 199 L221 296 Q221 351 237 395 Q253 439 281.5 469 Q310 499 350 515 Q390 531 438 531 Q501 531 537.5 509.5 Q574 488 591 464 L591 730 L688 730 L688 -26 L595 -26 L595 42 L593 42 Z M592 330 Q592 351 581.5 372 Q571 393 551.5 409.5 Q532 426 505.5 436 Q479 446 448 446 Q386 446 351.5 403 Q317 360 317 282 L317 215 Q317 137 352 94 Q387 51 448 51 Q478 51 504 60.5 Q530 70 549.5 88 Q569 106 580.5 131.5 Q592 157 592 189 L592 330 Z " />
<glyph glyph-name="uniFF45" unicode="&#xff45;" horiz-adv-x="910" d="M458 448 Q428 448 402.5 437.5 Q377 427 358.5 408.5 Q340 390 329.5 363.5 Q319 337 319 306 L319 292 L593 292 L593 310 Q593 373 557 410.5 Q521 448 458 448 Z M674 26 Q638 1 588 -16.5 Q538 -34 463 -34 Q412 -34 368.5 -19.5 Q325 -5 292.5 25.5 Q260 56 241.5 104 Q223 152 223 218 L223 280 Q223 342 240.5 389 Q258 436 289.5 467.5 Q321 499 364 515 Q407 531 458 531 Q563 531 625 467 Q687 403 687 286 L687 213 L319 213 L319 209 Q319 131 360 90.5 Q401 50 467 50 Q521 50 559.5 63 Q598 76 633 99 L674 26 Z " />
<glyph glyph-name="uniFF46" unicode="&#xff46;" horiz-adv-x="910" d="M375 438 L285 438 L285 521 L375 521 L375 575 Q375 658 415.5 697 Q456 736 534 736 Q560 736 587.5 732 Q615 728 632 722 L617 643 Q581 653 543 653 Q529 653 516 650 Q503 647 493.5 638.5 Q484 630 478 614 Q472 598 472 571 L472 521 L616 521 L616 438 L472 438 L472 -26 L375 -26 L375 438 Z " />
<glyph glyph-name="uniFF47" unicode="&#xff47;" horiz-adv-x="910" d="M688 -19 Q688 -249 444 -249 Q388 -249 342 -233 Q296 -217 262 -191 L306 -115 Q333 -135 369.5 -148 Q406 -161 447 -161 Q518 -161 554.5 -126.5 Q591 -92 591 -19 L591 48 Q568 9 526 -7.5 Q484 -24 434 -24 Q330 -24 275.5 36.5 Q221 97 221 209 L221 296 Q221 351 237 395 Q253 439 281.5 469 Q310 499 350 515 Q390 531 438 531 Q501 531 537.5 509.5 Q574 488 591 464 L591 521 L688 521 L688 -19 Z M592 330 Q592 351 581.5 372 Q571 393 551.5 409.5 Q532 426 505.5 436 Q479 446 448 446 Q386 446 351.5 403 Q317 360 317 282 L317 225 Q317 147 352 104 Q387 61 448 61 Q478 61 504 70.5 Q530 80 549.5 98 Q569 116 580.5 141.5 Q592 167 592 199 L592 330 Z " />
<glyph glyph-name="uniFF48" unicode="&#xff48;" horiz-adv-x="910" d="M680 -26 L583 -26 L583 314 Q583 383 554 414 Q525 445 464 445 Q439 445 414.5 436.5 Q390 428 370.5 411.5 Q351 395 338.5 370 Q326 345 326 313 L326 -26 L229 -26 L229 730 L326 730 L326 455 Q351 492 391.5 511.5 Q432 531 488 531 Q528 531 563 519 Q598 507 624 483 Q650 459 665 422 Q680 385 680 336 L680 -26 Z " />
<glyph glyph-name="uniFF49" unicode="&#xff49;" horiz-adv-x="910" d="M503 521 L503 -26 L406 -26 L406 521 L503 521 Z M506 717 L506 611 L403 611 L403 717 L506 717 Z " />
<glyph glyph-name="uniFF4A" unicode="&#xff4a;" horiz-adv-x="910" d="M585 717 L585 611 L482 611 L482 717 L585 717 Z M582 -88 Q582 -171 541.5 -210 Q501 -249 423 -249 Q397 -249 369.5 -245 Q342 -241 325 -235 L340 -156 Q376 -166 414 -166 Q428 -166 441 -163 Q454 -160 463.5 -151.5 Q473 -143 479 -127 Q485 -111 485 -84 L485 521 L582 521 L582 -88 Z " />
<glyph glyph-name="uniFF4B" unicode="&#xff4b;" horiz-adv-x="910" d="M460 302 L689 -26 L567 -26 L393 234 L317 157 L317 -26 L220 -26 L220 730 L317 730 L317 275 L551 521 L676 521 L460 302 Z " />
<glyph glyph-name="uniFF4C" unicode="&#xff4c;" horiz-adv-x="910" d="M503 730 L503 -26 L406 -26 L406 730 L503 730 Z " />
<glyph glyph-name="uniFF4D" unicode="&#xff4d;" horiz-adv-x="910" d="M830 -26 L733 -26 L733 302 Q733 443 630 443 Q607 443 584.5 435.5 Q562 428 544 412.5 Q526 397 514.5 372.5 Q503 348 503 315 L503 -26 L406 -26 L406 302 Q406 443 303 443 Q280 443 257.5 436 Q235 429 217 414 Q199 399 187.5 375.5 Q176 352 176 320 L176 -26 L79 -26 L79 521 L175 521 L175 447 L176 447 Q192 483 228.5 507 Q265 531 322 531 Q377 531 417.5 507.5 Q458 484 479 440 Q505 480 544.5 505.5 Q584 531 649 531 Q734 531 782 479.5 Q830 428 830 333 L830 -26 Z " />
<glyph glyph-name="uniFF4E" unicode="&#xff4e;" horiz-adv-x="910" d="M680 -26 L583 -26 L583 314 Q583 383 554 414 Q525 445 464 445 Q439 445 414.5 436.5 Q390 428 370.5 411.5 Q351 395 338.5 370 Q326 345 326 313 L326 -26 L229 -26 L229 521 L323 521 L323 452 L324 452 Q349 490 390 510.5 Q431 531 488 531 Q528 531 563 519 Q598 507 624 483 Q650 459 665 422 Q680 385 680 336 L680 -26 Z " />
<glyph glyph-name="uniFF4F" unicode="&#xff4f;" horiz-adv-x="910" d="M455 531 Q568 531 633.5 466 Q699 401 699 282 L699 215 Q699 96 633.5 31 Q568 -34 455 -34 Q342 -34 276.5 31 Q211 96 211 215 L211 282 Q211 402 276.5 466.5 Q342 531 455 531 Z M455 51 Q520 51 560.5 93.5 Q601 136 601 223 L601 274 Q601 361 560.5 403.5 Q520 446 455 446 Q390 446 349.5 403.5 Q309 361 309 274 L309 223 Q309 136 349.5 93.5 Q390 51 455 51 Z " />
<glyph glyph-name="uniFF50" unicode="&#xff50;" horiz-adv-x="910" d="M315 453 Q339 495 382.5 513 Q426 531 475 531 Q579 531 633.5 469 Q688 407 688 298 L688 201 Q688 144 672 100.5 Q656 57 627.5 27 Q599 -3 558.5 -18.5 Q518 -34 469 -34 Q408 -34 371.5 -12 Q335 10 318 34 L318 -240 L221 -240 L221 521 L315 521 L315 453 Z M317 169 Q317 148 327.5 126.5 Q338 105 357.5 88.5 Q377 72 403 61.5 Q429 51 461 51 Q523 51 557.5 94 Q592 137 592 215 L592 282 Q592 360 557 403 Q522 446 461 446 Q431 446 405 436 Q379 426 359.5 408 Q340 390 328.5 364.5 Q317 339 317 307 L317 169 Z " />
<glyph glyph-name="uniFF51" unicode="&#xff51;" horiz-adv-x="910" d="M591 -240 L591 38 Q568 -1 526 -17.5 Q484 -34 434 -34 Q330 -34 275.5 26.5 Q221 87 221 199 L221 296 Q221 351 237 395 Q253 439 281.5 469 Q310 499 350 515 Q390 531 438 531 Q501 531 537.5 509.5 Q574 488 591 464 L591 521 L688 521 L688 -240 L591 -240 Z M592 330 Q592 351 581.5 372 Q571 393 551.5 409.5 Q532 426 505.5 436 Q479 446 448 446 Q386 446 351.5 403 Q317 360 317 282 L317 215 Q317 137 352 94 Q387 51 448 51 Q478 51 504 60.5 Q530 70 549.5 88 Q569 106 580.5 131.5 Q592 157 592 189 L592 330 Z " />
<glyph glyph-name="uniFF52" unicode="&#xff52;" horiz-adv-x="910" d="M589 426 Q575 432 558.5 435.5 Q542 439 522 439 Q495 439 470.5 428.5 Q446 418 428 398.5 Q410 379 399 352 Q388 325 388 293 L388 -26 L291 -26 L291 521 L385 521 L385 434 L386 434 Q410 480 448.5 505.5 Q487 531 547 531 Q583 531 618 520 L589 426 Z " />
<glyph glyph-name="uniFF53" unicode="&#xff53;" horiz-adv-x="910" d="M457 50 Q511 50 541 69 Q571 88 571 121 L571 129 Q571 146 566 158 Q561 170 547 179 Q533 188 509 195.5 Q485 203 446 211 Q401 220 366 233 Q331 246 307 264.5 Q283 283 270.5 309 Q258 335 258 371 L258 383 Q258 411 270 438 Q282 465 307 485.5 Q332 506 370.5 518.5 Q409 531 462 531 Q518 531 566.5 518.5 Q615 506 656 477 L613 404 Q586 424 548.5 436 Q511 448 469 448 Q408 448 381.5 429.5 Q355 411 355 382 L355 373 Q355 341 382 325.5 Q409 310 473 298 Q523 289 560 276 Q597 263 621 243.5 Q645 224 657 197 Q669 170 669 132 L669 119 Q669 87 654.5 59 Q640 31 613 10.5 Q586 -10 547.5 -22 Q509 -34 461 -34 Q392 -34 336 -16 Q280 2 241 32 L286 108 Q323 83 365 66.5 Q407 50 457 50 Z " />
<glyph glyph-name="uniFF54" unicode="&#xff54;" horiz-adv-x="910" d="M373 438 L283 438 L283 521 L373 521 L373 659 L470 659 L470 521 L614 521 L614 438 L470 438 L470 127 Q470 102 475 86.5 Q480 71 489.5 63 Q499 55 512 52 Q525 49 540 49 Q576 49 612 62 L627 -16 Q610 -23 582 -28.5 Q554 -34 525 -34 Q447 -34 410 5 Q373 44 373 127 L373 438 Z " />
<glyph glyph-name="uniFF55" unicode="&#xff55;" horiz-adv-x="910" d="M231 521 L328 521 L328 181 Q328 112 356 81 Q384 50 445 50 Q470 50 494 58.5 Q518 67 537.5 83.5 Q557 100 569 125 Q581 150 581 182 L581 521 L678 521 L678 -26 L584 -26 L584 43 L583 43 Q558 5 518 -15.5 Q478 -36 421 -36 Q381 -36 346.5 -24 Q312 -12 286.5 12 Q261 36 246 72.5 Q231 109 231 159 L231 521 Z " />
<glyph glyph-name="uniFF56" unicode="&#xff56;" horiz-adv-x="910" d="M461 65 L604 521 L706 521 L521 -26 L397 -26 L210 521 L315 521 L459 65 L461 65 Z " />
<glyph glyph-name="uniFF57" unicode="&#xff57;" horiz-adv-x="910" d="M454 400 L344 -26 L230 -26 L88 521 L190 521 L290 75 L292 75 L408 521 L506 521 L621 75 L623 75 L725 521 L821 521 L681 -26 L567 -26 L456 400 L454 400 Z " />
<glyph glyph-name="uniFF58" unicode="&#xff58;" horiz-adv-x="910" d="M517 258 L697 -26 L580 -26 L453 194 L323 -26 L212 -26 L395 258 L221 521 L338 521 L459 319 L582 521 L690 521 L517 258 Z " />
<glyph glyph-name="uniFF59" unicode="&#xff59;" horiz-adv-x="910" d="M462 84 L606 521 L708 521 L424 -252 L336 -221 L407 -34 L208 521 L313 521 L458 84 L462 84 Z " />
<glyph glyph-name="uniFF5A" unicode="&#xff5a;" horiz-adv-x="910" d="M659 446 L359 58 L674 58 L674 -26 L236 -26 L236 44 L540 436 L256 436 L256 521 L659 521 L659 446 Z " />
<glyph glyph-name="uniFF5B" unicode="&#xff5b;" horiz-adv-x="910" d="M501 353 Q556 354 581.5 372 Q607 390 607 433 L607 621 Q607 695 646.5 730.5 Q686 766 763 766 L870 766 L870 680 L779 680 Q736 680 720.5 662.5 Q705 645 705 594 L705 433 Q705 415 702 396 Q699 377 690 360 Q681 343 664.5 329.5 Q648 316 622 310 Q647 304 663.5 291.5 Q680 279 689 262 Q698 245 701.5 225.5 Q705 206 705 187 L705 -5 Q705 -31 709 -46.5 Q713 -62 721.5 -70 Q730 -78 744 -81 Q758 -84 779 -84 L870 -84 L870 -170 L763 -170 Q686 -170 646.5 -137.5 Q607 -105 607 -32 L607 186 Q607 230 581.5 248.5 Q556 267 501 268 L501 353 Z " />
<glyph glyph-name="uniFF5C" unicode="&#xff5c;" horiz-adv-x="910" d="M502 -170 L408 -170 L408 765 L502 765 L502 -170 Z " />
<glyph glyph-name="uniFF5D" unicode="&#xff5d;" horiz-adv-x="910" d="M409 268 Q354 267 328.5 248.5 Q303 230 303 186 L303 -32 Q303 -105 263.5 -137.5 Q224 -170 147 -170 L40 -170 L40 -84 L131 -84 Q152 -84 166 -81 Q180 -78 188.5 -70 Q197 -62 201 -46.5 Q205 -31 205 -5 L205 187 Q205 206 208.5 225.5 Q212 245 221 262 Q230 279 246 291.5 Q262 304 288 310 Q262 316 245.5 329.5 Q229 343 220 360 Q211 377 208 396 Q205 415 205 433 L205 594 Q205 645 189.5 662.5 Q174 680 131 680 L40 680 L40 766 L147 766 Q224 766 263.5 730.5 Q303 695 303 621 L303 433 Q303 390 328.5 372 Q354 354 409 353 L409 268 Z " />
<glyph glyph-name="&amp;#x203e;" unicode="&#x203e;" horiz-adv-x="910" d="M905 723 L5 723 L5 762 L905 762 L905 723 Z " />
<glyph glyph-name="&amp;#xffe3;" unicode="&#xffe3;" horiz-adv-x="910" d="M905 723 L5 723 L5 762 L905 762 L905 723 Z " />
<glyph glyph-name="uni3131" unicode="&#x3131;" horiz-adv-x="910" d="M641 58 L641 459 L155 459 L155 545 L734 545 L734 58 L641 58 Z " />
<glyph glyph-name="uni3132" unicode="&#x3132;" horiz-adv-x="910" d="M467 545 L780 545 L780 58 L687 58 L687 459 L467 459 L467 545 Z M437 58 L344 58 L344 459 L114 459 L114 545 L437 545 L437 58 Z " />
<glyph glyph-name="uni3133" unicode="&#x3133;" horiz-adv-x="910" d="M327 58 L327 455 L130 455 L130 541 L419 541 L419 58 L327 58 Z M656 243 Q655 235 644 216 Q633 197 619 176 Q610 162 600 149 Q590 136 577 120.5 Q564 105 547 86 Q530 67 506 43 L443 105 Q467 130 485 149.5 Q503 169 517.5 186 Q532 203 542.5 217.5 Q553 232 562 246 Q582 277 595.5 309 Q609 341 609 391 L609 549 L703 549 L703 391 Q703 366 706 346.5 Q709 327 715 310.5 Q721 294 729.5 278.5 Q738 263 749 246 Q758 231 769 217 Q780 203 794 186.5 Q808 170 826 150.5 Q844 131 868 106 L808 43 Q760 93 735 123 Q710 153 694 176 Q680 196 669 215.5 Q658 235 657 243 L656 243 Z " />
<glyph glyph-name="uni3134" unicode="&#x3134;" horiz-adv-x="910" d="M270 552 L270 144 L764 144 L764 58 L175 58 L175 552 L270 552 Z " />
<glyph glyph-name="uni3135" unicode="&#x3135;" horiz-adv-x="910" d="M613 243 Q611 232 606 218 Q601 204 582 175 Q574 163 566 150.5 Q558 138 546.5 123 Q535 108 519 88 Q503 68 479 41 L412 96 Q434 121 450.5 141 Q467 161 479.5 177.5 Q492 194 502 208.5 Q512 223 521 238 Q534 260 542.5 277.5 Q551 295 556 311.5 Q561 328 563 346 Q565 364 565 388 L565 467 L440 467 L440 548 L782 548 L782 467 L658 467 L658 388 Q658 364 660 346 Q662 328 667 311.5 Q672 295 680.5 277.5 Q689 260 703 238 Q712 224 721.5 209.5 Q731 195 744 178 Q757 161 773.5 141 Q790 121 812 96 L748 39 Q726 65 710 85 Q694 105 682 121 Q670 137 661.5 150 Q653 163 645 175 Q626 204 621 218 Q616 232 614 243 L613 243 Z M246 131 L261 131 Q294 131 332 133.5 Q370 136 407 141 L414 56 Q372 50 332 47.5 Q292 45 250 45 L153 45 L153 540 L246 540 L246 131 Z " />
<glyph glyph-name="uni3136" unicode="&#x3136;" horiz-adv-x="910" d="M758 174 Q758 146 747.5 120.5 Q737 95 716 75.5 Q695 56 664.5 44.5 Q634 33 595 33 Q556 33 526 44.5 Q496 56 475 75.5 Q454 95 443 120.5 Q432 146 432 174 L432 231 Q432 259 443 284.5 Q454 310 475 329.5 Q496 349 526 360.5 Q556 372 595 372 Q634 372 664.5 360.5 Q695 349 716 329.5 Q737 310 747.5 284.5 Q758 259 758 231 L758 174 Z M238 131 L268 131 Q301 131 339 133.5 Q377 136 414 141 L421 56 Q379 50 339 47.5 Q299 45 257 45 L145 45 L145 540 L238 540 L238 131 Z M784 409 L402 409 L402 485 L552 485 L552 570 L638 570 L638 485 L784 485 L784 409 Z M672 223 Q672 236 667.5 250 Q663 264 653.5 275.5 Q644 287 629.5 294 Q615 301 595 301 Q575 301 560.5 294 Q546 287 536.5 275.5 Q527 264 522.5 250 Q518 236 518 223 L518 182 Q518 168 522.5 154.5 Q527 141 536.5 129.5 Q546 118 560.5 111 Q575 104 595 104 Q615 104 629.5 111 Q644 118 653.5 129.5 Q663 141 667.5 154.5 Q672 168 672 182 L672 223 Z " />
<glyph glyph-name="uni3137" unicode="&#x3137;" horiz-adv-x="910" d="M169 56 L169 547 L744 547 L744 461 L262 461 L262 142 L749 142 L749 56 L169 56 Z " />
<glyph glyph-name="uni3138" unicode="&#x3138;" horiz-adv-x="910" d="M478 56 L478 547 L779 547 L779 461 L571 461 L571 142 L782 142 L782 56 L478 56 Z M147 56 L147 547 L448 547 L448 461 L240 461 L240 142 L450 142 L450 56 L147 56 Z " />
<glyph glyph-name="uni3139" unicode="&#x3139;" horiz-adv-x="910" d="M173 45 L173 347 L663 347 L663 473 L173 473 L173 557 L755 557 L755 262 L266 262 L266 130 L769 130 L769 45 L173 45 Z " />
<glyph glyph-name="uni313A" unicode="&#x313a;" horiz-adv-x="910" d="M692 57 L692 465 L470 465 L470 551 L785 551 L785 57 L692 57 Z M144 57 L144 345 L353 345 L353 466 L144 466 L144 551 L444 551 L444 262 L235 262 L235 142 L455 142 L455 57 L144 57 Z " />
<glyph glyph-name="uni313B" unicode="&#x313b;" horiz-adv-x="910" d="M132 56 L132 344 L336 344 L336 463 L132 463 L132 548 L428 548 L428 261 L224 261 L224 141 L436 141 L436 56 L132 56 Z M694 462 L564 462 L564 142 L694 142 L694 462 Z M471 56 L471 548 L787 548 L787 56 L471 56 Z " />
<glyph glyph-name="uni313C" unicode="&#x313c;" horiz-adv-x="910" d="M698 294 L565 294 L565 142 L698 142 L698 294 Z M472 56 L472 548 L565 548 L565 379 L698 379 L698 548 L791 548 L791 56 L472 56 Z M129 56 L129 344 L335 344 L335 463 L129 463 L129 548 L427 548 L427 261 L221 261 L221 141 L434 141 L434 56 L129 56 Z " />
<glyph glyph-name="uni313D" unicode="&#x313d;" horiz-adv-x="910" d="M639 243 Q638 235 627 216 Q616 197 602 176 Q593 162 583 149 Q573 136 560 120.5 Q547 105 530 86 Q513 67 489 43 L434 97 L434 56 L130 56 L130 344 L335 344 L335 463 L130 463 L130 548 L427 548 L427 261 L221 261 L221 141 L434 141 L434 113 Q477 159 502.5 188.5 Q528 218 545 246 Q565 277 578.5 309 Q592 341 592 391 L592 549 L686 549 L686 391 Q686 366 689 346.5 Q692 327 698 310.5 Q704 294 712.5 278.5 Q721 263 732 246 Q741 231 752 217 Q763 203 777 186.5 Q791 170 809 150.5 Q827 131 851 106 L791 43 Q743 93 718 123 Q693 153 677 176 Q663 196 652 215.5 Q641 235 640 243 L639 243 Z " />
<glyph glyph-name="uni313E" unicode="&#x313e;" horiz-adv-x="910" d="M134 56 L134 344 L331 344 L331 463 L134 463 L134 548 L423 548 L423 261 L225 261 L225 141 L431 141 L431 56 L134 56 Z M465 56 L465 547 L771 547 L771 461 L558 461 L558 344 L762 344 L762 260 L558 260 L558 142 L776 142 L776 56 L465 56 Z " />
<glyph glyph-name="uni313F" unicode="&#x313f;" horiz-adv-x="910" d="M780 472 L725 472 L725 138 L784 138 L784 56 L439 56 L439 138 L497 138 L497 472 L443 472 L443 552 L780 552 L780 472 Z M125 56 L125 343 L314 343 L314 465 L125 465 L125 548 L403 548 L403 262 L215 262 L215 138 L416 138 L416 56 L125 56 Z M581 138 L641 138 L641 472 L581 472 L581 138 Z " />
<glyph glyph-name="uni3140" unicode="&#x3140;" horiz-adv-x="910" d="M406 263 L211 263 L211 134 L419 134 L419 53 L120 53 L120 342 L315 342 L315 466 L120 466 L120 547 L406 547 L406 263 Z M773 174 Q773 146 762.5 120.5 Q752 95 731 75.5 Q710 56 679.5 44.5 Q649 33 610 33 Q571 33 541 44.5 Q511 56 490 75.5 Q469 95 458 120.5 Q447 146 447 174 L447 231 Q447 259 458 284.5 Q469 310 490 329.5 Q511 349 541 360.5 Q571 372 610 372 Q649 372 679.5 360.5 Q710 349 731 329.5 Q752 310 762.5 284.5 Q773 259 773 231 L773 174 Z M794 409 L426 409 L426 485 L567 485 L567 570 L653 570 L653 485 L794 485 L794 409 Z M687 223 Q687 236 682.5 250 Q678 264 668.5 275.5 Q659 287 644.5 294 Q630 301 610 301 Q590 301 575.5 294 Q561 287 551.5 275.5 Q542 264 537.5 250 Q533 236 533 223 L533 182 Q533 168 537.5 154.5 Q542 141 551.5 129.5 Q561 118 575.5 111 Q590 104 610 104 Q630 104 644.5 111 Q659 118 668.5 129.5 Q678 141 682.5 154.5 Q687 168 687 182 L687 223 Z " />
<glyph glyph-name="uni3141" unicode="&#x3141;" horiz-adv-x="910" d="M652 463 L258 463 L258 142 L652 142 L652 463 Z M165 56 L165 549 L745 549 L745 56 L165 56 Z " />
<glyph glyph-name="uni3142" unicode="&#x3142;" horiz-adv-x="910" d="M652 293 L258 293 L258 141 L652 141 L652 293 Z M165 55 L165 557 L258 557 L258 378 L652 378 L652 557 L745 557 L745 55 L165 55 Z " />
<glyph glyph-name="uni3143" unicode="&#x3143;" horiz-adv-x="910" d="M686 289 L574 289 L574 142 L686 142 L686 289 Z M336 289 L224 289 L224 142 L336 142 L336 289 Z M134 56 L134 556 L224 556 L224 374 L336 374 L336 556 L425 556 L425 56 L134 56 Z M485 56 L485 556 L574 556 L574 374 L686 374 L686 556 L776 556 L776 56 L485 56 Z " />
<glyph glyph-name="uni3144" unicode="&#x3144;" horiz-adv-x="910" d="M639 243 Q638 235 627 216 Q616 197 602 176 Q593 162 583 149 Q573 136 560 120.5 Q547 105 530 86 Q513 67 489 43 L429 102 L429 56 L126 56 L126 556 L219 556 L219 374 L337 374 L337 556 L429 556 L429 108 Q452 132 470 151 Q488 170 501.5 186.5 Q515 203 525.5 217.5 Q536 232 545 246 Q565 277 578.5 309 Q592 341 592 391 L592 557 L686 557 L686 391 Q686 366 689 346.5 Q692 327 698 310.5 Q704 294 712.5 278.5 Q721 263 732 246 Q741 231 752 217 Q763 203 777 186.5 Q791 170 809 150.5 Q827 131 851 106 L791 43 Q743 93 718 123 Q693 153 677 176 Q663 196 652 215.5 Q641 235 640 243 L639 243 Z M337 289 L219 289 L219 142 L337 142 L337 289 Z " />
<glyph glyph-name="uni3145" unicode="&#x3145;" horiz-adv-x="910" d="M455 276 Q448 260 426 238 Q404 216 371 190 Q330 158 277.5 121 Q225 84 168 49 L117 123 Q175 159 218 188.5 Q261 218 293 242 Q333 273 356 296 Q379 319 391 341 Q403 363 406 387.5 Q409 412 409 446 L409 566 L502 566 L502 446 Q502 412 505 387.5 Q508 363 520 341 Q532 319 555 296 Q578 273 618 242 Q650 218 693 188.5 Q736 159 794 123 L743 50 Q686 85 633.5 122 Q581 159 540 191 Q507 217 485 239 Q463 261 456 276 L455 276 Z " />
<glyph glyph-name="uni3146" unicode="&#x3146;" horiz-adv-x="910" d="M672 567 L672 410 Q672 368 678.5 337 Q685 306 705.5 275 Q726 244 763 206.5 Q800 169 861 112 L802 49 Q728 113 685.5 159.5 Q643 206 625 235 Q608 209 564.5 162 Q521 115 455 51 Q389 115 345.5 162 Q302 209 285 235 Q267 206 224.5 159.5 Q182 113 108 49 L49 112 Q110 169 147 206.5 Q184 244 204.5 275 Q225 306 231.5 337 Q238 368 238 410 L238 567 L331 567 L331 410 Q331 368 334.5 342 Q338 316 350.5 292 Q363 268 387.5 240.5 Q412 213 455 168 Q498 213 522.5 240.5 Q547 268 559.5 292 Q572 316 575.5 342 Q579 368 579 410 L579 567 L672 567 Z " />
<glyph glyph-name="uni3147" unicode="&#x3147;" horiz-adv-x="910" d="M167 330 Q167 379 188.5 421.5 Q210 464 248.5 495 Q287 526 340 544 Q393 562 455 562 Q517 562 569.5 544 Q622 526 660.5 495 Q699 464 721 421.5 Q743 379 743 330 L743 283 Q743 234 721 191.5 Q699 149 660.5 118 Q622 87 569.5 69 Q517 51 455 51 Q393 51 340 69 Q287 87 248.5 118 Q210 149 188.5 191.5 Q167 234 167 283 L167 330 Z M455 473 Q411 473 375 461.5 Q339 450 313.5 430 Q288 410 274 383.5 Q260 357 260 327 L260 286 Q260 256 274 229.5 Q288 203 313.5 183 Q339 163 375 151.5 Q411 140 455 140 Q499 140 534.5 151.5 Q570 163 595.5 183 Q621 203 635 229.5 Q649 256 649 286 L649 327 Q649 357 635 383.5 Q621 410 595.5 430 Q570 450 534.5 461.5 Q499 473 455 473 Z " />
<glyph glyph-name="uni3148" unicode="&#x3148;" horiz-adv-x="910" d="M754 470 L502 470 L502 443 Q502 409 505 384.5 Q508 360 520 338 Q532 316 555 293 Q578 270 618 239 Q650 215 693 185.5 Q736 156 794 120 L743 47 Q686 82 633.5 119 Q581 156 540 188 Q507 214 485 236 Q463 258 456 273 L455 273 Q448 257 426 235 Q404 213 371 187 Q330 155 277.5 118 Q225 81 168 46 L117 120 Q175 156 218 185.5 Q261 215 293 239 Q333 270 356 293 Q379 316 391 338 Q403 360 406 384.5 Q409 409 409 443 L409 470 L156 470 L156 556 L754 556 L754 470 Z " />
<glyph glyph-name="uni3149" unicode="&#x3149;" horiz-adv-x="910" d="M455 61 Q393 121 352 165.5 Q311 210 294 236 Q278 210 239 166.5 Q200 123 128 60 L70 122 Q131 179 167 216 Q203 253 221.5 283 Q240 313 245 342 Q250 371 250 410 L250 471 L121 471 L121 556 L789 556 L789 471 L660 471 L660 410 Q660 371 665 342 Q670 313 688.5 283 Q707 253 743 216 Q779 179 840 122 L782 60 Q712 123 672 166.5 Q632 210 616 236 Q599 210 558 165.5 Q517 121 455 61 Z M455 178 Q494 219 517 245 Q540 271 552 294 Q564 317 567 343 Q570 369 570 410 L570 471 L340 471 L340 410 Q340 369 343 343 Q346 317 358 294 Q370 271 393 245 Q416 219 455 178 Z " />
<glyph glyph-name="uni314A" unicode="&#x314a;" horiz-adv-x="910" d="M764 431 L502 431 Q502 399 505.5 376 Q509 353 521 331.5 Q533 310 556 288 Q579 266 618 236 Q650 212 691.5 184 Q733 156 791 120 L740 47 Q683 82 632 117.5 Q581 153 540 185 Q507 211 485 232.5 Q463 254 456 269 L455 269 Q448 253 426 231.5 Q404 210 371 184 Q330 152 279 116.5 Q228 81 171 46 L120 120 Q178 156 219.5 184 Q261 212 293 236 Q332 266 354.5 288 Q377 310 389 331.5 Q401 353 405 376 Q409 399 409 431 L146 431 L146 516 L409 516 L409 622 L502 622 L502 516 L764 516 L764 431 Z " />
<glyph glyph-name="uni314B" unicode="&#x314b;" horiz-adv-x="910" d="M749 49 L654 49 L654 247 L155 240 L152 324 L654 330 L654 471 L166 471 L166 556 L749 556 L749 49 Z " />
<glyph glyph-name="uni314C" unicode="&#x314c;" horiz-adv-x="910" d="M171 55 L171 547 L755 547 L755 462 L263 462 L263 344 L746 344 L746 259 L263 259 L263 140 L763 140 L763 55 L171 55 Z " />
<glyph glyph-name="uni314D" unicode="&#x314d;" horiz-adv-x="910" d="M781 54 L129 54 L129 139 L264 139 L264 460 L138 460 L138 545 L772 545 L772 460 L646 460 L646 139 L781 139 L781 54 Z M357 139 L553 139 L553 460 L357 460 L357 139 Z " />
<glyph glyph-name="uni314E" unicode="&#x314e;" horiz-adv-x="910" d="M455 12 Q396 12 348 23.5 Q300 35 265.5 57 Q231 79 212 111 Q193 143 193 184 L193 212 Q193 252 212 284 Q231 316 265.5 338.5 Q300 361 348 372.5 Q396 384 455 384 Q513 384 561.5 372.5 Q610 361 644.5 338.5 Q679 316 698 284 Q717 252 717 212 L717 184 Q717 143 698 111 Q679 79 644.5 57 Q610 35 561.5 23.5 Q513 12 455 12 Z M769 431 L141 431 L141 515 L409 515 L409 630 L502 630 L502 515 L769 515 L769 431 Z M455 299 Q372 299 328.5 274.5 Q285 250 285 207 L285 189 Q285 146 328.5 121.5 Q372 97 455 97 Q538 97 581.5 121.5 Q625 146 625 189 L625 207 Q625 250 581.5 274.5 Q538 299 455 299 Z " />
<glyph glyph-name="uni314F" unicode="&#x314f;" horiz-adv-x="910" d="M672 324 L483 324 L483 -140 L384 -140 L384 782 L483 782 L483 410 L672 410 L672 324 Z " />
<glyph glyph-name="uni3150" unicode="&#x3150;" horiz-adv-x="910" d="M611 -140 L514 -140 L514 324 L396 324 L396 -95 L299 -95 L299 763 L396 763 L396 410 L514 410 L514 782 L611 782 L611 -140 Z " />
<glyph glyph-name="uni3151" unicode="&#x3151;" horiz-adv-x="910" d="M599 432 L410 432 L410 294 L599 294 L599 208 L410 208 L410 -140 L311 -140 L311 782 L410 782 L410 518 L599 518 L599 432 Z " />
<glyph glyph-name="uni3152" unicode="&#x3152;" horiz-adv-x="910" d="M611 -140 L514 -140 L514 208 L396 208 L396 -95 L299 -95 L299 763 L396 763 L396 518 L514 518 L514 782 L611 782 L611 -140 Z M396 293 L514 293 L514 433 L396 433 L396 293 Z " />
<glyph glyph-name="uni3153" unicode="&#x3153;" horiz-adv-x="910" d="M500 -140 L500 324 L311 324 L311 410 L500 410 L500 782 L599 782 L599 -140 L500 -140 Z " />
<glyph glyph-name="uni3154" unicode="&#x3154;" horiz-adv-x="910" d="M392 763 L489 763 L489 -95 L392 -95 L392 325 L238 325 L238 411 L392 411 L392 763 Z M672 -140 L575 -140 L575 782 L672 782 L672 -140 Z " />
<glyph glyph-name="uni3155" unicode="&#x3155;" horiz-adv-x="910" d="M500 -140 L500 208 L311 208 L311 294 L500 294 L500 432 L311 432 L311 518 L500 518 L500 782 L599 782 L599 -140 L500 -140 Z " />
<glyph glyph-name="uni3156" unicode="&#x3156;" horiz-adv-x="910" d="M238 296 L392 296 L392 435 L238 435 L238 521 L392 521 L392 763 L489 763 L489 -95 L392 -95 L392 210 L238 210 L238 296 Z M672 -140 L575 -140 L575 782 L672 782 L672 -140 Z " />
<glyph glyph-name="uni3157" unicode="&#x3157;" horiz-adv-x="910" d="M878 148 L878 64 L32 64 L32 148 L405 148 L405 490 L505 490 L505 148 L878 148 Z " />
<glyph glyph-name="uni3158" unicode="&#x3158;" horiz-adv-x="910" d="M661 -140 L661 782 L759 782 L759 433 L895 433 L895 347 L759 347 L759 -140 L661 -140 Z M611 74 Q549 68 492.5 64 Q436 60 369.5 57.5 Q303 55 218 54 Q133 53 15 53 L15 139 Q84 139 141 139 Q198 139 247 141 L247 409 L345 409 L345 143 Q419 146 479.5 150 Q540 154 603 160 L611 74 Z " />
<glyph glyph-name="uni3159" unicode="&#x3159;" horiz-adv-x="910" d="M859 -140 L762 -140 L762 338 L675 338 L675 -115 L578 -115 L578 766 L675 766 L675 424 L762 424 L762 782 L859 782 L859 -140 Z M548 78 Q452 72 330 69.5 Q208 67 51 67 L51 153 L237 153 L237 408 L338 408 L338 154 Q398 156 448.5 157.5 Q499 159 544 162 L548 78 Z " />
<glyph glyph-name="uni315A" unicode="&#x315a;" horiz-adv-x="910" d="M737 -140 L737 782 L835 782 L835 -140 L737 -140 Z M687 77 Q624 71 557 66.5 Q490 62 416 59 Q342 56 257.5 54.5 Q173 53 75 53 L75 139 Q142 138 201 138.5 Q260 139 314 140 L314 409 L415 409 L415 143 Q487 145 551 149.5 Q615 154 678 160 L687 77 Z " />
<glyph glyph-name="uni315B" unicode="&#x315b;" horiz-adv-x="910" d="M878 148 L878 64 L32 64 L32 148 L268 148 L268 490 L368 490 L368 148 L543 148 L543 490 L643 490 L643 148 L878 148 Z " />
<glyph glyph-name="uni315C" unicode="&#x315c;" horiz-adv-x="910" d="M32 241 L32 325 L878 325 L878 241 L505 241 L505 -102 L405 -102 L405 241 L32 241 Z " />
<glyph glyph-name="uni315D" unicode="&#x315d;" horiz-adv-x="910" d="M737 -140 L737 62 L535 62 L535 147 L737 147 L737 782 L835 782 L835 -140 L737 -140 Z M310 -111 L310 238 Q256 237 198 236.5 Q140 236 74 236 L74 322 Q173 322 256 323 Q339 324 412 326.5 Q485 329 550 333 Q615 337 677 343 L685 260 Q620 253 552.5 248.5 Q485 244 410 241 L410 -111 L310 -111 Z " />
<glyph glyph-name="uni315E" unicode="&#x315e;" horiz-adv-x="910" d="M584 766 L681 766 L681 -114 L584 -114 L584 90 L426 90 L426 173 L584 173 L584 766 Z M858 -140 L761 -140 L761 782 L858 782 L858 -140 Z M248 -81 L248 234 Q204 233 156.5 233 Q109 233 52 233 L52 318 Q130 318 191.5 318.5 Q253 319 309 320 Q365 321 419 323 Q473 325 536 329 L540 247 Q486 242 439.5 240 Q393 238 346 236 L346 -81 L248 -81 Z " />
<glyph glyph-name="uni315F" unicode="&#x315f;" horiz-adv-x="910" d="M734 -140 L734 782 L832 782 L832 -140 L734 -140 Z M321 -112 L321 209 Q266 207 205.5 207 Q145 207 77 207 L77 293 Q176 293 258.5 294 Q341 295 413 297.5 Q485 300 549.5 304 Q614 308 676 314 L684 231 Q621 224 557.5 219.5 Q494 215 422 212 L422 -112 L321 -112 Z " />
<glyph glyph-name="uni3160" unicode="&#x3160;" horiz-adv-x="910" d="M32 241 L32 325 L878 325 L878 241 L643 241 L643 -102 L543 -102 L543 241 L367 241 L367 -102 L267 -102 L267 241 L32 241 Z " />
<glyph glyph-name="uni3161" unicode="&#x3161;" horiz-adv-x="910" d="M878 178 L878 94 L32 94 L32 178 L878 178 Z " />
<glyph glyph-name="uni3162" unicode="&#x3162;" horiz-adv-x="910" d="M684 101 Q621 95 555 90.5 Q489 86 415.5 83 Q342 80 258.5 78.5 Q175 77 77 77 L77 163 Q176 163 258.5 164 Q341 165 413 167.5 Q485 170 549 174 Q613 178 675 184 L684 101 Z M734 -140 L734 782 L832 782 L832 -140 L734 -140 Z " />
<glyph glyph-name="uni3163" unicode="&#x3163;" horiz-adv-x="910" d="M405 -140 L405 782 L504 782 L504 -140 L405 -140 Z " />
<glyph glyph-name="uni3165" unicode="&#x3165;" horiz-adv-x="910" d="M562 545 L562 144 L773 144 L773 58 L470 58 L470 545 L562 545 Z M230 545 L230 144 L441 144 L441 58 L137 58 L137 545 L230 545 Z " />
<glyph glyph-name="uni3166" unicode="&#x3166;" horiz-adv-x="910" d="M468 58 L468 546 L763 546 L763 460 L560 460 L560 144 L773 144 L773 58 L468 58 Z M229 545 L229 144 L441 144 L441 58 L136 58 L136 545 L229 545 Z " />
<glyph glyph-name="uni3167" unicode="&#x3167;" horiz-adv-x="910" d="M599 239 Q598 231 587 212 Q576 193 562 172 Q553 158 543 145 Q533 132 520 116.5 Q507 101 490 82 Q473 63 449 39 L389 98 L389 57 L95 57 L95 544 L188 544 L188 143 L389 143 L389 104 Q412 128 430 147 Q448 166 461.5 182.5 Q475 199 485.5 213.5 Q496 228 505 242 Q525 273 538.5 305 Q552 337 552 387 L552 545 L646 545 L646 387 Q646 362 649 342.5 Q652 323 658 306.5 Q664 290 672.5 274.5 Q681 259 692 242 Q701 227 712 213 Q723 199 737 182.5 Q751 166 769 146.5 Q787 127 811 102 L751 39 Q703 89 678 119 Q653 149 637 172 Q623 192 612 211.5 Q601 231 600 239 L599 239 Z " />
<glyph glyph-name="uni3168" unicode="&#x3168;" horiz-adv-x="910" d="M220 545 L220 144 L410 144 L410 58 L127 58 L127 545 L220 545 Z M672 141 L605 361 L537 141 L672 141 Z M782 58 L427 58 L605 593 L782 58 Z " />
<glyph glyph-name="uni3169" unicode="&#x3169;" horiz-adv-x="910" d="M537 86 L537 57 L446 57 L446 465 L308 465 L308 551 L537 551 L537 140 Q597 213 621 264 Q630 284 635.5 300 Q641 316 643.5 331 Q646 346 647 361 Q648 376 648 396 L648 549 L740 549 L740 396 Q740 376 741 361 Q742 346 744.5 331 Q747 316 752.5 300 Q758 284 767 264 Q782 232 806 196.5 Q830 161 877 109 L814 51 Q777 93 753 127.5 Q729 162 714 188 Q706 202 701.5 212 Q697 222 695 230 Q693 222 688.5 210.5 Q684 199 677 188 Q662 160 638 126.5 Q614 93 576 51 L537 86 Z M41 57 L41 345 L186 345 L186 466 L41 466 L41 551 L277 551 L277 262 L131 262 L131 142 L314 142 L314 57 L41 57 Z " />
<glyph glyph-name="uni316A" unicode="&#x316a;" horiz-adv-x="910" d="M484 58 L484 546 L755 546 L755 460 L576 460 L576 144 L765 144 L765 58 L484 58 Z M145 56 L145 344 L342 344 L342 463 L145 463 L145 548 L433 548 L433 261 L237 261 L237 141 L441 141 L441 56 L145 56 Z " />
<glyph glyph-name="uni316B" unicode="&#x316b;" horiz-adv-x="910" d="M548 88 L548 56 L303 56 L303 556 L390 556 L390 370 L461 370 L461 556 L548 556 L548 127 Q574 167 590.5 197.5 Q607 228 620 254 Q638 295 643 328.5 Q648 362 648 401 L648 549 L740 549 L740 401 Q740 362 745 328.5 Q750 295 768 254 Q783 222 805 184 Q827 146 858 102 L792 49 Q762 91 745 119 Q728 147 716 173 Q709 186 703 199.5 Q697 213 695 221 Q693 212 687.5 198 Q682 184 676 173 Q663 146 646.5 118.5 Q630 91 598 49 L548 88 Z M45 57 L45 345 L176 345 L176 466 L45 466 L45 551 L265 551 L265 262 L133 262 L133 142 L279 142 L279 57 L45 57 Z M461 287 L390 287 L390 140 L461 140 L461 287 Z " />
<glyph glyph-name="uni316C" unicode="&#x316c;" horiz-adv-x="910" d="M122 58 L122 344 L320 344 L320 463 L122 463 L122 548 L412 548 L412 261 L214 261 L214 143 L419 143 L419 58 L122 58 Z M678 141 L611 361 L543 141 L678 141 Z M788 58 L433 58 L611 593 L788 58 Z " />
<glyph glyph-name="uni316D" unicode="&#x316d;" horiz-adv-x="910" d="M781 463 L457 463 L457 548 L781 548 L781 463 Z M128 58 L128 344 L331 344 L331 463 L128 463 L128 548 L423 548 L423 261 L220 261 L220 143 L445 143 L445 58 L128 58 Z M781 185 Q781 160 772.5 134.5 Q764 109 745.5 88 Q727 67 696.5 53.5 Q666 40 622 40 Q578 40 547.5 53.5 Q517 67 497.5 88 Q478 109 469.5 134.5 Q461 160 461 185 L461 234 Q461 259 469.5 284.5 Q478 310 497.5 331 Q517 352 547.5 365.5 Q578 379 622 379 Q666 379 696.5 365.5 Q727 352 745.5 331 Q764 310 772.5 284.5 Q781 259 781 234 L781 185 Z M693 228 Q693 258 675.5 279 Q658 300 622 300 Q587 300 568 279 Q549 258 549 228 L549 191 Q549 161 568 140 Q587 119 622 119 Q658 119 675.5 140 Q693 161 693 191 L693 228 Z " />
<glyph glyph-name="uni316E" unicode="&#x316e;" horiz-adv-x="910" d="M679 294 L570 294 L570 142 L679 142 L679 294 Z M337 462 L231 462 L231 142 L337 142 L337 462 Z M479 56 L479 548 L570 548 L570 379 L679 379 L679 548 L770 548 L770 56 L479 56 Z M140 56 L140 548 L428 548 L428 56 L140 56 Z " />
<glyph glyph-name="uni316F" unicode="&#x316f;" horiz-adv-x="910" d="M608 239 Q607 231 596 212 Q585 193 571 172 Q562 158 552 145 Q542 132 529 116.5 Q516 101 499 82 Q482 63 458 39 L402 94 L402 56 L98 56 L98 548 L402 548 L402 108 Q446 154 471.5 184 Q497 214 514 242 Q534 273 547.5 305 Q561 337 561 387 L561 545 L655 545 L655 387 Q655 362 658 342.5 Q661 323 667 306.5 Q673 290 681.5 274.5 Q690 259 701 242 Q710 227 721 213 Q732 199 746 182.5 Q760 166 778 146.5 Q796 127 820 102 L760 39 Q712 89 687 119 Q662 149 646 172 Q632 192 621 211.5 Q610 231 609 239 L608 239 Z M310 462 L189 462 L189 142 L310 142 L310 462 Z " />
<glyph glyph-name="uni3170" unicode="&#x3170;" horiz-adv-x="910" d="M327 462 L206 462 L206 142 L327 142 L327 462 Z M115 56 L115 548 L419 548 L419 56 L115 56 Z M683 139 L616 360 L549 139 L683 139 Z M794 56 L439 56 L616 591 L794 56 Z " />
<glyph glyph-name="uni3171" unicode="&#x3171;" horiz-adv-x="910" d="M598 579 L310 579 L310 371 L598 371 L598 579 Z M219 286 L219 664 L690 664 L690 286 L219 286 Z M627 86 Q627 63 616 41 Q605 19 583 1.5 Q561 -16 529 -27 Q497 -38 455 -38 Q413 -38 381.5 -27 Q350 -16 328 1.5 Q306 19 295 41 Q284 63 284 86 L284 116 Q284 138 295 160.5 Q306 183 328 200.5 Q350 218 381.5 229 Q413 240 455 240 Q497 240 529 229 Q561 218 583 200.5 Q605 183 616 160.5 Q627 138 627 116 L627 86 Z M538 110 Q538 136 514.5 151 Q491 166 455 166 Q420 166 396.5 151 Q373 136 373 110 L373 92 Q373 66 396.5 51 Q420 36 455 36 Q491 36 514.5 51 Q538 66 538 92 L538 110 Z " />
<glyph glyph-name="uni3172" unicode="&#x3172;" horiz-adv-x="910" d="M354 288 L231 288 L231 143 L354 143 L354 288 Z M679 56 L679 462 L486 462 L486 548 L771 548 L771 56 L679 56 Z M139 57 L139 548 L231 548 L231 373 L354 373 L354 548 L445 548 L445 57 L139 57 Z " />
<glyph glyph-name="uni3173" unicode="&#x3173;" horiz-adv-x="910" d="M343 288 L233 288 L233 143 L343 143 L343 288 Z M486 58 L486 546 L757 546 L757 460 L579 460 L579 144 L767 144 L767 58 L486 58 Z M142 57 L142 548 L233 548 L233 373 L343 373 L343 548 L434 548 L434 57 L142 57 Z " />
<glyph glyph-name="uni3174" unicode="&#x3174;" horiz-adv-x="910" d="M331 83 L331 56 L80 56 L80 548 L168 548 L168 370 L244 370 L244 548 L331 548 L331 143 Q388 215 412 264 Q421 284 426.5 300 Q432 316 434.5 331 Q437 346 438 361 Q439 376 439 396 L439 549 L531 549 L531 396 Q531 376 532 361 Q533 346 535.5 331 Q538 316 543.5 300 Q549 284 558 264 Q573 232 597 196.5 Q621 161 668 109 L605 51 Q568 93 544 127.5 Q520 162 505 188 Q497 202 492.5 212 Q488 222 486 230 Q484 222 479.5 210.5 Q475 199 468 188 Q453 160 429 126.5 Q405 93 367 51 L331 83 Z M737 57 L737 462 L589 462 L589 548 L828 548 L828 57 L737 57 Z M244 287 L168 287 L168 140 L244 140 L244 287 Z " />
<glyph glyph-name="uni3175" unicode="&#x3175;" horiz-adv-x="910" d="M321 88 L321 56 L81 56 L81 548 L165 548 L165 370 L238 370 L238 548 L321 548 L321 127 Q347 167 363.5 197.5 Q380 228 393 254 Q411 295 416 328.5 Q421 362 421 401 L421 549 L513 549 L513 401 Q513 362 518 328.5 Q523 295 541 254 Q566 198 611 131 L611 548 L815 548 L815 462 L701 462 L701 144 L826 144 L826 58 L611 58 L611 86 L565 49 Q535 91 518 119 Q501 147 489 173 Q482 186 476 199.5 Q470 213 468 221 Q466 212 460.5 198 Q455 184 449 173 Q436 146 419.5 118.5 Q403 91 371 49 L321 88 Z M238 140 L238 287 L165 287 L165 140 L238 140 Z " />
<glyph glyph-name="uni3176" unicode="&#x3176;" horiz-adv-x="910" d="M608 243 Q606 232 599 216 Q592 200 577 175 Q570 164 562.5 152 Q555 140 544.5 124.5 Q534 109 518 88.5 Q502 68 479 41 L416 92 L416 56 L116 56 L116 548 L208 548 L208 373 L324 373 L324 548 L416 548 L416 100 Q458 149 482.5 184.5 Q507 220 524 250 Q534 269 541 284.5 Q548 300 552 315.5 Q556 331 558 348 Q560 365 560 388 L560 467 L445 467 L445 548 L767 548 L767 467 L653 467 L653 388 Q653 366 654.5 349 Q656 332 660 317 Q664 302 671.5 286 Q679 270 691 250 Q708 221 732.5 184 Q757 147 802 96 L738 39 Q716 65 700.5 85 Q685 105 674 121 Q663 137 655 150 Q647 163 640 175 Q625 201 618 216.5 Q611 232 609 243 L608 243 Z M324 288 L208 288 L208 142 L324 142 L324 288 Z " />
<glyph glyph-name="uni3177" unicode="&#x3177;" horiz-adv-x="910" d="M342 288 L232 288 L232 143 L342 143 L342 288 Z M485 57 L485 546 L759 546 L759 460 L577 460 L577 345 L753 345 L753 259 L577 259 L577 143 L768 143 L768 57 L485 57 Z M141 57 L141 548 L232 548 L232 373 L342 373 L342 548 L433 548 L433 57 L141 57 Z " />
<glyph glyph-name="uni3178" unicode="&#x3178;" horiz-adv-x="910" d="M594 471 L314 471 L314 387 L594 387 L594 471 Z M223 301 L223 664 L314 664 L314 556 L594 556 L594 664 L686 664 L686 301 L223 301 Z M630 86 Q630 63 619.5 41 Q609 19 587.5 1.5 Q566 -16 533 -27 Q500 -38 455 -38 Q410 -38 377 -27 Q344 -16 323 1.5 Q302 19 291.5 41 Q281 63 281 86 L281 116 Q281 138 291.5 160.5 Q302 183 323 200.5 Q344 218 377 229 Q410 240 455 240 Q500 240 533 229 Q566 218 587.5 200.5 Q609 183 619.5 160.5 Q630 138 630 116 L630 86 Z M538 110 Q538 136 514.5 151 Q491 166 455 166 Q420 166 396.5 151 Q373 136 373 110 L373 92 Q373 66 396.5 51 Q420 36 455 36 Q491 36 514.5 51 Q538 66 538 92 L538 110 Z " />
<glyph glyph-name="uni3179" unicode="&#x3179;" horiz-adv-x="910" d="M187 290 L187 649 L271 649 L271 540 L352 540 L352 649 L435 649 L435 290 L187 290 Z M352 460 L271 460 L271 370 L352 370 L352 460 Z M475 290 L475 649 L559 649 L559 540 L639 540 L639 649 L723 649 L723 290 L475 290 Z M639 460 L559 460 L559 370 L639 370 L639 460 Z M630 86 Q630 63 619.5 41 Q609 19 587.5 1.5 Q566 -16 533 -27 Q500 -38 455 -38 Q410 -38 377 -27 Q344 -16 323 1.5 Q302 19 291.5 41 Q281 63 281 86 L281 116 Q281 138 291.5 160.5 Q302 183 323 200.5 Q344 218 377 229 Q410 240 455 240 Q500 240 533 229 Q566 218 587.5 200.5 Q609 183 619.5 160.5 Q630 138 630 116 L630 86 Z M538 110 Q538 136 514.5 151 Q491 166 455 166 Q420 166 396.5 151 Q373 136 373 110 L373 92 Q373 66 396.5 51 Q420 36 455 36 Q491 36 514.5 51 Q538 66 538 92 L538 110 Z " />
<glyph glyph-name="uni317A" unicode="&#x317a;" horiz-adv-x="910" d="M693 58 L693 460 L469 460 L469 546 L786 546 L786 58 L693 58 Z M337 243 Q336 235 325 216 Q314 197 300 176 Q291 162 280.5 149 Q270 136 256.5 120.5 Q243 105 226 86 Q209 67 185 43 L122 105 Q146 130 164.5 149.5 Q183 169 197 186 Q211 203 222.5 217.5 Q234 232 243 246 Q263 277 276.5 309 Q290 341 290 391 L290 549 L384 549 L384 391 Q384 366 387 346.5 Q390 327 396 310.5 Q402 294 410.5 278.5 Q419 263 430 246 Q449 217 476 186 Q503 155 551 106 L491 43 Q443 93 417 123 Q391 153 375 176 Q361 196 350 215.5 Q339 235 338 243 L337 243 Z " />
<glyph glyph-name="uni317B" unicode="&#x317b;" horiz-adv-x="910" d="M306 243 Q305 235 294 216 Q283 197 269 176 Q260 162 250 149 Q240 136 227.5 120.5 Q215 105 198.5 86 Q182 67 159 43 L96 102 Q119 127 136.5 147.5 Q154 168 167.5 185 Q181 202 191.5 217 Q202 232 212 246 Q233 277 246 309 Q259 341 259 391 L259 549 L353 549 L353 391 Q353 366 356 346.5 Q359 327 364.5 310.5 Q370 294 378.5 278.5 Q387 263 399 246 Q408 232 418 218 Q428 204 440.5 188 Q453 172 469 153.5 Q485 135 506 112 L506 545 L599 545 L599 144 L807 144 L807 58 L506 58 L506 94 L455 43 Q432 68 414.5 87.5 Q397 107 384.5 123 Q372 139 362 151.5 Q352 164 344 176 Q330 196 319 215.5 Q308 235 307 243 L306 243 Z " />
<glyph glyph-name="uni317C" unicode="&#x317c;" horiz-adv-x="910" d="M306 243 Q305 235 294 216 Q283 197 269 176 Q260 162 250 149 Q240 136 227.5 120.5 Q215 105 198.5 86 Q182 67 159 43 L96 102 Q119 127 136.5 147.5 Q154 168 167.5 185 Q181 202 191.5 217 Q202 232 212 246 Q233 277 246 309 Q259 341 259 391 L259 549 L353 549 L353 391 Q353 366 356 346.5 Q359 327 364.5 310.5 Q370 294 378.5 278.5 Q387 263 399 246 Q408 232 418 218 Q428 204 440.5 188 Q453 172 469 153.5 Q485 135 506 112 L506 546 L794 546 L794 460 L599 460 L599 144 L803 144 L803 58 L506 58 L506 94 L455 43 Q432 68 414.5 87.5 Q397 107 384.5 123 Q372 139 362 151.5 Q352 164 344 176 Q330 196 319 215.5 Q308 235 307 243 L306 243 Z " />
<glyph glyph-name="uni317D" unicode="&#x317d;" horiz-adv-x="910" d="M306 243 Q305 235 294 216 Q283 197 269 176 Q260 162 250 149 Q240 136 227.5 120.5 Q215 105 198.5 86 Q182 67 159 43 L96 102 Q119 127 136.5 147.5 Q154 168 167.5 185 Q181 202 191.5 217 Q202 232 212 246 Q233 277 246 309 Q259 341 259 391 L259 549 L353 549 L353 391 Q353 366 356 346.5 Q359 327 364.5 310.5 Q370 294 378.5 278.5 Q387 263 399 246 Q409 232 419 217.5 Q429 203 441.5 187.5 Q454 172 470 153 Q486 134 507 111 L507 548 L599 548 L599 373 L715 373 L715 548 L806 548 L806 56 L507 56 L507 95 L455 43 Q432 68 414.5 87.5 Q397 107 384.5 123 Q372 139 362 151.5 Q352 164 344 176 Q330 196 319 215.5 Q308 235 307 243 L306 243 Z M715 288 L599 288 L599 142 L715 142 L715 288 Z " />
<glyph glyph-name="uni317E" unicode="&#x317e;" horiz-adv-x="910" d="M613 243 Q611 232 606 218 Q601 204 582 175 Q574 163 566 150 Q558 137 545.5 120.5 Q533 104 514.5 83 Q496 62 468 32 Q440 60 420.5 81.5 Q401 103 386.5 120.5 Q372 138 362 151 Q352 164 344 176 Q330 196 319 215.5 Q308 235 307 243 L306 243 Q305 235 294 216 Q283 197 269 176 Q260 162 250 149 Q240 136 227.5 120.5 Q215 105 198.5 86 Q182 67 159 43 L96 102 Q119 127 136.5 147.5 Q154 168 167.5 185 Q181 202 191.5 217 Q202 232 212 246 Q233 277 246 309 Q259 341 259 391 L259 549 L353 549 L353 391 Q353 366 356 346.5 Q359 327 364.5 310.5 Q370 294 378.5 278.5 Q387 263 399 246 Q413 226 427.5 205 Q442 184 465 158 Q483 181 496.5 199.5 Q510 218 521 238 Q534 260 542.5 277.5 Q551 295 556 311.5 Q561 328 563 346 Q565 364 565 388 L565 467 L440 467 L440 548 L782 548 L782 467 L658 467 L658 388 Q658 364 660 346 Q662 328 667 311.5 Q672 295 680.5 277.5 Q689 260 703 238 Q712 224 721.5 209.5 Q731 195 744 178 Q757 161 773.5 141 Q790 121 812 96 L748 39 Q726 65 710 85 Q694 105 682 121 Q670 137 661.5 150 Q653 163 645 175 Q626 204 621 218 Q616 232 614 243 L613 243 Z " />
<glyph glyph-name="uni317F" unicode="&#x317f;" horiz-adv-x="910" d="M693 66 L217 66 L454 638 L693 66 Z M560 148 Q549 173 535.5 207.5 Q522 242 507 278.5 Q492 315 478 350 Q464 385 454 412 L351 148 L560 148 Z " />
<glyph glyph-name="uni3180" unicode="&#x3180;" horiz-adv-x="910" d="M269 556 Q350 556 394.5 502 Q439 448 439 340 L439 261 Q439 153 394 99 Q349 45 269 45 Q191 45 146 99 Q101 153 101 261 L101 340 Q101 448 146 502 Q191 556 269 556 Z M269 126 Q308 126 328 159 Q348 192 348 270 L348 331 Q348 409 328 441.5 Q308 474 269 474 Q231 474 211.5 441.5 Q192 409 192 331 L192 270 Q192 192 211.5 159 Q231 126 269 126 Z M638 556 Q719 556 763.5 502 Q808 448 808 340 L808 261 Q808 153 763 99 Q718 45 638 45 Q560 45 515 99 Q470 153 470 261 L470 340 Q470 448 515 502 Q560 556 638 556 Z M638 126 Q677 126 697 159 Q717 192 717 270 L717 331 Q717 409 697 441.5 Q677 474 638 474 Q600 474 580.5 441.5 Q561 409 561 331 L561 270 Q561 192 580.5 159 Q600 126 638 126 Z " />
<glyph glyph-name="uni3181" unicode="&#x3181;" horiz-adv-x="910" d="M454 -17 Q392 -17 344.5 3 Q297 23 264.5 55 Q232 87 215 127 Q198 167 198 207 L198 276 Q198 312 212 347.5 Q226 383 252.5 413.5 Q279 444 318 465.5 Q357 487 408 494 L408 657 L500 657 L500 494 Q551 487 590.5 465.5 Q630 444 656.5 413.5 Q683 383 697 347.5 Q711 312 711 276 L711 207 Q711 167 694 127 Q677 87 644.5 55 Q612 23 564 3 Q516 -17 454 -17 Z M454 414 Q418 414 388 402.5 Q358 391 337 371.5 Q316 352 304 324.5 Q292 297 292 266 L292 217 Q292 186 304 159 Q316 132 337 112.5 Q358 93 388 81.5 Q418 70 454 70 Q490 70 520 81.5 Q550 93 571.5 112.5 Q593 132 605 159 Q617 186 617 217 L617 266 Q617 297 605 324.5 Q593 352 571.5 371.5 Q550 391 520 402.5 Q490 414 454 414 Z " />
<glyph glyph-name="uni3182" unicode="&#x3182;" horiz-adv-x="910" d="M604 243 Q603 235 592 216 Q581 197 567 176 Q558 162 548 149 Q538 136 525.5 120.5 Q513 105 496.5 86 Q480 67 457 43 L395 100 Q352 48 267 48 Q190 48 148 92 Q106 136 106 222 L106 274 Q106 346 136 388.5 Q166 431 222 443 L222 565 L312 565 L312 444 Q370 432 401 388 Q432 344 432 272 L432 224 Q432 158 405 114 Q445 158 468 188.5 Q491 219 510 246 Q531 277 544 309 Q557 341 557 391 L557 549 L651 549 L651 391 Q651 366 654 346.5 Q657 327 662.5 310.5 Q668 294 676.5 278.5 Q685 263 697 246 Q707 231 717.5 216.5 Q728 202 741.5 185 Q755 168 772.5 148 Q790 128 813 103 L753 43 Q730 68 712.5 87.5 Q695 107 682.5 123 Q670 139 660 151.5 Q650 164 642 176 Q628 196 617 215.5 Q606 235 605 243 L604 243 Z M343 264 Q343 315 325 343 Q307 371 267 371 Q230 371 212.5 343 Q195 315 195 264 L195 232 Q195 181 212.5 153 Q230 125 267 125 Q307 125 325 153 Q343 181 343 232 L343 264 Z " />
</font>
</svg>
